<?xml version="1.0" standalone="no"?>
<!DOCTYPE svg PUBLIC "-//W3C//DTD SVG 1.1//EN" "http://www.w3.org/Graphics/SVG/1.1/DTD/svg11.dtd" >
<svg>
<metadata>
Created by FontForge 20090622 at Mon Oct  5 11:52:44 2020
 By deploy user
Copyright &#195;&#131;&#194;&#130;&#195;&#130;&#194;&#169; 2004 - 2007 Linotype GmbH, www.linotype.com. All rights reserved.
</metadata>
<defs>
<font id="AvenirNextLTPro-Bold" horiz-adv-x="300" >
  <font-face 
    font-family="Avenir Next LT Pro"
    font-weight="700"
    font-stretch="normal"
    units-per-em="1000"
    panose-1="0 0 0 0 0 0 0 0 0 0"
    ascent="800"
    descent="-200"
    x-height="498"
    cap-height="708"
    bbox="-537 -486 1563 1216"
    underline-thickness="50"
    underline-position="-50"
    unicode-range="U+000D-U+FE48"
  />
<missing-glyph horiz-adv-x="512" 
d="M0 718h512v-718h-512v718zM50 50h412v617h-412v-617zM271 234h-46l-2 17q0 56 13 81q17 33 46 59q30 29 40 46.5t10 36.5q0 36 -22.5 60.5t-53.5 24.5q-71 0 -82 -95l-50 8q6 69 42 103t93 34q55 0 89.5 -36t34.5 -95q0 -34 -13 -60t-50 -60q-37 -33 -43 -52
q-6 -20 -6 -72zM278 117h-56v67h56v-67z" />
    <glyph glyph-name=".notdef" horiz-adv-x="512" 
d="M0 718h512v-718h-512v718zM50 50h412v617h-412v-617zM271 234h-46l-2 17q0 56 13 81q17 33 46 59q30 29 40 46.5t10 36.5q0 36 -22.5 60.5t-53.5 24.5q-71 0 -82 -95l-50 8q6 69 42 103t93 34q55 0 89.5 -36t34.5 -95q0 -34 -13 -60t-50 -60q-37 -33 -43 -52
q-6 -20 -6 -72zM278 117h-56v67h56v-67z" />
    <glyph glyph-name=".null" horiz-adv-x="500" 
 />
    <glyph glyph-name=".null" horiz-adv-x="500" 
 />
    <glyph glyph-name="nonmarkingreturn" horiz-adv-x="333" 
 />
    <glyph glyph-name="CR" unicode="&#xd;" horiz-adv-x="0" 
 />
    <glyph glyph-name="space" unicode=" " horiz-adv-x="250" 
 />
    <glyph glyph-name="exclam" unicode="!" horiz-adv-x="357" 
d="M276 85q0 -40 -28.5 -67.5t-69.5 -27.5q-39 0 -68 27.5t-29 66.5t28.5 67t68.5 28q41 0 69.5 -27.5t28.5 -66.5zM262 237h-168v471h168v-471z" />
    <glyph glyph-name="quotedbl" unicode="&#x22;" horiz-adv-x="498" 
d="M217 437h-131v271h131v-271zM411 437h-130v271h130v-271z" />
    <glyph glyph-name="numbersign" unicode="#" horiz-adv-x="603" 
d="M348 404h-79l-13 -100h78zM557 404h-99l-14 -100h85v-104h-98l-30 -200h-110l29 200h-79l-29 -200h-110l29 200h-85v104h99l15 100h-85v104h98l29 200h111l-29 -200h78l29 200h110l-28 -200h84v-104z" />
    <glyph glyph-name="dollar" unicode="$" horiz-adv-x="646" 
d="M356 280v-158q34 2 53.5 22.5t19.5 55.5q0 33 -18.5 51t-54.5 29zM287 444v145q-29 -3 -49.5 -21.5t-20.5 -49.5q0 -56 70 -74zM360 786v-68q137 -5 224 -76l-97 -109q-52 52 -127 54v-160q39 -12 64 -21.5t59.5 -28t54.5 -39.5t34.5 -54.5t14.5 -74.5q0 -103 -67.5 -160
t-163.5 -59v-73h-74v73q-150 5 -247 92l105 110q25 -29 67 -49t75 -20v175q-39 11 -67 21t-58.5 27.5t-49.5 38.5t-31 52t-12 70q0 93 68 149.5t155 60.5v69h73z" />
    <glyph glyph-name="percent" unicode="%" horiz-adv-x="911" 
d="M713 695l-417 -729l-89 44l413 730zM297 531q0 32 -23 55t-55 23t-55 -23t-23 -55t23 -54.5t55 -22.5t55 22.5t23 54.5zM409 531q0 -78 -55.5 -133.5t-134.5 -55.5t-134.5 55.5t-55.5 133.5q0 80 55.5 134.5t134.5 54.5t134.5 -54.5t55.5 -134.5zM777 177q0 33 -23 55.5
t-55 22.5t-55 -23t-23 -55t23 -54.5t55 -22.5t55 22.5t23 54.5zM889 177q0 -78 -55.5 -133.5t-134.5 -55.5t-134.5 55.5t-55.5 133.5t55.5 133.5t134.5 55.5t134.5 -55.5t55.5 -133.5z" />
    <glyph glyph-name="ampersand" unicode="&#x26;" horiz-adv-x="781" 
d="M409 169l-125 130q-75 -30 -75 -95q0 -40 29 -64.5t67 -24.5q65 0 104 54zM410 542q0 28 -18.5 46.5t-48.5 18.5q-29 0 -48.5 -18.5t-19.5 -46.5q0 -50 53 -92q82 35 82 92zM780 0h-207l-67 69q-78 -83 -207 -83q-105 0 -179.5 54.5t-74.5 156.5q0 130 148 196
q-73 71 -73 154q0 89 66.5 134.5t154.5 45.5q89 0 152.5 -46t63.5 -134q0 -112 -142 -185l89 -91l71 109h182l-153 -205z" />
    <glyph glyph-name="quotesingle" unicode="'" horiz-adv-x="303" 
d="M216 437h-130v271h130v-271z" />
    <glyph glyph-name="parenleft" unicode="(" horiz-adv-x="342" 
d="M288 -111l-112 -55q-147 203 -147 454t147 454l112 -55q-130 -180 -130 -399t130 -399z" />
    <glyph glyph-name="parenright" unicode=")" horiz-adv-x="342" 
d="M313 288q0 -251 -147 -454l-112 55q130 180 130 399t-130 399l112 55q147 -203 147 -454z" />
    <glyph glyph-name="asterisk" unicode="*" horiz-adv-x="489" 
d="M461 518l-128 -40l81 -107l-90 -63l-81 109l-79 -105l-88 63l81 104l-129 43l35 100l127 -44v130h110v-130l127 40z" />
    <glyph glyph-name="plus" unicode="+" horiz-adv-x="666" 
d="M611 240h-212v-209h-130v209h-213v126h212v209h130v-209h213v-126z" />
    <glyph glyph-name="comma" unicode="," 
d="M252 160l-97 -284h-135l75 284h157z" />
    <glyph glyph-name="hyphen" unicode="-" horiz-adv-x="326" 
d="M290 197h-254v130h254v-130z" />
    <glyph glyph-name="period" unicode="." 
d="M251 88q0 -42 -29 -70t-71 -28t-72 28t-30 69q0 40 30 69.5t72 29.5t71 -28t29 -70z" />
    <glyph glyph-name="slash" unicode="/" horiz-adv-x="415" 
d="M415 723l-309 -775l-113 37l309 777z" />
    <glyph glyph-name="zero" unicode="0" horiz-adv-x="646" 
d="M428 356q0 38 -4 73.5t-14.5 73t-32.5 60t-53 22.5t-53.5 -22.5t-33 -60t-15 -73t-4.5 -73.5q0 -39 4.5 -75t15 -73.5t32.5 -60t54 -22.5q31 0 53 22.5t32.5 60t14.5 73t4 75.5zM600 356q0 -78 -15.5 -143.5t-47 -118.5t-86 -83t-127.5 -30t-128 30t-87 83t-47.5 118.5
t-15.5 143.5t15.5 143t47.5 117t87 81.5t128 29.5t127.5 -29.5t86 -81.5t47 -117t15.5 -143z" />
    <glyph glyph-name="one" unicode="1" horiz-adv-x="646" 
d="M451 0h-168v520l-132 -102l-87 119l233 171h154v-708z" />
    <glyph glyph-name="two" unicode="2" horiz-adv-x="646" 
d="M580 0h-512v140l276 250q58 52 58 109q0 38 -24 61.5t-64 23.5q-41 0 -68 -29t-32 -78l-161 22q12 105 87.5 166.5t182.5 61.5t181.5 -56t74.5 -161q0 -69 -31.5 -116.5t-92.5 -101.5l-164 -146h289v-146z" />
    <glyph glyph-name="three" unicode="3" horiz-adv-x="646" 
d="M583 206q0 -74 -40.5 -126.5t-99.5 -75.5t-127 -23q-103 0 -180.5 47t-103.5 141l156 41q10 -37 42 -62.5t78 -25.5q41 0 72 22t31 68q0 50 -41.5 71.5t-102.5 21.5h-45v123h49q124 0 124 84q0 37 -26 57.5t-63 20.5q-36 0 -62.5 -21.5t-34.5 -57.5l-156 36q25 86 98 133
t166 47q102 0 175.5 -52t73.5 -148q0 -58 -33 -98.5t-86 -55.5v-3q60 -14 98 -59.5t38 -104.5z" />
    <glyph glyph-name="four" unicode="4" horiz-adv-x="646" 
d="M359 274v262h-3l-168 -262h171zM612 138h-97v-138h-157v138h-333v141l288 429h201v-434h98v-136z" />
    <glyph glyph-name="five" unicode="5" horiz-adv-x="646" 
d="M582 234q0 -122 -80 -187.5t-193 -65.5q-97 0 -171 48.5t-98 131.5l153 47q12 -38 42.5 -61.5t71.5 -23.5q45 0 75.5 27t30.5 76q0 58 -42 83t-103 25q-90 0 -173 -31l17 405h434v-144h-285l-6 -112q29 7 71 7q112 0 184 -58.5t72 -166.5z" />
    <glyph glyph-name="six" unicode="6" horiz-adv-x="646" 
d="M433 234q0 49 -30 80t-80 31t-81 -31t-31 -81q0 -47 30.5 -79.5t80.5 -32.5t80.5 31t30.5 82zM601 238q0 -117 -80 -187t-199 -70t-199 69.5t-80 183.5q0 100 79 219l171 255h203l-174 -242l-3 -5q21 8 50 8q96 0 164 -64.5t68 -166.5z" />
    <glyph glyph-name="seven" unicode="7" horiz-adv-x="646" 
d="M577 574l-271 -574h-195l287 564h-335v144h514v-134z" />
    <glyph glyph-name="eight" unicode="8" horiz-adv-x="646" 
d="M421 208q0 41 -27.5 68.5t-70.5 27.5q-44 0 -71.5 -27t-27.5 -69q0 -43 27.5 -68.5t71.5 -25.5t71 25.5t27 68.5zM408 516q0 35 -24.5 58t-60.5 23q-38 0 -61 -22.5t-23 -58.5q0 -35 23 -59.5t61 -24.5q36 0 60.5 25t24.5 59zM589 202q0 -106 -77 -163.5t-189 -57.5
q-113 0 -189.5 57t-76.5 163q0 61 36.5 106.5t90.5 62.5v2q-49 18 -78.5 57t-29.5 96q0 95 71.5 148.5t175.5 53.5t175.5 -52.5t71.5 -146.5q0 -58 -29.5 -98.5t-78.5 -56.5v-3q55 -16 91 -61.5t36 -106.5z" />
    <glyph glyph-name="nine" unicode="9" horiz-adv-x="646" 
d="M434 476q0 47 -30 80t-80 33q-51 0 -81.5 -31.5t-30.5 -82.5q0 -49 30 -80t80 -31t81 31t31 81zM602 474q0 -100 -79 -219l-171 -255h-203l176 244l2 3q-24 -8 -50 -8q-96 0 -164.5 64.5t-68.5 166.5q0 117 80 187t199 70t199 -69.5t80 -183.5z" />
    <glyph glyph-name="colon" unicode=":" horiz-adv-x="332" 
d="M264 89q0 -39 -29 -67t-68 -28q-40 0 -69.5 27.5t-29.5 66.5t29.5 67.5t69.5 28.5q39 0 68 -28t29 -67zM264 410q0 -39 -29 -67.5t-68 -28.5q-40 0 -69.5 27.5t-29.5 66.5t29.5 67.5t69.5 28.5q39 0 68 -27.5t29 -66.5z" />
    <glyph glyph-name="semicolon" unicode=";" horiz-adv-x="332" 
d="M265 160l-97 -284h-138l75 284h160zM264 410q0 -40 -28.5 -67.5t-68.5 -27.5t-69 27.5t-29 66.5q0 40 28.5 68t69.5 28q39 0 68 -28t29 -67z" />
    <glyph glyph-name="less" unicode="&#x3c;" horiz-adv-x="666" 
d="M587 37l-508 214v103l508 214v-136l-306 -131l306 -127v-137z" />
    <glyph glyph-name="equal" unicode="=" horiz-adv-x="666" 
d="M598 150h-530v123h530v-123zM598 335h-530v123h530v-123z" />
    <glyph glyph-name="greater" unicode="&#x3e;" horiz-adv-x="666" 
d="M587 251l-508 -214v137l306 127l-306 131v136l508 -214v-103z" />
    <glyph glyph-name="question" unicode="?" horiz-adv-x="546" 
d="M381 85q0 -40 -28 -67.5t-69 -27.5q-40 0 -69 27.5t-29 66.5t29 67t69 28t68.5 -27.5t28.5 -66.5zM527 527q0 -60 -26 -97.5t-86 -84.5q-33 -26 -43.5 -44t-10.5 -49v-26h-156v38q0 48 18 78.5t61 71.5l33 31q41 39 41 71t-19.5 51t-53.5 19q-40 0 -62 -27t-24 -66
l-159 17q12 105 81 161t170 56q63 0 115 -20t86.5 -66.5t34.5 -113.5z" />
    <glyph glyph-name="at" unicode="@" horiz-adv-x="800" 
d="M465 379q0 78 -56 78q-36 0 -59.5 -40t-23.5 -88q0 -70 55 -70q41 0 62.5 37.5t21.5 82.5zM774 401q0 -112 -57.5 -176.5t-147.5 -64.5q-40 0 -65.5 17.5t-29.5 46.5h-4q-39 -64 -119 -64q-67 0 -105.5 47t-38.5 122q0 88 54 156.5t138 68.5q37 0 62.5 -15.5t32.5 -38.5
h1l7 34h108l-31 -157q-13 -69 -13 -83q0 -36 29 -36q32 0 54.5 36.5t22.5 102.5q0 114 -71 176t-188 62q-121 0 -197.5 -80t-76.5 -202q0 -126 80 -201.5t207 -75.5q136 0 230 86l63 -70q-111 -110 -304 -110q-170 0 -278 104t-108 267q0 158 112.5 265.5t272.5 107.5
q97 0 177 -35.5t131.5 -111t51.5 -178.5z" />
    <glyph glyph-name="A" unicode="A" horiz-adv-x="729" 
d="M451 276l-88 243l-90 -243h178zM743 0h-190l-55 139h-274l-52 -139h-186l297 708h166z" />
    <glyph glyph-name="B" unicode="B" horiz-adv-x="665" 
d="M454 222q0 78 -121 78h-95v-162h96q120 0 120 84zM431 503q0 69 -109 69h-84v-146h92q101 0 101 77zM625 206q0 -74 -40.5 -122t-98.5 -66t-131 -18h-282v708h282q45 0 84.5 -8.5t76.5 -28t58.5 -57t21.5 -88.5q0 -114 -116 -153v-2q63 -10 104 -54t41 -111z" />
    <glyph glyph-name="C" unicode="C" horiz-adv-x="696" 
d="M577 210l119 -112q-102 -117 -275 -117q-165 0 -273 104.5t-108 269.5q0 168 109.5 270t274.5 102q77 0 149 -27t116 -77l-116 -116q-47 65 -143 65q-89 0 -146.5 -61.5t-57.5 -155.5q0 -96 56.5 -156.5t144.5 -60.5q98 0 150 72z" />
    <glyph glyph-name="D" unicode="D" horiz-adv-x="774" 
d="M556 356q0 110 -65.5 158t-165.5 48h-85v-414h81q49 0 89 11t74 34t53 64.5t19 98.5zM734 356q0 -90 -34 -160t-91.5 -112t-126.5 -63t-145 -21h-264v708h256q63 0 119.5 -10.5t109.5 -36.5t91.5 -65t61.5 -100.5t23 -139.5z" />
    <glyph glyph-name="E" unicode="E" horiz-adv-x="607" 
d="M567 0h-494v708h476v-145h-311v-133h294v-137h-294v-147h329v-146z" />
    <glyph glyph-name="F" unicode="F" horiz-adv-x="576" 
d="M539 562h-297v-146h274v-141h-274v-275h-169v708h466v-146z" />
    <glyph glyph-name="G" unicode="G" horiz-adv-x="769" 
d="M702 418v-375q-117 -61 -273 -61q-171 0 -280 103.5t-109 269.5q0 168 109.5 270t274.5 102q83 0 155 -25.5t118 -68.5l-108 -123q-56 66 -159 66q-90 0 -149 -62.5t-59 -158.5q0 -101 56.5 -162t159.5 -61q62 0 107 19v129h-135v138h292z" />
    <glyph glyph-name="H" unicode="H" horiz-adv-x="764" 
d="M691 0h-171v296h-276v-296h-171v708h171v-268h276v268h171v-708z" />
    <glyph glyph-name="I" unicode="I" horiz-adv-x="318" 
d="M245 0h-172v708h172v-708z" />
    <glyph glyph-name="J" unicode="J" horiz-adv-x="529" 
d="M460 708v-466q0 -37 -5.5 -70.5t-21.5 -69.5t-41 -62t-67.5 -42.5t-97.5 -16.5q-88 0 -148.5 45.5t-81.5 120.5l151 51q7 -28 25.5 -45t45.5 -17q39 0 54 26.5t15 78.5v467h172z" />
    <glyph glyph-name="K" unicode="K" horiz-adv-x="711" 
d="M729 0h-223l-263 326h-2v-326h-168v708h168v-288h3l253 288h214l-305 -326z" />
    <glyph glyph-name="L" unicode="L" horiz-adv-x="526" 
d="M519 0h-446v708h172v-559h274v-149z" />
    <glyph glyph-name="M" unicode="M" horiz-adv-x="955" 
d="M882 0h-167l4 501h-3l-184 -501h-120l-179 501h-3l4 -501h-161v708h243l161 -454h4l154 454h247v-708z" />
    <glyph glyph-name="N" unicode="N" horiz-adv-x="790" 
d="M717 0h-194l-285 463h-3l4 -463h-166v708h195l284 -462h3l-4 462h166v-708z" />
    <glyph glyph-name="O" unicode="O" horiz-adv-x="851" 
d="M628 357q0 94 -57 155t-146 61t-145.5 -61t-56.5 -155q0 -96 56.5 -158t145.5 -62t146 62t57 158zM811 357q0 -167 -109 -271.5t-277 -104.5q-167 0 -276 104.5t-109 271.5q0 168 108.5 269t276.5 101q169 0 277.5 -101t108.5 -269z" />
    <glyph glyph-name="P" unicode="P" horiz-adv-x="640" 
d="M439 489q0 81 -120 81h-75v-167h72q123 0 123 86zM610 490q0 -78 -40.5 -130t-101 -72.5t-139.5 -20.5h-85v-267h-171v708h260q126 0 201.5 -51.5t75.5 -166.5z" />
    <glyph glyph-name="Q" unicode="Q" horiz-adv-x="857" 
d="M620 361q0 93 -56 152t-144 59q-87 0 -143.5 -59t-56.5 -152q0 -96 55.5 -155.5t143.5 -59.5t144.5 60t56.5 155zM845 0h-431q-172 0 -275 96t-103 267q0 161 109 262.5t275 101.5t273.5 -101t107.5 -260q0 -76 -30.5 -135.5t-74.5 -94.5v-3l149 3v-136z" />
    <glyph glyph-name="R" unicode="R" horiz-adv-x="663" 
d="M445 491q0 79 -114 79h-91v-165h81q124 0 124 86zM652 0h-200l-153 281h-58v-281h-168v708h270q54 0 100 -11t86 -34.5t62.5 -66.5t22.5 -102q0 -71 -38.5 -120.5t-108.5 -70.5z" />
    <glyph glyph-name="S" unicode="S" horiz-adv-x="591" 
d="M556 639l-109 -115q-21 27 -56.5 44t-69.5 17q-40 0 -69.5 -16.5t-29.5 -54.5q0 -32 24 -47.5t85 -35.5q40 -13 61 -21t56.5 -26.5t54 -38.5t33.5 -53t15 -74q0 -115 -78.5 -175.5t-192.5 -60.5q-77 0 -147.5 27t-117.5 75l112 114q27 -33 69.5 -54t83.5 -21
q43 0 70.5 18.5t27.5 58.5q0 36 -33 56t-114 45q-39 12 -67.5 26.5t-56.5 37.5t-42.5 58t-14.5 81q0 57 24 101t63.5 69.5t87 38.5t99.5 13q62 0 124 -22.5t108 -64.5z" />
    <glyph glyph-name="T" unicode="T" horiz-adv-x="581" 
d="M576 562h-200v-562h-171v562h-200v146h571v-146z" />
    <glyph glyph-name="U" unicode="U" horiz-adv-x="738" 
d="M673 708v-441q0 -128 -83.5 -207t-221.5 -79q-139 0 -220.5 78.5t-81.5 207.5v441h170v-427q0 -63 33 -104.5t100 -41.5q68 0 100.5 41.5t32.5 104.5v427h171z" />
    <glyph glyph-name="V" unicode="V" horiz-adv-x="682" 
d="M697 708l-273 -708h-171l-268 708h192l164 -502h4l163 502h189z" />
    <glyph glyph-name="W" unicode="W" horiz-adv-x="1025" 
d="M1025 708l-202 -708h-169l-140 479h-3l-140 -479h-170l-201 708h184l112 -471h3l126 471h178l127 -471h3l114 471h178z" />
    <glyph glyph-name="X" unicode="X" horiz-adv-x="703" 
d="M711 0h-211l-155 250l-149 -250h-204l248 374l-228 334h206l132 -220l130 220h199l-224 -334z" />
    <glyph glyph-name="Y" unicode="Y" horiz-adv-x="669" 
d="M689 708l-272 -408v-300h-171v300l-266 408h207l151 -262l151 262h200z" />
    <glyph glyph-name="Z" unicode="Z" horiz-adv-x="635" 
d="M597 0h-558v148l337 415h-329v145h543v-137l-345 -423h352v-148z" />
    <glyph glyph-name="bracketleft" unicode="[" horiz-adv-x="342" 
d="M269 -156h-216v888h216v-102h-89v-684h89v-102z" />
    <glyph glyph-name="backslash" unicode="\" horiz-adv-x="415" 
d="M422 -15l-113 -37l-308 775l113 39z" />
    <glyph glyph-name="bracketright" unicode="]" horiz-adv-x="342" 
d="M289 -156h-216v102h89v684h-89v102h216v-888z" />
    <glyph glyph-name="asciicircum" unicode="^" horiz-adv-x="690" 
d="M616 343h-148l-124 213l-123 -213h-148l213 365h118z" />
    <glyph glyph-name="underscore" unicode="_" horiz-adv-x="500" 
d="M500 -164h-500v89h500v-89z" />
    <glyph glyph-name="grave" unicode="`" 
d="M231 572h-124l-146 144h166z" />
    <glyph glyph-name="a" unicode="a" horiz-adv-x="566" 
d="M140 341l-83 89q88 84 222 84q123 0 176 -62.5t53 -200.5v-251h-150v53h-3q-18 -30 -56.5 -47.5t-84.5 -17.5q-71 0 -126 38t-55 118q0 168 320 168v8q0 35 -25 53.5t-65 18.5q-67 0 -123 -51zM358 200v17h-21q-153 0 -153 -68q0 -26 21 -38.5t50 -12.5q50 0 76.5 27
t26.5 75z" />
    <glyph glyph-name="b" unicode="b" horiz-adv-x="659" 
d="M461 251q0 52 -31.5 89.5t-86.5 37.5q-53 0 -86.5 -38.5t-33.5 -89.5t33.5 -89.5t86.5 -38.5q55 0 86.5 38.5t31.5 90.5zM619 251q0 -109 -64.5 -187t-172.5 -78q-51 0 -95 21t-68 58h-2v-65h-151v756h164v-311h2q57 67 152 67q105 0 170 -76t65 -185z" />
    <glyph glyph-name="c" unicode="c" horiz-adv-x="503" 
d="M502 447l-95 -110q-32 40 -87 40q-50 0 -82.5 -38t-32.5 -90q0 -53 32 -90t85 -37q58 0 89 37l91 -111q-66 -64 -184 -64q-121 0 -200 72t-79 193q0 120 79 192.5t199 72.5q54 0 104.5 -18.5t80.5 -48.5z" />
    <glyph glyph-name="d" unicode="d" horiz-adv-x="658" 
d="M435 250q0 51 -33.5 89.5t-86.5 38.5q-55 0 -86.5 -37.5t-31.5 -89.5t31.5 -90.5t86.5 -38.5q53 0 86.5 38.5t33.5 89.5zM592 0h-151v65h-2q-24 -37 -68 -58t-95 -21q-108 0 -172.5 78t-64.5 187t65 185t170 76q95 0 152 -67h2v311h164v-756z" />
    <glyph glyph-name="e" unicode="e" horiz-adv-x="596" 
d="M558 243q0 -27 -1 -39h-361q4 -40 39 -67t80 -27q71 0 110 52l114 -72q-73 -106 -226 -106q-117 0 -195.5 70.5t-78.5 192.5q0 120 76.5 193.5t192.5 73.5q112 0 181 -72.5t69 -198.5zM196 306h211q0 41 -25.5 68t-72.5 27t-79 -27.5t-34 -67.5z" />
    <glyph glyph-name="f" unicode="f" horiz-adv-x="364" 
d="M384 765l-11 -130q-21 7 -45 7q-73 0 -73 -94v-50h111v-123h-111v-375h-164v375h-91v123h91v48q0 229 214 229q46 0 79 -10z" />
    <glyph glyph-name="g" unicode="g" horiz-adv-x="658" 
d="M436 252q0 53 -33.5 89.5t-87.5 36.5t-85.5 -36t-31.5 -90q0 -53 32 -90t85 -37q55 0 88 37t33 90zM592 498v-451q0 -142 -78 -214.5t-215 -72.5q-68 0 -137 20.5t-119 57.5l82 117q70 -63 165 -63q70 0 105.5 37t35.5 102v30h-3q-51 -66 -151 -66q-110 0 -174 73.5
t-64 182.5q0 108 64.5 184.5t172.5 76.5q107 0 159 -78h2v64h155z" />
    <glyph glyph-name="h" unicode="h" horiz-adv-x="617" 
d="M557 0h-165v270q0 105 -73 105q-42 0 -65.5 -30t-23.5 -76v-269h-164v756h164v-321h2q19 33 56.5 55t86.5 22q94 0 138 -59.5t44 -144.5v-308z" />
    <glyph glyph-name="i" unicode="i" horiz-adv-x="296" 
d="M230 0h-164v498h164v-498zM242 657q0 -38 -27.5 -64t-66.5 -26t-66.5 26.5t-27.5 63.5q0 36 27.5 63t66.5 27t66.5 -26t27.5 -64z" />
    <glyph glyph-name="j" unicode="j" horiz-adv-x="299" 
d="M233 498v-511q0 -50 -9 -88.5t-30 -71t-61.5 -50t-98.5 -17.5q-41 0 -71 8l11 137q15 -5 35 -5q34 0 47 22.5t13 64.5v511h164zM245 657q0 -38 -27.5 -64t-66.5 -26t-66.5 26.5t-27.5 63.5q0 36 27.5 63t66.5 27t66.5 -26t27.5 -64z" />
    <glyph glyph-name="k" unicode="k" horiz-adv-x="595" 
d="M399 273l200 -273h-203l-163 239h-3v-239h-165v756h165v-460h3l159 202h199z" />
    <glyph glyph-name="l" unicode="l" horiz-adv-x="298" 
d="M232 0h-166v756h166v-756z" />
    <glyph glyph-name="m" unicode="m" horiz-adv-x="924" 
d="M864 0h-164v272q0 105 -71 105q-40 0 -61.5 -31.5t-21.5 -76.5v-269h-164v284q0 93 -71 93q-38 0 -60 -30.5t-22 -76.5v-270h-165v498h159v-69h2q20 35 58.5 59t90.5 24q107 0 150 -85q54 85 159 85q64 0 106.5 -32.5t58.5 -76.5t16 -95v-308z" />
    <glyph glyph-name="n" unicode="n" horiz-adv-x="616" 
d="M556 0h-165v272q0 105 -74 105q-42 0 -65 -30.5t-23 -76.5v-270h-165v498h159v-69h2q20 35 59.5 59t89.5 24q93 0 137.5 -59.5t44.5 -144.5v-308z" />
    <glyph glyph-name="o" unicode="o" horiz-adv-x="632" 
d="M434 251q0 51 -32.5 89t-86.5 38q-55 0 -86 -37.5t-31 -89.5t31.5 -90.5t86.5 -38.5t86.5 38.5t31.5 90.5zM592 251q0 -119 -80 -193t-197 -74q-116 0 -196 74t-80 193t79.5 191t196.5 72t197 -72t80 -191z" />
    <glyph glyph-name="p" unicode="p" horiz-adv-x="657" 
d="M459 251q0 52 -31 89.5t-86 37.5q-53 0 -86.5 -38.5t-33.5 -89.5t33.5 -89.5t86.5 -38.5q55 0 86 38.5t31 90.5zM618 251q0 -109 -64.5 -187t-172.5 -78q-46 0 -87 18.5t-64 50.5h-2v-295h-164v738h156v-61h3q58 75 159 75q106 0 171 -76t65 -185z" />
    <glyph glyph-name="q" unicode="q" horiz-adv-x="657" 
d="M435 250q0 51 -33.5 89.5t-86.5 38.5q-55 0 -86.5 -37.5t-31.5 -89.5t31.5 -90.5t86.5 -38.5q53 0 86.5 38.5t33.5 89.5zM592 -240h-163v295h-2q-24 -32 -64.5 -50.5t-86.5 -18.5q-109 0 -173 77.5t-64 187.5q0 109 65 185t170 76q102 0 160 -75h3v61h155v-738z" />
    <glyph glyph-name="r" unicode="r" horiz-adv-x="396" 
d="M394 508l-7 -144q-19 5 -42 5q-59 0 -88 -36.5t-29 -76.5v-256h-164v498h158v-72h2q19 39 54.5 62.5t80.5 23.5q24 0 35 -4z" />
    <glyph glyph-name="s" unicode="s" horiz-adv-x="472" 
d="M447 444l-90 -93q-49 45 -104 45q-26 0 -44 -10t-18 -30t19 -29t72 -21q159 -36 159 -152q0 -86 -63 -128t-150 -42q-138 0 -217 77l92 97q51 -56 122 -56q24 0 41.5 10.5t17.5 32.5t-21.5 33t-77.5 24q-145 34 -145 145q0 82 63 124.5t144 42.5q127 0 200 -70z" />
    <glyph glyph-name="t" unicode="t" horiz-adv-x="372" 
d="M359 375h-117v-190q0 -36 14 -53t48 -17q29 0 48 8l2 -120q-43 -15 -95 -15q-95 0 -136 46t-41 131v210h-80v123h79v131h161v-131h117v-123z" />
    <glyph glyph-name="u" unicode="u" horiz-adv-x="614" 
d="M550 0h-158v69h-2q-19 -35 -59.5 -59t-90.5 -24q-92 0 -136.5 59.5t-44.5 144.5v308h165v-270q0 -106 74 -106q41 0 64.5 31t23.5 76v269h164v-498z" />
    <glyph glyph-name="v" unicode="v" horiz-adv-x="567" 
d="M568 498l-196 -498h-177l-196 498h181l105 -323h3l105 323h175z" />
    <glyph glyph-name="w" unicode="w" horiz-adv-x="871" 
d="M871 498l-173 -498h-165l-98 310h-2l-96 -310h-165l-172 498h177l86 -315h3l89 315h165l92 -315h2l87 315h170z" />
    <glyph glyph-name="x" unicode="x" horiz-adv-x="594" 
d="M597 0h-193l-107 153l-110 -153h-190l199 261l-180 237h191l93 -133l94 133h185l-179 -237z" />
    <glyph glyph-name="y" unicode="y" horiz-adv-x="567" 
d="M568 498l-223 -573q-32 -84 -81 -124.5t-138 -40.5q-52 0 -90 11l18 138q29 -9 53 -9q36 0 53 15.5t31 51.5l16 41l-208 490h182l111 -320h3l99 320h174z" />
    <glyph glyph-name="z" unicode="z" horiz-adv-x="512" 
d="M478 0h-444v128l234 244h-225v126h425v-123l-241 -248h251v-127z" />
    <glyph glyph-name="braceleft" unicode="{" horiz-adv-x="342" 
d="M292 -156h-82q-63 0 -100 40t-37 108v167q0 74 -67 74v110q67 0 67 70v171q0 68 37 108t100 40h82v-105h-47q-46 0 -46 -60v-167q0 -51 -31 -79.5t-62 -31.5v-2q33 -3 63 -30t30 -85v-163q0 -60 46 -60h47v-105z" />
    <glyph glyph-name="bar" unicode="|" horiz-adv-x="241" 
d="M186 -250h-130l-1 1000h131v-1000z" />
    <glyph glyph-name="braceright" unicode="}" horiz-adv-x="342" 
d="M336 343v-110q-67 0 -67 -74v-167q0 -68 -37 -108t-100 -40h-82v105h47q46 0 46 60v163q0 58 30 85t63 30v2q-31 3 -62 31.5t-31 79.5v167q0 60 -46 60h-47v105h82q63 0 100 -40t37 -108v-171q0 -70 67 -70z" />
    <glyph glyph-name="asciitilde" unicode="~" horiz-adv-x="666" 
d="M593 287v-2q-57 -100 -139 -100q-54 0 -112 38q-61 38 -107 38q-50 0 -84 -70l-66 104q51 99 137 99q58 0 120 -37q67 -40 99 -40q25 0 44.5 18.5t42.5 52.5z" />
    <glyph glyph-name="uni00A0" unicode="&#xa0;" horiz-adv-x="250" 
 />
    <glyph glyph-name="exclamdown" unicode="&#xa1;" horiz-adv-x="357" 
d="M262 -200h-168v471h168v-471zM276 423q0 -39 -28.5 -66.5t-69.5 -27.5q-40 0 -68.5 28t-28.5 67t29 66.5t68 27.5q41 0 69.5 -27.5t28.5 -67.5z" />
    <glyph glyph-name="cent" unicode="&#xa2;" horiz-adv-x="646" 
d="M314 116v266q-44 -11 -68 -47t-24 -86q0 -49 24.5 -85t67.5 -48zM469 153l81 -102q-56 -56 -160 -65v-65h-76v65q-105 12 -169 84.5t-64 179.5t63.5 176.5t169.5 85.5v64h76v-64q106 -7 159 -63l-83 -104q-32 33 -76 39v-270q46 4 79 39z" />
    <glyph glyph-name="sterling" unicode="&#xa3;" horiz-adv-x="646" 
d="M625 658l-96 -110q-35 38 -92 38t-81 -35t-24 -84v-51h156v-115h-156v-160h259v-141h-519v141h95v160h-95v115h95v61q0 43 15 85.5t44.5 80t81.5 61t119 23.5q122 0 198 -69z" />
    <glyph glyph-name="currency" unicode="&#xa4;" horiz-adv-x="646" 
d="M324 415q-53 0 -85.5 -35.5t-32.5 -88.5t32.5 -89t85.5 -36q54 0 86.5 36t32.5 89t-32 88.5t-87 35.5zM617 499l-81 -80q34 -55 34 -128q0 -78 -36 -133l82 -81l-81 -84l-84 84q-53 -33 -127 -33q-67 0 -127 35l-85 -86l-83 83l86 85q-35 55 -35 130q0 77 32 127l-82 81
l82 81l82 -81q63 37 130 37q70 0 130 -35l79 79z" />
    <glyph glyph-name="yen" unicode="&#xa5;" horiz-adv-x="646" 
d="M637 708l-179 -292h124v-103h-179v-65h179v-103h-179v-145h-158v145h-178v103h178v65h-178v103h127l-182 292h185l132 -260l129 260h179z" />
    <glyph glyph-name="brokenbar" unicode="&#xa6;" horiz-adv-x="241" 
d="M186 -175h-131v362h131v-362zM186 313h-131v362h131v-362z" />
    <glyph glyph-name="section" unicode="&#xa7;" horiz-adv-x="607" 
d="M414 263q0 27 -20.5 44t-57.5 32l-86 35q-41 -16 -41 -53q0 -19 13 -33.5t26.5 -21t40.5 -17.5l94 -37q31 14 31 51zM562 279q0 -39 -20.5 -72.5t-54.5 -52.5q50 -35 50 -110q0 -50 -22 -88.5t-58.5 -60t-78 -32.5t-85.5 -11q-75 0 -145 31.5t-108 89.5l122 87
q22 -36 59.5 -54.5t74.5 -18.5q27 0 50 13.5t23 37.5q0 31 -26.5 47t-104.5 43q-89 32 -132.5 67t-43.5 103q0 89 86 138q-53 39 -53 113q0 58 37 100t87.5 59.5t105.5 17.5q157 0 228 -103l-116 -88q-18 27 -46.5 43.5t-58.5 16.5q-28 0 -49.5 -12.5t-21.5 -36.5
q0 -25 26 -42t91 -40q89 -33 136.5 -73.5t47.5 -111.5z" />
    <glyph glyph-name="dieresis" unicode="&#xa8;" 
d="M125 658q0 -35 -24.5 -58.5t-59.5 -23.5t-59 24t-24 58q0 33 24.5 57t58.5 24q35 0 59.5 -23.5t24.5 -57.5zM342 658q0 -35 -24.5 -58.5t-58.5 -23.5q-35 0 -59 24t-24 58q0 33 24 57t59 24q34 0 58.5 -23.5t24.5 -57.5z" />
    <glyph glyph-name="copyright" unicode="&#xa9;" horiz-adv-x="800" 
d="M585 510l-77 -70q-31 39 -90 39q-53 0 -83.5 -37.5t-30.5 -88.5q0 -52 31.5 -90t88.5 -38t88 36l72 -76q-61 -63 -165 -63q-102 0 -169.5 61.5t-67.5 168.5q0 103 68.5 166t168.5 63q109 0 166 -71zM720 353q0 132 -93.5 226.5t-225.5 94.5t-226.5 -94.5t-94.5 -226.5
t93 -225.5t226 -93.5q132 0 226.5 93.5t94.5 225.5zM780 353q0 -156 -111 -265.5t-268 -109.5q-158 0 -269.5 109t-111.5 266t111.5 267t269.5 110q157 0 268 -110t111 -267z" />
    <glyph glyph-name="ordfeminine" unicode="&#xaa;" horiz-adv-x="384" 
d="M234 541v12h-12q-80 0 -80 -35q0 -13 11.5 -20t25.5 -7q26 0 40.5 14t14.5 36zM236 431v27h-1q-22 -34 -84 -34q-43 0 -74.5 22.5t-31.5 65.5q0 98 186 98v4q0 35 -50 35q-40 0 -68 -28l-54 55q50 47 131 47q139 0 139 -128v-164h-93z" />
    <glyph glyph-name="guillemotleft" unicode="&#xab;" horiz-adv-x="543" 
d="M284 85l-98 -63l-161 232l161 232l97 -63l-115 -169zM509 85l-97 -63l-161 232l161 232l97 -63l-115 -169z" />
    <glyph glyph-name="logicalnot" unicode="&#xac;" horiz-adv-x="666" 
d="M606 145h-130v183h-425v123h555v-306z" />
    <glyph glyph-name="uni00AD" unicode="&#xad;" horiz-adv-x="326" 
d="M290 197h-254v130h254v-130z" />
    <glyph glyph-name="registered" unicode="&#xae;" horiz-adv-x="600" 
d="M108 492q0 -79 56.5 -135.5t136.5 -56.5q79 0 135 56.5t56 135.5q0 80 -55.5 136t-135.5 56t-136.5 -56t-56.5 -136zM72 492q0 94 67 160.5t162 66.5q94 0 160.5 -66.5t66.5 -160.5t-66.5 -159.5t-160.5 -65.5q-95 0 -162 65.5t-67 159.5zM439 365h-100l-44 94h-16v-94
h-88v266h114q50 0 85.5 -20t35.5 -66q0 -55 -48 -74zM279 521h26q12 0 20 6.5t8 16.5q0 18 -28 18h-26v-41z" />
    <glyph glyph-name="macron" unicode="&#xaf;" 
d="M318 601h-336v86h336v-86z" />
    <glyph glyph-name="degree" unicode="&#xb0;" horiz-adv-x="416" 
d="M296 558q0 36 -25.5 62t-62.5 26t-62.5 -26t-25.5 -62q0 -37 25.5 -62.5t62.5 -25.5t62.5 25.5t25.5 62.5zM376 558q0 -70 -49 -119t-119 -49t-119 49t-49 119t49 118.5t119 48.5t119 -48.5t49 -118.5z" />
    <glyph glyph-name="plusminus" unicode="&#xb1;" horiz-adv-x="666" 
d="M616 31h-555v127h555v-127zM616 331h-212v-132h-130v132h-213v127h213v132h130v-132h212v-127z" />
    <glyph glyph-name="twosuperior" unicode="&#xb2;" horiz-adv-x="420" 
d="M374 275h-319v92l170 155q29 27 29 56q0 18 -12 29.5t-33 11.5q-23 0 -37.5 -17t-16.5 -44l-110 13q8 68 55.5 108t113.5 40t113 -34.5t47 -99.5q0 -30 -12 -56t-25.5 -41t-38.5 -37l-87 -77h163v-99z" />
    <glyph glyph-name="threesuperior" unicode="&#xb3;" horiz-adv-x="420" 
d="M379 404q0 -67 -49 -102t-115 -35q-64 0 -111.5 30t-64.5 92l105 28q16 -53 64 -53q56 0 56 46q0 47 -78 47h-33v84h36q65 0 65 46q0 17 -13 27.5t-33 10.5q-18 0 -32 -13t-19 -35l-105 25q15 56 61 87t103 31q64 0 108.5 -31t44.5 -90q0 -67 -57 -95q32 -11 49.5 -37.5
t17.5 -62.5z" />
    <glyph glyph-name="acute" unicode="&#xb4;" 
d="M339 716l-146 -144h-124l104 144h166z" />
    <glyph glyph-name="mu" unicode="&#xb5;" horiz-adv-x="666" 
d="M89 498h162v-248q0 -29 4.5 -53.5t23 -47.5t49.5 -23q47 0 69 31t22 80v261h162v-498h-155v57h-1q-37 -64 -111 -64q-40 0 -63 20v-239h-162v724z" />
    <glyph glyph-name="paragraph" unicode="&#xb6;" horiz-adv-x="618" 
d="M555 -129h-116v737h-85v-737h-116v464q-98 2 -156 52t-58 131q0 190 244 190h287v-837z" />
    <glyph glyph-name="periodcentered" unicode="&#xb7;" 
d="M251 291q0 -42 -29 -70t-71 -28t-72 28t-30 69q0 40 30 69.5t72 29.5t71 -28t29 -70z" />
    <glyph glyph-name="cedilla" unicode="&#xb8;" 
d="M283 -142q0 -52 -44.5 -75t-102.5 -23q-67 0 -119 25l27 60q40 -19 84 -19q50 0 50 33q0 29 -47 29q-22 0 -40 -6l-31 29l67 89h82l-47 -60q7 1 18 1q103 0 103 -83z" />
    <glyph glyph-name="onesuperior" unicode="&#xb9;" horiz-adv-x="420" 
d="M297 272h-117v306l-74 -58l-60 81l145 107h106v-436z" />
    <glyph glyph-name="ordmasculine" unicode="&#xba;" horiz-adv-x="384" 
d="M253 575q0 26 -16.5 44.5t-44.5 18.5t-43.5 -18.5t-15.5 -44.5q0 -28 15.5 -46t43.5 -18t44.5 18.5t16.5 45.5zM348 575q0 -67 -44.5 -109t-111.5 -42q-66 0 -110.5 42t-44.5 109t44.5 108t110.5 41q67 0 111.5 -41t44.5 -108z" />
    <glyph glyph-name="guillemotright" unicode="&#xbb;" horiz-adv-x="543" 
d="M293 253l-161 -231l-97 63l115 168l-116 170l98 63zM519 253l-162 -231l-97 63l115 168l-115 170l97 63z" />
    <glyph glyph-name="onequarter" unicode="&#xbc;" horiz-adv-x="940" 
d="M297 272h-117v306l-74 -58l-60 81l145 107h106v-436zM701 699l-388 -729l-87 39l384 730zM718 177v134h-1l-88 -134h89zM882 83h-58v-83h-106v83h-200v93l175 260h131v-259h58v-94z" />
    <glyph glyph-name="onehalf" unicode="&#xbd;" horiz-adv-x="940" 
d="M297 272h-117v306l-74 -58l-60 81l145 107h106v-436zM701 699l-388 -729l-87 39l384 730zM894 0h-319v92l170 156q29 26 29 55q0 18 -12 29.5t-32 11.5q-23 0 -38 -16.5t-17 -44.5l-110 14q8 68 55.5 108t113.5 40t113 -34.5t47 -100.5q0 -68 -76 -134l-87 -76h163v-100z
" />
    <glyph glyph-name="threequarters" unicode="&#xbe;" horiz-adv-x="940" 
d="M379 404q0 -67 -49 -102t-115 -35q-64 0 -111.5 30t-64.5 92l105 28q16 -53 64 -53q56 0 56 46q0 47 -78 47h-33v84h36q65 0 65 46q0 17 -13 27.5t-33 10.5q-18 0 -32 -13t-19 -35l-105 25q15 56 61 87t103 31q64 0 108.5 -31t44.5 -90q0 -67 -57 -95q32 -11 49.5 -37.5
t17.5 -62.5zM701 699l-388 -729l-87 39l384 730zM718 177v134h-1l-88 -134h89zM882 83h-58v-83h-106v83h-200v93l175 260h131v-259h58v-94z" />
    <glyph glyph-name="questiondown" unicode="&#xbf;" horiz-adv-x="546" 
d="M347 16l160 -18q-12 -104 -81.5 -160t-170.5 -56q-62 0 -113.5 20t-87 66.5t-35.5 112.5q0 61 26.5 99t86.5 84q32 24 43 43t11 49v26h156v-37q0 -50 -18 -81.5t-61 -69.5l-34 -30q-41 -37 -41 -71q0 -32 20 -51.5t54 -19.5q39 0 61.5 27.5t23.5 66.5zM361 424
q0 -39 -29 -67t-69 -28q-39 0 -68.5 27.5t-29.5 66.5q0 40 28.5 67.5t69.5 27.5q40 0 69 -27.5t29 -66.5z" />
    <glyph glyph-name="Agrave" unicode="&#xc0;" horiz-adv-x="729" 
d="M439 764h-124l-146 144h166zM451 276l-88 243l-90 -243h178zM743 0h-190l-55 139h-274l-52 -139h-186l297 708h166z" />
    <glyph glyph-name="Aacute" unicode="&#xc1;" horiz-adv-x="729" 
d="M564 908l-146 -144h-124l104 144h166zM451 276l-88 243l-90 -243h178zM743 0h-190l-55 139h-274l-52 -139h-186l297 708h166z" />
    <glyph glyph-name="Acircumflex" unicode="&#xc2;" horiz-adv-x="729" 
d="M564 764h-130l-68 81l-68 -81h-128l124 144h148zM451 276l-88 243l-90 -243h178zM743 0h-190l-55 139h-274l-52 -139h-186l297 708h166z" />
    <glyph glyph-name="Atilde" unicode="&#xc3;" horiz-adv-x="729" 
d="M480 900h71q-7 -57 -35 -94.5t-78 -37.5q-34 0 -81 21q-36 20 -63 20q-29 0 -42 -40h-72q7 57 34.5 93.5t78.5 36.5q35 0 80 -20q43 -20 65 -20q30 0 42 41zM451 276l-88 243l-90 -243h178zM743 0h-190l-55 139h-274l-52 -139h-186l297 708h166z" />
    <glyph glyph-name="Adieresis" unicode="&#xc4;" horiz-adv-x="729" 
d="M341 850q0 -35 -24.5 -58.5t-59.5 -23.5t-59 24t-24 58q0 33 24.5 57t58.5 24q35 0 59.5 -23.5t24.5 -57.5zM558 850q0 -35 -24.5 -58.5t-58.5 -23.5q-35 0 -59 24t-24 58q0 33 24 57t59 24q34 0 58.5 -23.5t24.5 -57.5zM451 276l-88 243l-90 -243h178zM743 0h-190
l-55 139h-274l-52 -139h-186l297 708h166z" />
    <glyph glyph-name="Aring" unicode="&#xc5;" horiz-adv-x="729" 
d="M426 856q0 25 -17 41.5t-42 16.5q-26 0 -42.5 -17t-16.5 -42q0 -24 17 -40.5t42 -16.5t42 16.5t17 41.5zM476 856q0 -46 -31.5 -76.5t-77.5 -30.5q-45 0 -77 30.5t-32 75.5q0 47 31.5 77.5t77.5 30.5q45 0 77 -31t32 -76zM451 276l-88 243l-90 -243h178zM743 0h-190
l-55 139h-274l-52 -139h-186l297 708h166z" />
    <glyph glyph-name="AE" unicode="&#xc6;" horiz-adv-x="1033" 
d="M514 291v272h-10l-153 -272h163zM993 0h-479v153h-231l-88 -153h-199l414 708h565v-145h-298v-133h281v-137h-281v-147h316v-146z" />
    <glyph glyph-name="Ccedilla" unicode="&#xc7;" horiz-adv-x="696" 
d="M531 -142q0 -52 -44.5 -75t-102.5 -23q-67 0 -119 25l27 60q40 -19 84 -19q50 0 50 33q0 29 -47 29q-22 0 -40 -6l-31 29l55 74q-143 18 -233 119t-90 251q0 168 109.5 270t274.5 102q77 0 149 -27t116 -77l-116 -116q-47 65 -143 65q-89 0 -146.5 -61.5t-57.5 -155.5
q0 -96 56.5 -156.5t144.5 -60.5q98 0 150 72l119 -112q-94 -109 -254 -116l-32 -42q7 1 18 1q103 0 103 -83z" />
    <glyph glyph-name="Egrave" unicode="&#xc8;" horiz-adv-x="607" 
d="M406 764h-124l-146 144h166zM567 0h-494v708h476v-145h-311v-133h294v-137h-294v-147h329v-146z" />
    <glyph glyph-name="Eacute" unicode="&#xc9;" horiz-adv-x="607" 
d="M503 908l-146 -144h-124l104 144h166zM567 0h-494v708h476v-145h-311v-133h294v-137h-294v-147h329v-146z" />
    <glyph glyph-name="Ecircumflex" unicode="&#xca;" horiz-adv-x="607" 
d="M512 764h-130l-68 81l-68 -81h-128l124 144h148zM567 0h-494v708h476v-145h-311v-133h294v-137h-294v-147h329v-146z" />
    <glyph glyph-name="Edieresis" unicode="&#xcb;" horiz-adv-x="607" 
d="M290 850q0 -35 -24.5 -58.5t-59.5 -23.5t-59 24t-24 58q0 33 24.5 57t58.5 24q35 0 59.5 -23.5t24.5 -57.5zM507 850q0 -35 -24.5 -58.5t-58.5 -23.5q-35 0 -59 24t-24 58q0 33 24 57t59 24q34 0 58.5 -23.5t24.5 -57.5zM567 0h-494v708h476v-145h-311v-133h294v-137
h-294v-147h329v-146z" />
    <glyph glyph-name="Igrave" unicode="&#xcc;" horiz-adv-x="318" 
d="M245 764h-124l-146 144h166zM245 0h-172v708h172v-708z" />
    <glyph glyph-name="Iacute" unicode="&#xcd;" horiz-adv-x="318" 
d="M343 908l-146 -144h-124l104 144h166zM245 0h-172v708h172v-708z" />
    <glyph glyph-name="Icircumflex" unicode="&#xce;" horiz-adv-x="318" 
d="M355 764h-130l-68 81l-68 -81h-128l124 144h148zM245 0h-172v708h172v-708z" />
    <glyph glyph-name="Idieresis" unicode="&#xcf;" horiz-adv-x="318" 
d="M134 850q0 -35 -24.5 -58.5t-59.5 -23.5t-59 24t-24 58q0 33 24.5 57t58.5 24q35 0 59.5 -23.5t24.5 -57.5zM351 850q0 -35 -24.5 -58.5t-58.5 -23.5q-35 0 -59 24t-24 58q0 33 24 57t59 24q34 0 58.5 -23.5t24.5 -57.5zM245 0h-172v708h172v-708z" />
    <glyph glyph-name="Eth" unicode="&#xd0;" horiz-adv-x="774" 
d="M557 356q0 101 -61 152t-165 51h-90v-143h181v-107h-181v-159h74q111 0 176.5 50.5t65.5 155.5zM732 356q0 -88 -33.5 -158t-89.5 -112t-123.5 -64t-139.5 -22h-272v309h-61v107h61v292h273q78 0 145.5 -20t122 -61t86 -110.5t31.5 -160.5z" />
    <glyph glyph-name="Ntilde" unicode="&#xd1;" horiz-adv-x="790" 
d="M513 900h71q-7 -57 -35 -94.5t-78 -37.5q-34 0 -81 21q-36 20 -63 20q-29 0 -42 -40h-72q7 57 34.5 93.5t78.5 36.5q35 0 80 -20q43 -20 65 -20q30 0 42 41zM717 0h-194l-285 463h-3l4 -463h-166v708h195l284 -462h3l-4 462h166v-708z" />
    <glyph glyph-name="Ograve" unicode="&#xd2;" horiz-adv-x="851" 
d="M527 764h-124l-146 144h166zM628 357q0 94 -57 155t-146 61t-145.5 -61t-56.5 -155q0 -96 56.5 -158t145.5 -62t146 62t57 158zM811 357q0 -167 -109 -271.5t-277 -104.5q-167 0 -276 104.5t-109 271.5q0 168 108.5 269t276.5 101q169 0 277.5 -101t108.5 -269z" />
    <glyph glyph-name="Oacute" unicode="&#xd3;" horiz-adv-x="851" 
d="M605 908l-146 -144h-124l104 144h166zM628 357q0 94 -57 155t-146 61t-145.5 -61t-56.5 -155q0 -96 56.5 -158t145.5 -62t146 62t57 158zM811 357q0 -167 -109 -271.5t-277 -104.5q-167 0 -276 104.5t-109 271.5q0 168 108.5 269t276.5 101q169 0 277.5 -101t108.5 -269z
" />
    <glyph glyph-name="Ocircumflex" unicode="&#xd4;" horiz-adv-x="851" 
d="M623 764h-130l-68 81l-68 -81h-128l124 144h148zM628 357q0 94 -57 155t-146 61t-145.5 -61t-56.5 -155q0 -96 56.5 -158t145.5 -62t146 62t57 158zM811 357q0 -167 -109 -271.5t-277 -104.5q-167 0 -276 104.5t-109 271.5q0 168 108.5 269t276.5 101q169 0 277.5 -101
t108.5 -269z" />
    <glyph glyph-name="Otilde" unicode="&#xd5;" horiz-adv-x="851" 
d="M541 900h71q-7 -57 -35 -94.5t-78 -37.5q-34 0 -81 21q-36 20 -63 20q-29 0 -42 -40h-72q7 57 34.5 93.5t78.5 36.5q35 0 80 -20q43 -20 65 -20q30 0 42 41zM628 357q0 94 -57 155t-146 61t-145.5 -61t-56.5 -155q0 -96 56.5 -158t145.5 -62t146 62t57 158zM811 357
q0 -167 -109 -271.5t-277 -104.5q-167 0 -276 104.5t-109 271.5q0 168 108.5 269t276.5 101q169 0 277.5 -101t108.5 -269z" />
    <glyph glyph-name="Odieresis" unicode="&#xd6;" horiz-adv-x="851" 
d="M401 850q0 -35 -24.5 -58.5t-59.5 -23.5t-59 24t-24 58q0 33 24.5 57t58.5 24q35 0 59.5 -23.5t24.5 -57.5zM618 850q0 -35 -24.5 -58.5t-58.5 -23.5q-35 0 -59 24t-24 58q0 33 24 57t59 24q34 0 58.5 -23.5t24.5 -57.5zM628 357q0 94 -57 155t-146 61t-145.5 -61
t-56.5 -155q0 -96 56.5 -158t145.5 -62t146 62t57 158zM811 357q0 -167 -109 -271.5t-277 -104.5q-167 0 -276 104.5t-109 271.5q0 168 108.5 269t276.5 101q169 0 277.5 -101t108.5 -269z" />
    <glyph glyph-name="multiply" unicode="&#xd7;" horiz-adv-x="666" 
d="M604 130l-94 -93l-177 173l-176 -173l-93 89l177 175l-178 174l94 91l177 -173l174 172l91 -87l-174 -173z" />
    <glyph glyph-name="Oslash" unicode="&#xd8;" horiz-adv-x="851" 
d="M214 355q0 -74 31 -120l290 315q-41 29 -110 29q-96 0 -153.5 -64t-57.5 -160zM635 356q0 81 -38 130l-292 -318q46 -37 119 -37q94 0 152.5 64t58.5 161zM40 356q0 168 108.5 269t276.5 101q127 0 219 -58l87 97l67 -59l-86 -93q99 -101 99 -257q0 -165 -110 -269.5
t-277 -104.5h-5q-134 0 -224 69l-89 -95l-67 57l89 97q-88 94 -88 246z" />
    <glyph glyph-name="Ugrave" unicode="&#xd9;" horiz-adv-x="738" 
d="M470 764h-124l-146 144h166zM673 708v-441q0 -128 -83.5 -207t-221.5 -79q-139 0 -220.5 78.5t-81.5 207.5v441h170v-427q0 -63 33 -104.5t100 -41.5q68 0 100.5 41.5t32.5 104.5v427h171z" />
    <glyph glyph-name="Uacute" unicode="&#xda;" horiz-adv-x="738" 
d="M543 908l-146 -144h-124l104 144h166zM673 708v-441q0 -128 -83.5 -207t-221.5 -79q-139 0 -220.5 78.5t-81.5 207.5v441h170v-427q0 -63 33 -104.5t100 -41.5q68 0 100.5 41.5t32.5 104.5v427h171z" />
    <glyph glyph-name="Ucircumflex" unicode="&#xdb;" horiz-adv-x="738" 
d="M567 764h-130l-68 81l-68 -81h-128l124 144h148zM673 708v-441q0 -128 -83.5 -207t-221.5 -79q-139 0 -220.5 78.5t-81.5 207.5v441h170v-427q0 -63 33 -104.5t100 -41.5q68 0 100.5 41.5t32.5 104.5v427h171z" />
    <glyph glyph-name="Udieresis" unicode="&#xdc;" horiz-adv-x="738" 
d="M345 850q0 -35 -24.5 -58.5t-59.5 -23.5t-59 24t-24 58q0 33 24.5 57t58.5 24q35 0 59.5 -23.5t24.5 -57.5zM562 850q0 -35 -24.5 -58.5t-58.5 -23.5q-35 0 -59 24t-24 58q0 33 24 57t59 24q34 0 58.5 -23.5t24.5 -57.5zM673 708v-441q0 -128 -83.5 -207t-221.5 -79
q-139 0 -220.5 78.5t-81.5 207.5v441h170v-427q0 -63 33 -104.5t100 -41.5q68 0 100.5 41.5t32.5 104.5v427h171z" />
    <glyph glyph-name="Yacute" unicode="&#xdd;" horiz-adv-x="669" 
d="M543 908l-146 -144h-124l104 144h166zM689 708l-272 -408v-300h-171v300l-266 408h207l151 -262l151 262h200z" />
    <glyph glyph-name="Thorn" unicode="&#xde;" horiz-adv-x="640" 
d="M439 368q0 82 -120 82h-75v-168h72q123 0 123 86zM610 369q0 -78 -40.5 -130t-101 -72.5t-139.5 -20.5h-85v-146h-171v708h171v-121h89q126 0 201.5 -51.5t75.5 -166.5z" />
    <glyph glyph-name="germandbls" unicode="&#xdf;" horiz-adv-x="667" 
d="M277 -1v141q37 -13 73 -13q113 0 113 103q0 57 -37.5 85.5t-97.5 28.5h-21v129h22q12 0 24.5 3t27.5 10.5t24.5 25t9.5 42.5q0 34 -22 57.5t-62 23.5q-55 0 -79 -39.5t-24 -95.5v-500h-164v501q0 120 69 193.5t205 73.5q103 0 172.5 -54.5t69.5 -145.5q0 -55 -29 -95
t-75 -55v-1q70 -14 111.5 -66t41.5 -129q0 -109 -69.5 -172t-186.5 -63q-47 0 -96 12z" />
    <glyph glyph-name="agrave" unicode="&#xe0;" horiz-adv-x="566" 
d="M382 572h-124l-146 144h166zM140 341l-83 89q88 84 222 84q123 0 176 -62.5t53 -200.5v-251h-150v53h-3q-18 -30 -56.5 -47.5t-84.5 -17.5q-71 0 -126 38t-55 118q0 168 320 168v8q0 35 -25 53.5t-65 18.5q-67 0 -123 -51zM358 200v17h-21q-153 0 -153 -68
q0 -26 21 -38.5t50 -12.5q50 0 76.5 27t26.5 75z" />
    <glyph glyph-name="aacute" unicode="&#xe1;" horiz-adv-x="566" 
d="M458 716l-146 -144h-124l104 144h166zM140 341l-83 89q88 84 222 84q123 0 176 -62.5t53 -200.5v-251h-150v53h-3q-18 -30 -56.5 -47.5t-84.5 -17.5q-71 0 -126 38t-55 118q0 168 320 168v8q0 35 -25 53.5t-65 18.5q-67 0 -123 -51zM358 200v17h-21q-153 0 -153 -68
q0 -26 21 -38.5t50 -12.5q50 0 76.5 27t26.5 75z" />
    <glyph glyph-name="acircumflex" unicode="&#xe2;" horiz-adv-x="566" 
d="M482 572h-130l-68 81l-68 -81h-128l124 144h148zM140 341l-83 89q88 84 222 84q123 0 176 -62.5t53 -200.5v-251h-150v53h-3q-18 -30 -56.5 -47.5t-84.5 -17.5q-71 0 -126 38t-55 118q0 168 320 168v8q0 35 -25 53.5t-65 18.5q-67 0 -123 -51zM358 200v17h-21
q-153 0 -153 -68q0 -26 21 -38.5t50 -12.5q50 0 76.5 27t26.5 75z" />
    <glyph glyph-name="atilde" unicode="&#xe3;" horiz-adv-x="566" 
d="M402 708h71q-7 -57 -35 -94.5t-78 -37.5q-34 0 -81 21q-36 20 -63 20q-29 0 -42 -40h-72q7 57 34.5 93.5t78.5 36.5q35 0 80 -20q43 -20 65 -20q30 0 42 41zM140 341l-83 89q88 84 222 84q123 0 176 -62.5t53 -200.5v-251h-150v53h-3q-18 -30 -56.5 -47.5t-84.5 -17.5
q-71 0 -126 38t-55 118q0 168 320 168v8q0 35 -25 53.5t-65 18.5q-67 0 -123 -51zM358 200v17h-21q-153 0 -153 -68q0 -26 21 -38.5t50 -12.5q50 0 76.5 27t26.5 75z" />
    <glyph glyph-name="adieresis" unicode="&#xe4;" horiz-adv-x="566" 
d="M260 658q0 -35 -24.5 -58.5t-59.5 -23.5t-59 24t-24 58q0 33 24.5 57t58.5 24q35 0 59.5 -23.5t24.5 -57.5zM477 658q0 -35 -24.5 -58.5t-58.5 -23.5q-35 0 -59 24t-24 58q0 33 24 57t59 24q34 0 58.5 -23.5t24.5 -57.5zM140 341l-83 89q88 84 222 84q123 0 176 -62.5
t53 -200.5v-251h-150v53h-3q-18 -30 -56.5 -47.5t-84.5 -17.5q-71 0 -126 38t-55 118q0 168 320 168v8q0 35 -25 53.5t-65 18.5q-67 0 -123 -51zM358 200v17h-21q-153 0 -153 -68q0 -26 21 -38.5t50 -12.5q50 0 76.5 27t26.5 75z" />
    <glyph glyph-name="aring" unicode="&#xe5;" horiz-adv-x="566" 
d="M346 664q0 25 -17 41.5t-42 16.5q-26 0 -42.5 -17t-16.5 -42q0 -24 17 -40.5t42 -16.5t42 16.5t17 41.5zM396 664q0 -46 -31.5 -76.5t-77.5 -30.5q-45 0 -77 30.5t-32 75.5q0 47 31.5 77.5t77.5 30.5q45 0 77 -31t32 -76zM140 341l-83 89q88 84 222 84q123 0 176 -62.5
t53 -200.5v-251h-150v53h-3q-18 -30 -56.5 -47.5t-84.5 -17.5q-71 0 -126 38t-55 118q0 168 320 168v8q0 35 -25 53.5t-65 18.5q-67 0 -123 -51zM358 200v17h-21q-153 0 -153 -68q0 -26 21 -38.5t50 -12.5q50 0 76.5 27t26.5 75z" />
    <glyph glyph-name="ae" unicode="&#xe6;" horiz-adv-x="899" 
d="M727 162l113 -72q-73 -106 -226 -106q-125 0 -187 90q-52 -86 -202 -86q-75 0 -133.5 39t-58.5 117q0 50 26 83.5t74.5 49.5t99.5 22t120 6v7q0 80 -89 80q-68 0 -124 -51l-82 89q86 84 221 84q110 0 161 -73q61 73 171 73q112 0 181 -72.5t69 -198.5q0 -15 -2 -39h-360
q5 -41 38.5 -67.5t79.5 -26.5q75 0 110 52zM498 306h211q0 41 -25.5 68t-72.5 27t-79 -27.5t-34 -67.5zM358 191v16h-21q-78 0 -115.5 -12t-37.5 -46q0 -26 21 -38.5t50 -12.5q50 0 76.5 25t26.5 68z" />
    <glyph glyph-name="ccedilla" unicode="&#xe7;" horiz-adv-x="503" 
d="M430 -142q0 -52 -44.5 -75t-102.5 -23q-67 0 -119 25l27 60q40 -19 84 -19q50 0 50 33q0 29 -47 29q-22 0 -40 -6l-31 29l58 77q-101 15 -163.5 84.5t-62.5 176.5q0 120 79 192.5t199 72.5q54 0 104.5 -18.5t80.5 -48.5l-95 -110q-32 40 -87 40q-50 0 -82.5 -38
t-32.5 -90q0 -53 32 -90t85 -37q58 0 89 37l91 -111q-57 -55 -158 -63l-35 -45q7 1 18 1q103 0 103 -83z" />
    <glyph glyph-name="egrave" unicode="&#xe8;" horiz-adv-x="596" 
d="M402 572h-124l-146 144h166zM558 243q0 -27 -1 -39h-361q4 -40 39 -67t80 -27q71 0 110 52l114 -72q-73 -106 -226 -106q-117 0 -195.5 70.5t-78.5 192.5q0 120 76.5 193.5t192.5 73.5q112 0 181 -72.5t69 -198.5zM196 306h211q0 41 -25.5 68t-72.5 27t-79 -27.5
t-34 -67.5z" />
    <glyph glyph-name="eacute" unicode="&#xe9;" horiz-adv-x="596" 
d="M477 716l-146 -144h-124l104 144h166zM558 243q0 -27 -1 -39h-361q4 -40 39 -67t80 -27q71 0 110 52l114 -72q-73 -106 -226 -106q-117 0 -195.5 70.5t-78.5 192.5q0 120 76.5 193.5t192.5 73.5q112 0 181 -72.5t69 -198.5zM196 306h211q0 41 -25.5 68t-72.5 27
t-79 -27.5t-34 -67.5z" />
    <glyph glyph-name="ecircumflex" unicode="&#xea;" horiz-adv-x="596" 
d="M511 572h-130l-68 81l-68 -81h-128l124 144h148zM558 243q0 -27 -1 -39h-361q4 -40 39 -67t80 -27q71 0 110 52l114 -72q-73 -106 -226 -106q-117 0 -195.5 70.5t-78.5 192.5q0 120 76.5 193.5t192.5 73.5q112 0 181 -72.5t69 -198.5zM196 306h211q0 41 -25.5 68
t-72.5 27t-79 -27.5t-34 -67.5z" />
    <glyph glyph-name="edieresis" unicode="&#xeb;" horiz-adv-x="596" 
d="M288 658q0 -35 -24.5 -58.5t-59.5 -23.5t-59 24t-24 58q0 33 24.5 57t58.5 24q35 0 59.5 -23.5t24.5 -57.5zM505 658q0 -35 -24.5 -58.5t-58.5 -23.5q-35 0 -59 24t-24 58q0 33 24 57t59 24q34 0 58.5 -23.5t24.5 -57.5zM558 243q0 -27 -1 -39h-361q4 -40 39 -67t80 -27
q71 0 110 52l114 -72q-73 -106 -226 -106q-117 0 -195.5 70.5t-78.5 192.5q0 120 76.5 193.5t192.5 73.5q112 0 181 -72.5t69 -198.5zM196 306h211q0 41 -25.5 68t-72.5 27t-79 -27.5t-34 -67.5z" />
    <glyph glyph-name="igrave" unicode="&#xec;" horiz-adv-x="296" 
d="M228 572h-124l-146 144h166zM230 0h-164v498h164v-498z" />
    <glyph glyph-name="iacute" unicode="&#xed;" horiz-adv-x="296" 
d="M337 716l-146 -144h-124l104 144h166zM230 0h-164v498h164v-498z" />
    <glyph glyph-name="icircumflex" unicode="&#xee;" horiz-adv-x="296" 
d="M348 572h-130l-68 81l-68 -81h-128l124 144h148zM230 0h-164v498h164v-498z" />
    <glyph glyph-name="idieresis" unicode="&#xef;" horiz-adv-x="296" 
d="M125 658q0 -35 -24.5 -58.5t-59.5 -23.5t-59 24t-24 58q0 33 24.5 57t58.5 24q35 0 59.5 -23.5t24.5 -57.5zM342 658q0 -35 -24.5 -58.5t-58.5 -23.5q-35 0 -59 24t-24 58q0 33 24 57t59 24q34 0 58.5 -23.5t24.5 -57.5zM230 0h-164v498h164v-498z" />
    <glyph glyph-name="eth" unicode="&#xf0;" horiz-adv-x="632" 
d="M435 250q0 51 -32.5 89t-87.5 38t-86.5 -38t-31.5 -89t32.5 -89.5t86.5 -38.5t86.5 38.5t32.5 89.5zM593 282q0 -137 -76 -217.5t-202 -80.5q-118 0 -197 73t-79 193q0 117 75.5 188.5t188.5 71.5q50 0 82 -25l2 1q-51 75 -98 114l-108 -48l-80 70l109 47q-25 25 -75 59
l127 71l86 -72l113 50l87 -71l-121 -52q166 -180 166 -372z" />
    <glyph glyph-name="ntilde" unicode="&#xf1;" horiz-adv-x="616" 
d="M426 708h71q-7 -57 -35 -94.5t-78 -37.5q-34 0 -81 21q-36 20 -63 20q-29 0 -42 -40h-72q7 57 34.5 93.5t78.5 36.5q35 0 80 -20q43 -20 65 -20q30 0 42 41zM556 0h-165v272q0 105 -74 105q-42 0 -65 -30.5t-23 -76.5v-270h-165v498h159v-69h2q20 35 59.5 59t89.5 24
q93 0 137.5 -59.5t44.5 -144.5v-308z" />
    <glyph glyph-name="ograve" unicode="&#xf2;" horiz-adv-x="632" 
d="M397 572h-124l-146 144h166zM434 251q0 51 -32.5 89t-86.5 38q-55 0 -86 -37.5t-31 -89.5t31.5 -90.5t86.5 -38.5t86.5 38.5t31.5 90.5zM592 251q0 -119 -80 -193t-197 -74q-116 0 -196 74t-80 193t79.5 191t196.5 72t197 -72t80 -191z" />
    <glyph glyph-name="oacute" unicode="&#xf3;" horiz-adv-x="632" 
d="M500 716l-146 -144h-124l104 144h166zM434 251q0 51 -32.5 89t-86.5 38q-55 0 -86 -37.5t-31 -89.5t31.5 -90.5t86.5 -38.5t86.5 38.5t31.5 90.5zM592 251q0 -119 -80 -193t-197 -74q-116 0 -196 74t-80 193t79.5 191t196.5 72t197 -72t80 -191z" />
    <glyph glyph-name="ocircumflex" unicode="&#xf4;" horiz-adv-x="632" 
d="M507 576h-126l-66 79l-66 -79h-125l121 140h144zM434 251q0 51 -32.5 89t-86.5 38q-55 0 -86 -37.5t-31 -89.5t31.5 -90.5t86.5 -38.5t86.5 38.5t31.5 90.5zM592 251q0 -119 -80 -193t-197 -74q-116 0 -196 74t-80 193t79.5 191t196.5 72t197 -72t80 -191z" />
    <glyph glyph-name="otilde" unicode="&#xf5;" horiz-adv-x="632" 
d="M430 708h71q-7 -57 -35 -94.5t-78 -37.5q-34 0 -81 21q-36 20 -63 20q-29 0 -42 -40h-72q7 57 34.5 93.5t78.5 36.5q35 0 80 -20q43 -20 65 -20q30 0 42 41zM434 251q0 51 -32.5 89t-86.5 38q-55 0 -86 -37.5t-31 -89.5t31.5 -90.5t86.5 -38.5t86.5 38.5t31.5 90.5z
M592 251q0 -119 -80 -193t-197 -74q-116 0 -196 74t-80 193t79.5 191t196.5 72t197 -72t80 -191z" />
    <glyph glyph-name="odieresis" unicode="&#xf6;" horiz-adv-x="632" 
d="M290 658q0 -35 -24.5 -58.5t-59.5 -23.5t-59 24t-24 58q0 33 24.5 57t58.5 24q35 0 59.5 -23.5t24.5 -57.5zM507 658q0 -35 -24.5 -58.5t-58.5 -23.5q-35 0 -59 24t-24 58q0 33 24 57t59 24q34 0 58.5 -23.5t24.5 -57.5zM434 251q0 51 -32.5 89t-86.5 38q-55 0 -86 -37.5
t-31 -89.5t31.5 -90.5t86.5 -38.5t86.5 38.5t31.5 90.5zM592 251q0 -119 -80 -193t-197 -74q-116 0 -196 74t-80 193t79.5 191t196.5 72t197 -72t80 -191z" />
    <glyph glyph-name="divide" unicode="&#xf7;" horiz-adv-x="666" 
d="M586 240h-507v127h507v-127zM246 117q0 34 26 59t61 25t60.5 -25t25.5 -59t-25.5 -59.5t-60.5 -25.5t-61 25.5t-26 59.5zM246 489q0 34 26 59t61 25t60.5 -25t25.5 -59q0 -36 -25 -60.5t-61 -24.5t-61.5 24.5t-25.5 60.5z" />
    <glyph glyph-name="oslash" unicode="&#xf8;" horiz-adv-x="632" 
d="M436 248q0 36 -13 58l-167 -168q23 -20 61 -20q56 0 87.5 38t31.5 92zM206 197l166 168q-26 19 -59 19q-55 0 -88 -38.5t-33 -91.5q0 -37 14 -57zM607 480l-70 -69q55 -64 55 -161q0 -118 -80 -192t-197 -74q-92 0 -157 47l-75 -74l-59 58l72 71q-57 65 -57 164
q0 118 79.5 191.5t196.5 73.5q95 0 160 -49l72 72z" />
    <glyph glyph-name="ugrave" unicode="&#xf9;" horiz-adv-x="614" 
d="M408 572h-124l-146 144h166zM550 0h-158v69h-2q-19 -35 -59.5 -59t-90.5 -24q-92 0 -136.5 59.5t-44.5 144.5v308h165v-270q0 -106 74 -106q41 0 64.5 31t23.5 76v269h164v-498z" />
    <glyph glyph-name="uacute" unicode="&#xfa;" horiz-adv-x="614" 
d="M489 716l-146 -144h-124l104 144h166zM550 0h-158v69h-2q-19 -35 -59.5 -59t-90.5 -24q-92 0 -136.5 59.5t-44.5 144.5v308h165v-270q0 -106 74 -106q41 0 64.5 31t23.5 76v269h164v-498z" />
    <glyph glyph-name="ucircumflex" unicode="&#xfb;" horiz-adv-x="614" 
d="M505 572h-130l-68 81l-68 -81h-128l124 144h148zM550 0h-158v69h-2q-19 -35 -59.5 -59t-90.5 -24q-92 0 -136.5 59.5t-44.5 144.5v308h165v-270q0 -106 74 -106q41 0 64.5 31t23.5 76v269h164v-498z" />
    <glyph glyph-name="udieresis" unicode="&#xfc;" horiz-adv-x="614" 
d="M282 658q0 -35 -24.5 -58.5t-59.5 -23.5t-59 24t-24 58q0 33 24.5 57t58.5 24q35 0 59.5 -23.5t24.5 -57.5zM499 658q0 -35 -24.5 -58.5t-58.5 -23.5q-35 0 -59 24t-24 58q0 33 24 57t59 24q34 0 58.5 -23.5t24.5 -57.5zM550 0h-158v69h-2q-19 -35 -59.5 -59t-90.5 -24
q-92 0 -136.5 59.5t-44.5 144.5v308h165v-270q0 -106 74 -106q41 0 64.5 31t23.5 76v269h164v-498z" />
    <glyph glyph-name="yacute" unicode="&#xfd;" horiz-adv-x="567" 
d="M488 716l-146 -144h-124l104 144h166zM568 498l-223 -573q-32 -84 -81 -124.5t-138 -40.5q-52 0 -90 11l18 138q29 -9 53 -9q36 0 53 15.5t31 51.5l16 41l-208 490h182l111 -320h3l99 320h174z" />
    <glyph glyph-name="thorn" unicode="&#xfe;" horiz-adv-x="659" 
d="M461 251q0 52 -31.5 89.5t-86.5 37.5q-53 0 -86.5 -38.5t-33.5 -89.5t33.5 -89.5t86.5 -38.5q55 0 86.5 38.5t31.5 90.5zM619 251q0 -110 -64 -187.5t-173 -77.5q-46 0 -87.5 19t-63.5 51h-2v-296h-163v996h163v-311h3q57 67 152 67q105 0 170 -76t65 -185z" />
    <glyph glyph-name="ydieresis" unicode="&#xff;" horiz-adv-x="567" 
d="M268 658q0 -35 -24.5 -58.5t-59.5 -23.5t-59 24t-24 58q0 33 24.5 57t58.5 24q35 0 59.5 -23.5t24.5 -57.5zM485 658q0 -35 -24.5 -58.5t-58.5 -23.5q-35 0 -59 24t-24 58q0 33 24 57t59 24q34 0 58.5 -23.5t24.5 -57.5zM568 498l-223 -573q-32 -84 -81 -124.5
t-138 -40.5q-52 0 -90 11l18 138q29 -9 53 -9q36 0 53 15.5t31 51.5l16 41l-208 490h182l111 -320h3l99 320h174z" />
    <glyph glyph-name="Amacron" unicode="&#x100;" horiz-adv-x="729" 
d="M532 793h-336v86h336v-86zM451 276l-88 243l-90 -243h178zM743 0h-190l-55 139h-274l-52 -139h-186l297 708h166z" />
    <glyph glyph-name="amacron" unicode="&#x101;" horiz-adv-x="566" 
d="M454 601h-336v86h336v-86zM140 341l-83 89q88 84 222 84q123 0 176 -62.5t53 -200.5v-251h-150v53h-3q-18 -30 -56.5 -47.5t-84.5 -17.5q-71 0 -126 38t-55 118q0 168 320 168v8q0 35 -25 53.5t-65 18.5q-67 0 -123 -51zM358 200v17h-21q-153 0 -153 -68q0 -26 21 -38.5
t50 -12.5q50 0 76.5 27t26.5 75z" />
    <glyph glyph-name="Abreve" unicode="&#x102;" horiz-adv-x="729" 
d="M453 908h84q-6 -74 -53 -109t-122 -35q-74 0 -120.5 34.5t-52.5 109.5h84q10 -55 90 -55q39 0 61.5 11.5t28.5 43.5zM451 276l-88 243l-90 -243h178zM743 0h-190l-55 139h-274l-52 -139h-186l297 708h166z" />
    <glyph glyph-name="abreve" unicode="&#x103;" horiz-adv-x="566" 
d="M376 716h84q-6 -74 -53 -109t-122 -35q-74 0 -120.5 34.5t-52.5 109.5h84q6 -29 32 -44q23 -11 58 -11q39 0 61.5 11.5t28.5 43.5zM140 341l-83 89q88 84 222 84q123 0 176 -62.5t53 -200.5v-251h-150v53h-3q-18 -30 -56.5 -47.5t-84.5 -17.5q-71 0 -126 38t-55 118
q0 168 320 168v8q0 35 -25 53.5t-65 18.5q-67 0 -123 -51zM358 200v17h-21q-153 0 -153 -68q0 -26 21 -38.5t50 -12.5q50 0 76.5 27t26.5 75z" />
    <glyph glyph-name="Aogonek" unicode="&#x104;" horiz-adv-x="729" 
d="M451 276l-88 243l-90 -243h178zM648 -134l32 -62q-54 -40 -115 -40q-46 0 -79.5 23t-33.5 68q0 71 102 145h-1l-55 139h-274l-52 -139h-186l297 708h166l294 -708h-97q-90 -71 -90 -118q0 -16 10.5 -26t26.5 -10q27 0 55 20z" />
    <glyph glyph-name="aogonek" unicode="&#x105;" horiz-adv-x="566" 
d="M358 200v17h-21q-153 0 -153 -68q0 -26 21 -38.5t50 -12.5q50 0 76.5 27t26.5 75zM448 -134l32 -62q-54 -40 -115 -40q-46 0 -79.5 23t-33.5 68q0 40 31.5 79.5t74.5 67.5v51h-3q-18 -30 -56.5 -47.5t-84.5 -17.5q-71 0 -126 38t-55 118q0 168 320 168v8q0 35 -25 53.5
t-65 18.5q-67 0 -123 -51l-83 89q88 84 222 84q123 0 176 -62.5t53 -200.5v-251h-62q-90 -71 -90 -118q0 -16 10.5 -26t26.5 -10q27 0 55 20z" />
    <glyph glyph-name="Cacute" unicode="&#x106;" horiz-adv-x="696" 
d="M599 908l-146 -144h-124l104 144h166zM577 210l119 -112q-102 -117 -275 -117q-165 0 -273 104.5t-108 269.5q0 168 109.5 270t274.5 102q77 0 149 -27t116 -77l-116 -116q-47 65 -143 65q-89 0 -146.5 -61.5t-57.5 -155.5q0 -96 56.5 -156.5t144.5 -60.5q98 0 150 72z
" />
    <glyph glyph-name="cacute" unicode="&#x107;" horiz-adv-x="503" 
d="M503 716l-146 -144h-124l104 144h166zM502 447l-95 -110q-32 40 -87 40q-50 0 -82.5 -38t-32.5 -90q0 -53 32 -90t85 -37q58 0 89 37l91 -111q-66 -64 -184 -64q-121 0 -200 72t-79 193q0 120 79 192.5t199 72.5q54 0 104.5 -18.5t80.5 -48.5z" />
    <glyph glyph-name="Ccircumflex" unicode="&#x108;" horiz-adv-x="696" 
d="M625 764h-130l-68 81l-68 -81h-128l124 144h148zM577 210l119 -112q-102 -117 -275 -117q-165 0 -273 104.5t-108 269.5q0 168 109.5 270t274.5 102q77 0 149 -27t116 -77l-116 -116q-47 65 -143 65q-89 0 -146.5 -61.5t-57.5 -155.5q0 -96 56.5 -156.5t144.5 -60.5
q98 0 150 72z" />
    <glyph glyph-name="ccircumflex" unicode="&#x109;" horiz-adv-x="503" 
d="M516 572h-130l-68 81l-68 -81h-128l124 144h148zM502 447l-95 -110q-32 40 -87 40q-50 0 -82.5 -38t-32.5 -90q0 -53 32 -90t85 -37q58 0 89 37l91 -111q-66 -64 -184 -64q-121 0 -200 72t-79 193q0 120 79 192.5t199 72.5q54 0 104.5 -18.5t80.5 -48.5z" />
    <glyph glyph-name="Cdotaccent" unicode="&#x10a;" horiz-adv-x="696" 
d="M515 849q0 -36 -26 -60.5t-64 -24.5t-63.5 24.5t-25.5 60.5t25.5 61t63.5 25t64 -25t26 -61zM577 210l119 -112q-102 -117 -275 -117q-165 0 -273 104.5t-108 269.5q0 168 109.5 270t274.5 102q77 0 149 -27t116 -77l-116 -116q-47 65 -143 65q-89 0 -146.5 -61.5
t-57.5 -155.5q0 -96 56.5 -156.5t144.5 -60.5q98 0 150 72z" />
    <glyph glyph-name="cdotaccent" unicode="&#x10b;" horiz-adv-x="503" 
d="M410 657q0 -36 -26 -60.5t-64 -24.5t-63.5 24.5t-25.5 60.5t25.5 61t63.5 25t64 -25t26 -61zM502 447l-95 -110q-32 40 -87 40q-50 0 -82.5 -38t-32.5 -90q0 -53 32 -90t85 -37q58 0 89 37l91 -111q-66 -64 -184 -64q-121 0 -200 72t-79 193q0 120 79 192.5t199 72.5
q54 0 104.5 -18.5t80.5 -48.5z" />
    <glyph glyph-name="Ccaron" unicode="&#x10c;" horiz-adv-x="696" 
d="M624 908l-123 -144h-147l-124 144h130l68 -81l68 81h128zM577 210l119 -112q-102 -117 -275 -117q-165 0 -273 104.5t-108 269.5q0 168 109.5 270t274.5 102q77 0 149 -27t116 -77l-116 -116q-47 65 -143 65q-89 0 -146.5 -61.5t-57.5 -155.5q0 -96 56.5 -156.5
t144.5 -60.5q98 0 150 72z" />
    <glyph glyph-name="ccaron" unicode="&#x10d;" horiz-adv-x="503" 
d="M514 716l-123 -144h-147l-124 144h130l68 -81l68 81h128zM502 447l-95 -110q-32 40 -87 40q-50 0 -82.5 -38t-32.5 -90q0 -53 32 -90t85 -37q58 0 89 37l91 -111q-66 -64 -184 -64q-121 0 -200 72t-79 193q0 120 79 192.5t199 72.5q54 0 104.5 -18.5t80.5 -48.5z" />
    <glyph glyph-name="Dcaron" unicode="&#x10e;" horiz-adv-x="774" 
d="M554 908l-123 -144h-147l-124 144h130l68 -81l68 81h128zM556 356q0 110 -65.5 158t-165.5 48h-85v-414h81q49 0 89 11t74 34t53 64.5t19 98.5zM734 356q0 -90 -34 -160t-91.5 -112t-126.5 -63t-145 -21h-264v708h256q63 0 119.5 -10.5t109.5 -36.5t91.5 -65t61.5 -100.5
t23 -139.5z" />
    <glyph glyph-name="dcaron" unicode="&#x10f;" horiz-adv-x="658" 
d="M832 708l-86 -195h-126l67 195h145zM435 250q0 51 -33.5 89.5t-86.5 38.5q-55 0 -86.5 -37.5t-31.5 -89.5t31.5 -90.5t86.5 -38.5q53 0 86.5 38.5t33.5 89.5zM592 0h-151v65h-2q-24 -37 -68 -58t-95 -21q-108 0 -172.5 78t-64.5 187t65 185t170 76q95 0 152 -67h2v311
h164v-756z" />
    <glyph glyph-name="Dcroat" unicode="&#x110;" horiz-adv-x="774" 
d="M557 356q0 101 -61 152t-165 51h-90v-143h181v-107h-181v-159h74q111 0 176.5 50.5t65.5 155.5zM732 356q0 -88 -33.5 -158t-89.5 -112t-123.5 -64t-139.5 -22h-272v309h-61v107h61v292h273q78 0 145.5 -20t122 -61t86 -110.5t31.5 -160.5z" />
    <glyph glyph-name="dcroat" unicode="&#x111;" horiz-adv-x="658" 
d="M435 250q0 51 -33.5 89.5t-86.5 38.5q-55 0 -86.5 -37.5t-31.5 -89.5t31.5 -90.5t86.5 -38.5q53 0 86.5 38.5t33.5 89.5zM592 0h-151v65h-2q-24 -37 -68 -58t-95 -21q-108 0 -172.5 78t-64.5 187t65 185t170 76q95 0 152 -67h2v125h-149v89h149v97h164v-97h46v-89h-46
v-570z" />
    <glyph glyph-name="Emacron" unicode="&#x112;" horiz-adv-x="607" 
d="M478 793h-336v86h336v-86zM567 0h-494v708h476v-145h-311v-133h294v-137h-294v-147h329v-146z" />
    <glyph glyph-name="emacron" unicode="&#x113;" horiz-adv-x="596" 
d="M480 601h-336v86h336v-86zM558 243q0 -27 -1 -39h-361q4 -40 39 -67t80 -27q71 0 110 52l114 -72q-73 -106 -226 -106q-117 0 -195.5 70.5t-78.5 192.5q0 120 76.5 193.5t192.5 73.5q112 0 181 -72.5t69 -198.5zM196 306h211q0 41 -25.5 68t-72.5 27t-79 -27.5t-34 -67.5
z" />
    <glyph glyph-name="Ebreve" unicode="&#x114;" horiz-adv-x="607" 
d="M400 908h84q-6 -74 -53 -109t-122 -35q-74 0 -120.5 34.5t-52.5 109.5h84q10 -55 90 -55q39 0 61.5 11.5t28.5 43.5zM567 0h-494v708h476v-145h-311v-133h294v-137h-294v-147h329v-146z" />
    <glyph glyph-name="ebreve" unicode="&#x115;" horiz-adv-x="596" 
d="M402 716h84q-6 -74 -53 -109t-122 -35q-74 0 -120.5 34.5t-52.5 109.5h84q6 -29 32 -44q23 -11 58 -11q39 0 61.5 11.5t28.5 43.5zM558 243q0 -27 -1 -39h-361q4 -40 39 -67t80 -27q71 0 110 52l114 -72q-73 -106 -226 -106q-117 0 -195.5 70.5t-78.5 192.5
q0 120 76.5 193.5t192.5 73.5q112 0 181 -72.5t69 -198.5zM196 306h211q0 41 -25.5 68t-72.5 27t-79 -27.5t-34 -67.5z" />
    <glyph glyph-name="Edotaccent" unicode="&#x116;" horiz-adv-x="607" 
d="M400 849q0 -36 -26 -60.5t-64 -24.5t-63.5 24.5t-25.5 60.5t25.5 61t63.5 25t64 -25t26 -61zM567 0h-494v708h476v-145h-311v-133h294v-137h-294v-147h329v-146z" />
    <glyph glyph-name="edotaccent" unicode="&#x117;" horiz-adv-x="596" 
d="M401 657q0 -36 -26 -60.5t-64 -24.5t-63.5 24.5t-25.5 60.5t25.5 61t63.5 25t64 -25t26 -61zM558 243q0 -27 -1 -39h-361q4 -40 39 -67t80 -27q71 0 110 52l114 -72q-73 -106 -226 -106q-117 0 -195.5 70.5t-78.5 192.5q0 120 76.5 193.5t192.5 73.5q112 0 181 -72.5
t69 -198.5zM196 306h211q0 41 -25.5 68t-72.5 27t-79 -27.5t-34 -67.5z" />
    <glyph glyph-name="Eogonek" unicode="&#x118;" horiz-adv-x="607" 
d="M552 -134l32 -62q-54 -40 -115 -40q-46 0 -79.5 23t-33.5 68q0 71 102 145h-385v708h476v-145h-311v-133h294v-137h-294v-147h329v-146h-17q-90 -71 -90 -118q0 -16 10.5 -26t26.5 -10q27 0 55 20z" />
    <glyph glyph-name="eogonek" unicode="&#x119;" horiz-adv-x="596" 
d="M196 306h211q0 41 -25.5 68t-72.5 27t-79 -27.5t-34 -67.5zM402 -134l32 -62q-54 -40 -115 -40q-46 0 -79.5 23t-33.5 68q0 60 82 130q-108 6 -178.5 76t-70.5 186q0 120 76.5 193.5t192.5 73.5q112 0 181 -72.5t69 -198.5q0 -27 -1 -39h-361q4 -40 39 -67t80 -27
q71 0 110 52l114 -72q-51 -76 -149 -97q-80 -69 -80 -111q0 -16 10.5 -26t26.5 -10q27 0 55 20z" />
    <glyph glyph-name="Ecaron" unicode="&#x11a;" horiz-adv-x="607" 
d="M508 908l-123 -144h-147l-124 144h130l68 -81l68 81h128zM567 0h-494v708h476v-145h-311v-133h294v-137h-294v-147h329v-146z" />
    <glyph glyph-name="ecaron" unicode="&#x11b;" horiz-adv-x="596" 
d="M509 716l-123 -144h-147l-124 144h130l68 -81l68 81h128zM558 243q0 -27 -1 -39h-361q4 -40 39 -67t80 -27q71 0 110 52l114 -72q-73 -106 -226 -106q-117 0 -195.5 70.5t-78.5 192.5q0 120 76.5 193.5t192.5 73.5q112 0 181 -72.5t69 -198.5zM196 306h211q0 41 -25.5 68
t-72.5 27t-79 -27.5t-34 -67.5z" />
    <glyph glyph-name="Gcircumflex" unicode="&#x11c;" horiz-adv-x="769" 
d="M629 764h-130l-68 81l-68 -81h-128l124 144h148zM702 418v-375q-117 -61 -273 -61q-171 0 -280 103.5t-109 269.5q0 168 109.5 270t274.5 102q83 0 155 -25.5t118 -68.5l-108 -123q-56 66 -159 66q-90 0 -149 -62.5t-59 -158.5q0 -101 56.5 -162t159.5 -61q62 0 107 19
v129h-135v138h292z" />
    <glyph glyph-name="gcircumflex" unicode="&#x11d;" horiz-adv-x="658" 
d="M517 572h-130l-68 81l-68 -81h-128l124 144h148zM436 252q0 53 -33.5 89.5t-87.5 36.5t-85.5 -36t-31.5 -90q0 -53 32 -90t85 -37q55 0 88 37t33 90zM592 498v-451q0 -142 -78 -214.5t-215 -72.5q-68 0 -137 20.5t-119 57.5l82 117q70 -63 165 -63q70 0 105.5 37
t35.5 102v30h-3q-51 -66 -151 -66q-110 0 -174 73.5t-64 182.5q0 108 64.5 184.5t172.5 76.5q107 0 159 -78h2v64h155z" />
    <glyph glyph-name="Gbreve" unicode="&#x11e;" horiz-adv-x="769" 
d="M526 908h84q-6 -74 -53 -109t-122 -35q-74 0 -120.5 34.5t-52.5 109.5h84q10 -55 90 -55q39 0 61.5 11.5t28.5 43.5zM702 418v-375q-117 -61 -273 -61q-171 0 -280 103.5t-109 269.5q0 168 109.5 270t274.5 102q83 0 155 -25.5t118 -68.5l-108 -123q-56 66 -159 66
q-90 0 -149 -62.5t-59 -158.5q0 -101 56.5 -162t159.5 -61q62 0 107 19v129h-135v138h292z" />
    <glyph glyph-name="gbreve" unicode="&#x11f;" horiz-adv-x="658" 
d="M415 716h84q-6 -74 -53 -109t-122 -35q-74 0 -120.5 34.5t-52.5 109.5h84q6 -29 32 -44q23 -11 58 -11q39 0 61.5 11.5t28.5 43.5zM436 252q0 53 -33.5 89.5t-87.5 36.5t-85.5 -36t-31.5 -90q0 -53 32 -90t85 -37q55 0 88 37t33 90zM592 498v-451q0 -142 -78 -214.5
t-215 -72.5q-68 0 -137 20.5t-119 57.5l82 117q70 -63 165 -63q70 0 105.5 37t35.5 102v30h-3q-51 -66 -151 -66q-110 0 -174 73.5t-64 182.5q0 108 64.5 184.5t172.5 76.5q107 0 159 -78h2v64h155z" />
    <glyph glyph-name="Gdotaccent" unicode="&#x120;" horiz-adv-x="769" 
d="M521 849q0 -36 -26 -60.5t-64 -24.5t-63.5 24.5t-25.5 60.5t25.5 61t63.5 25t64 -25t26 -61zM702 418v-375q-117 -61 -273 -61q-171 0 -280 103.5t-109 269.5q0 168 109.5 270t274.5 102q83 0 155 -25.5t118 -68.5l-108 -123q-56 66 -159 66q-90 0 -149 -62.5t-59 -158.5
q0 -101 56.5 -162t159.5 -61q62 0 107 19v129h-135v138h292z" />
    <glyph glyph-name="gdotaccent" unicode="&#x121;" horiz-adv-x="658" 
d="M411 657q0 -36 -26 -60.5t-64 -24.5t-63.5 24.5t-25.5 60.5t25.5 61t63.5 25t64 -25t26 -61zM436 252q0 53 -33.5 89.5t-87.5 36.5t-85.5 -36t-31.5 -90q0 -53 32 -90t85 -37q55 0 88 37t33 90zM592 498v-451q0 -142 -78 -214.5t-215 -72.5q-68 0 -137 20.5t-119 57.5
l82 117q70 -63 165 -63q70 0 105.5 37t35.5 102v30h-3q-51 -66 -151 -66q-110 0 -174 73.5t-64 182.5q0 108 64.5 184.5t172.5 76.5q107 0 159 -78h2v64h155z" />
    <glyph glyph-name="Gcommaaccent" unicode="&#x122;" horiz-adv-x="769" 
d="M506 -45l-86 -195h-126l67 195h145zM702 418v-375q-117 -61 -273 -61q-171 0 -280 103.5t-109 269.5q0 168 109.5 270t274.5 102q83 0 155 -25.5t118 -68.5l-108 -123q-56 66 -159 66q-90 0 -149 -62.5t-59 -158.5q0 -101 56.5 -162t159.5 -61q62 0 107 19v129h-135v138
h292z" />
    <glyph glyph-name="gcommaaccent" unicode="&#x123;" horiz-adv-x="658" 
d="M247 572l86 195h126l-67 -195h-145zM436 252q0 53 -33.5 89.5t-87.5 36.5t-85.5 -36t-31.5 -90q0 -53 32 -90t85 -37q55 0 88 37t33 90zM592 498v-451q0 -142 -78 -214.5t-215 -72.5q-68 0 -137 20.5t-119 57.5l82 117q70 -63 165 -63q70 0 105.5 37t35.5 102v30h-3
q-51 -66 -151 -66q-110 0 -174 73.5t-64 182.5q0 108 64.5 184.5t172.5 76.5q107 0 159 -78h2v64h155z" />
    <glyph glyph-name="Hcircumflex" unicode="&#x124;" horiz-adv-x="764" 
d="M582 764h-130l-68 81l-68 -81h-128l124 144h148zM691 0h-171v296h-276v-296h-171v708h171v-268h276v268h171v-708z" />
    <glyph glyph-name="hcircumflex" unicode="&#x125;" horiz-adv-x="617" 
d="M344 796h-130l-68 81l-68 -81h-128l124 144h148zM557 0h-165v270q0 105 -73 105q-42 0 -65.5 -30t-23.5 -76v-269h-164v756h164v-321h2q19 33 56.5 55t86.5 22q94 0 138 -59.5t44 -144.5v-308z" />
    <glyph glyph-name="Hbar" unicode="&#x126;" horiz-adv-x="764" 
d="M244 440h276v60h-276v-60zM691 0h-171v296h-276v-296h-171v708h171v-119h276v119h171v-708z" />
    <glyph glyph-name="hbar" unicode="&#x127;" horiz-adv-x="617" 
d="M557 0h-165v270q0 105 -73 105q-42 0 -65.5 -30t-23.5 -76v-269h-164v570h-46v89h46v97h164v-97h149v-89h-149v-135h2q19 33 56.5 55t86.5 22q94 0 138 -59.5t44 -144.5v-308z" />
    <glyph glyph-name="Itilde" unicode="&#x128;" horiz-adv-x="318" 
d="M274 900h71q-7 -57 -35 -94.5t-78 -37.5q-34 0 -81 21q-36 20 -63 20q-29 0 -42 -40h-72q7 57 34.5 93.5t78.5 36.5q35 0 80 -20q43 -20 65 -20q30 0 42 41zM245 0h-172v708h172v-708z" />
    <glyph glyph-name="itilde" unicode="&#x129;" horiz-adv-x="296" 
d="M264 708h71q-7 -57 -35 -94.5t-78 -37.5q-34 0 -81 21q-36 20 -63 20q-29 0 -42 -40h-72q7 57 34.5 93.5t78.5 36.5q35 0 80 -20q43 -20 65 -20q30 0 42 41zM230 0h-164v498h164v-498z" />
    <glyph glyph-name="Imacron" unicode="&#x12a;" horiz-adv-x="318" 
d="M326 793h-336v86h336v-86zM245 0h-172v708h172v-708z" />
    <glyph glyph-name="imacron" unicode="&#x12b;" horiz-adv-x="296" 
d="M318 601h-336v86h336v-86zM230 0h-164v498h164v-498z" />
    <glyph glyph-name="Ibreve" unicode="&#x12c;" horiz-adv-x="318" 
d="M249 927h84q-6 -74 -53 -109t-122 -35q-74 0 -120.5 34.5t-52.5 109.5h84q6 -29 32 -44q23 -11 58 -11q39 0 61.5 11.5t28.5 43.5zM245 0h-172v708h172v-708z" />
    <glyph glyph-name="ibreve" unicode="&#x12d;" horiz-adv-x="296" 
d="M238 717h84q-6 -74 -53 -109t-122 -35q-74 0 -120.5 34.5t-52.5 109.5h84q6 -29 32 -44q23 -11 58 -11q39 0 61.5 11.5t28.5 43.5zM230 0h-164v498h164v-498z" />
    <glyph glyph-name="Iogonek" unicode="&#x12e;" horiz-adv-x="318" 
d="M236 -134l32 -62q-54 -40 -115 -40q-46 0 -79.5 23t-33.5 68q0 71 102 145h-69v708h172v-708h-11q-90 -71 -90 -118q0 -16 10.5 -26t26.5 -10q27 0 55 20z" />
    <glyph glyph-name="iogonek" unicode="&#x12f;" horiz-adv-x="296" 
d="M242 657q0 -38 -27.5 -64t-66.5 -26t-66.5 26.5t-27.5 63.5q0 36 27.5 63t66.5 27t66.5 -26t27.5 -64zM217 -134l32 -62q-54 -40 -115 -40q-46 0 -79.5 23t-33.5 68q0 71 102 145h-57v498h164v-498h-15q-90 -71 -90 -118q0 -16 10.5 -26t26.5 -10q27 0 55 20z" />
    <glyph glyph-name="Idotaccent" unicode="&#x130;" horiz-adv-x="318" 
d="M249 849q0 -36 -26 -60.5t-64 -24.5t-63.5 24.5t-25.5 60.5t25.5 61t63.5 25t64 -25t26 -61zM245 0h-172v708h172v-708z" />
    <glyph glyph-name="dotlessi" unicode="&#x131;" horiz-adv-x="296" 
d="M230 0h-164v498h164v-498z" />
    <glyph glyph-name="IJ" unicode="&#x132;" horiz-adv-x="837" 
d="M768 708v-466q0 -37 -5.5 -70.5t-21.5 -69.5t-41 -62t-67.5 -42.5t-97.5 -16.5q-88 0 -148.5 45.5t-81.5 120.5l151 51q7 -28 25.5 -45t45.5 -17q39 0 54 26.5t15 78.5v467h172zM245 0h-172v708h172v-708z" />
    <glyph glyph-name="ij" unicode="&#x133;" horiz-adv-x="589" 
d="M523 498v-511q0 -50 -9 -88.5t-30 -71t-61.5 -50t-98.5 -17.5q-41 0 -71 8l11 137q15 -5 35 -5q34 0 47 22.5t13 64.5v511h164zM535 657q0 -38 -27.5 -64t-66.5 -26t-66.5 26.5t-27.5 63.5q0 36 27.5 63t66.5 27t66.5 -26t27.5 -64zM230 0h-164v498h164v-498zM242 657
q0 -38 -27.5 -64t-66.5 -26t-66.5 26.5t-27.5 63.5q0 36 27.5 63t66.5 27t66.5 -26t27.5 -64z" />
    <glyph glyph-name="Jcircumflex" unicode="&#x134;" horiz-adv-x="529" 
d="M570 764h-130l-68 81l-68 -81h-128l124 144h148zM460 708v-466q0 -37 -5.5 -70.5t-21.5 -69.5t-41 -62t-67.5 -42.5t-97.5 -16.5q-88 0 -148.5 45.5t-81.5 120.5l151 51q7 -28 25.5 -45t45.5 -17q39 0 54 26.5t15 78.5v467h172z" />
    <glyph glyph-name="jcircumflex" unicode="&#x135;" horiz-adv-x="299" 
d="M346 572h-130l-68 81l-68 -81h-128l124 144h148zM233 498v-511q0 -50 -9 -88.5t-30 -71t-61.5 -50t-98.5 -17.5q-41 0 -71 8l11 137q15 -5 35 -5q34 0 47 22.5t13 64.5v511h164z" />
    <glyph glyph-name="Kcommaaccent" unicode="&#x136;" horiz-adv-x="711" 
d="M443 -45l-86 -195h-126l67 195h145zM729 0h-223l-263 326h-2v-326h-168v708h168v-288h3l253 288h214l-305 -326z" />
    <glyph glyph-name="kcommaaccent" unicode="&#x137;" horiz-adv-x="595" 
d="M385 -45l-86 -195h-126l67 195h145zM399 273l200 -273h-203l-163 239h-3v-239h-165v756h165v-460h3l159 202h199z" />
    <glyph glyph-name="Lacute" unicode="&#x139;" horiz-adv-x="526" 
d="M365 908l-146 -144h-124l104 144h166zM519 0h-446v708h172v-559h274v-149z" />
    <glyph glyph-name="lacute" unicode="&#x13a;" horiz-adv-x="298" 
d="M336 936l-146 -144h-124l104 144h166zM232 0h-166v756h166v-756z" />
    <glyph glyph-name="Lcommaaccent" unicode="&#x13b;" horiz-adv-x="526" 
d="M366 -45l-86 -195h-126l67 195h145zM519 0h-446v708h172v-559h274v-149z" />
    <glyph glyph-name="lcommaaccent" unicode="&#x13c;" horiz-adv-x="298" 
d="M223 -45l-86 -195h-126l67 195h145zM232 0h-166v756h166v-756z" />
    <glyph glyph-name="Lcaron" unicode="&#x13d;" horiz-adv-x="526" 
d="M486 708l-86 -195h-126l67 195h145zM519 0h-446v708h172v-559h274v-149z" />
    <glyph glyph-name="lcaron" unicode="&#x13e;" horiz-adv-x="298" 
d="M473 708l-86 -195h-126l67 195h145zM232 0h-166v756h166v-756z" />
    <glyph glyph-name="Ldot" unicode="&#x13f;" horiz-adv-x="526" 
d="M508 347q0 -36 -26 -60.5t-64 -24.5t-63.5 24.5t-25.5 60.5t25.5 61t63.5 25t64 -25t26 -61zM519 0h-446v708h172v-559h274v-149z" />
    <glyph glyph-name="ldot" unicode="&#x140;" horiz-adv-x="448" 
d="M460 337q0 -36 -26 -60.5t-64 -24.5t-63.5 24.5t-25.5 60.5t25.5 61t63.5 25t64 -25t26 -61zM232 0h-166v756h166v-756z" />
    <glyph glyph-name="Lslash" unicode="&#x141;" horiz-adv-x="526" 
d="M519 0h-446v177l-64 -56v142l64 56v389h172v-262l191 167v-141l-191 -167v-156h274v-149z" />
    <glyph glyph-name="lslash" unicode="&#x142;" horiz-adv-x="298" 
d="M290 454l-58 -56v-398h-166v267l-58 -56v143l58 57v345h166v-217l58 57v-142z" />
    <glyph glyph-name="Nacute" unicode="&#x143;" horiz-adv-x="790" 
d="M588 908l-146 -144h-124l104 144h166zM717 0h-194l-285 463h-3l4 -463h-166v708h195l284 -462h3l-4 462h166v-708z" />
    <glyph glyph-name="nacute" unicode="&#x144;" horiz-adv-x="616" 
d="M484 716l-146 -144h-124l104 144h166zM556 0h-165v272q0 105 -74 105q-42 0 -65 -30.5t-23 -76.5v-270h-165v498h159v-69h2q20 35 59.5 59t89.5 24q93 0 137.5 -59.5t44.5 -144.5v-308z" />
    <glyph glyph-name="Ncommaaccent" unicode="&#x145;" horiz-adv-x="790" 
d="M465 -45l-86 -195h-126l67 195h145zM717 0h-194l-285 463h-3l4 -463h-166v708h195l284 -462h3l-4 462h166v-708z" />
    <glyph glyph-name="ncommaaccent" unicode="&#x146;" horiz-adv-x="616" 
d="M379 -45l-86 -195h-126l67 195h145zM556 0h-165v272q0 105 -74 105q-42 0 -65 -30.5t-23 -76.5v-270h-165v498h159v-69h2q20 35 59.5 59t89.5 24q93 0 137.5 -59.5t44.5 -144.5v-308z" />
    <glyph glyph-name="Ncaron" unicode="&#x147;" horiz-adv-x="790" 
d="M595 908l-123 -144h-147l-124 144h130l68 -81l68 81h128zM717 0h-194l-285 463h-3l4 -463h-166v708h195l284 -462h3l-4 462h166v-708z" />
    <glyph glyph-name="ncaron" unicode="&#x148;" horiz-adv-x="616" 
d="M507 716l-123 -144h-147l-124 144h130l68 -81l68 81h128zM556 0h-165v272q0 105 -74 105q-42 0 -65 -30.5t-23 -76.5v-270h-165v498h159v-69h2q20 35 59.5 59t89.5 24q93 0 137.5 -59.5t44.5 -144.5v-308z" />
    <glyph glyph-name="napostrophe" unicode="&#x149;" horiz-adv-x="706" 
d="M203 708l-86 -195h-126l67 195h145zM646 0h-165v272q0 105 -74 105q-42 0 -65 -30.5t-23 -76.5v-270h-165v498h159v-69h2q20 35 59.5 59t89.5 24q93 0 137.5 -59.5t44.5 -144.5v-308z" />
    <glyph glyph-name="Omacron" unicode="&#x14c;" horiz-adv-x="851" 
d="M591 793h-336v86h336v-86zM628 357q0 94 -57 155t-146 61t-145.5 -61t-56.5 -155q0 -96 56.5 -158t145.5 -62t146 62t57 158zM811 357q0 -167 -109 -271.5t-277 -104.5q-167 0 -276 104.5t-109 271.5q0 168 108.5 269t276.5 101q169 0 277.5 -101t108.5 -269z" />
    <glyph glyph-name="omacron" unicode="&#x14d;" horiz-adv-x="632" 
d="M483 601h-336v86h336v-86zM434 251q0 51 -32.5 89t-86.5 38q-55 0 -86 -37.5t-31 -89.5t31.5 -90.5t86.5 -38.5t86.5 38.5t31.5 90.5zM592 251q0 -119 -80 -193t-197 -74q-116 0 -196 74t-80 193t79.5 191t196.5 72t197 -72t80 -191z" />
    <glyph glyph-name="Obreve" unicode="&#x14e;" horiz-adv-x="851" 
d="M514 908h84q-6 -74 -53 -109t-122 -35q-74 0 -120.5 34.5t-52.5 109.5h84q10 -55 90 -55q39 0 61.5 11.5t28.5 43.5zM628 357q0 94 -57 155t-146 61t-145.5 -61t-56.5 -155q0 -96 56.5 -158t145.5 -62t146 62t57 158zM811 357q0 -167 -109 -271.5t-277 -104.5
q-167 0 -276 104.5t-109 271.5q0 168 108.5 269t276.5 101q169 0 277.5 -101t108.5 -269z" />
    <glyph glyph-name="obreve" unicode="&#x14f;" horiz-adv-x="632" 
d="M404 716h84q-6 -74 -53 -109t-122 -35q-74 0 -120.5 34.5t-52.5 109.5h84q6 -29 32 -44q23 -11 58 -11q39 0 61.5 11.5t28.5 43.5zM434 251q0 51 -32.5 89t-86.5 38q-55 0 -86 -37.5t-31 -89.5t31.5 -90.5t86.5 -38.5t86.5 38.5t31.5 90.5zM592 251q0 -119 -80 -193
t-197 -74q-116 0 -196 74t-80 193t79.5 191t196.5 72t197 -72t80 -191z" />
    <glyph glyph-name="Ohungarumlaut" unicode="&#x150;" horiz-adv-x="851" 
d="M515 908l-146 -144h-124l104 144h166zM735 908l-146 -144h-124l104 144h166zM628 357q0 94 -57 155t-146 61t-145.5 -61t-56.5 -155q0 -96 56.5 -158t145.5 -62t146 62t57 158zM811 357q0 -167 -109 -271.5t-277 -104.5q-167 0 -276 104.5t-109 271.5q0 168 108.5 269
t276.5 101q169 0 277.5 -101t108.5 -269z" />
    <glyph glyph-name="ohungarumlaut" unicode="&#x151;" horiz-adv-x="632" 
d="M413 716l-146 -144h-124l104 144h166zM633 716l-146 -144h-124l104 144h166zM434 251q0 51 -32.5 89t-86.5 38q-55 0 -86 -37.5t-31 -89.5t31.5 -90.5t86.5 -38.5t86.5 38.5t31.5 90.5zM592 251q0 -119 -80 -193t-197 -74q-116 0 -196 74t-80 193t79.5 191t196.5 72
t197 -72t80 -191z" />
    <glyph glyph-name="OE" unicode="&#x152;" horiz-adv-x="1019" 
d="M501 146v417h-46q-48 0 -87.5 -10.5t-73.5 -33.5t-53 -65.5t-19 -101.5q0 -105 66 -155.5t163 -50.5h50zM979 0h-537q-78 0 -147.5 20t-128 61t-92.5 111.5t-34 162.5q0 76 23 136.5t61 100.5t90.5 66.5t109 38t118.5 11.5h520v-145h-298v-133h281v-137h-281v-147h315
v-146z" />
    <glyph glyph-name="oe" unicode="&#x153;" horiz-adv-x="973" 
d="M802 162l113 -72q-73 -106 -225 -106q-62 0 -112.5 22.5t-78.5 60.5q-63 -83 -186 -83q-116 0 -195 73.5t-79 193.5q0 119 79 191t195 72q59 0 108.5 -24t78.5 -63q73 87 187 87q110 0 179 -73t69 -198q0 -27 -1 -39h-361q6 -42 39.5 -68t79.5 -26q71 0 110 52zM573 306
h211q0 41 -25.5 68t-72.5 27t-79 -27.5t-34 -67.5zM198 251q0 -52 31 -90.5t86 -38.5t86.5 38.5t31.5 90.5q0 51 -31.5 89t-86.5 38t-86 -38t-31 -89z" />
    <glyph glyph-name="Racute" unicode="&#x154;" horiz-adv-x="663" 
d="M496 908l-146 -144h-124l104 144h166zM445 491q0 79 -114 79h-91v-165h81q124 0 124 86zM652 0h-200l-153 281h-58v-281h-168v708h270q54 0 100 -11t86 -34.5t62.5 -66.5t22.5 -102q0 -71 -38.5 -120.5t-108.5 -70.5z" />
    <glyph glyph-name="racute" unicode="&#x155;" horiz-adv-x="396" 
d="M377 716l-146 -144h-124l104 144h166zM394 508l-7 -144q-19 5 -42 5q-59 0 -88 -36.5t-29 -76.5v-256h-164v498h158v-72h2q19 39 54.5 62.5t80.5 23.5q24 0 35 -4z" />
    <glyph glyph-name="Rcommaaccent" unicode="&#x156;" horiz-adv-x="663" 
d="M413 -45l-86 -195h-126l67 195h145zM445 491q0 79 -114 79h-91v-165h81q124 0 124 86zM652 0h-200l-153 281h-58v-281h-168v708h270q54 0 100 -11t86 -34.5t62.5 -66.5t22.5 -102q0 -71 -38.5 -120.5t-108.5 -70.5z" />
    <glyph glyph-name="rcommaaccent" unicode="&#x157;" horiz-adv-x="396" 
d="M224 -46l-86 -195h-126l67 195h145zM394 508l-7 -144q-19 5 -42 5q-59 0 -88 -36.5t-29 -76.5v-256h-164v498h158v-72h2q19 39 54.5 62.5t80.5 23.5q24 0 35 -4z" />
    <glyph glyph-name="Rcaron" unicode="&#x158;" horiz-adv-x="663" 
d="M517 908l-123 -144h-147l-124 144h130l68 -81l68 81h128zM445 491q0 79 -114 79h-91v-165h81q124 0 124 86zM652 0h-200l-153 281h-58v-281h-168v708h270q54 0 100 -11t86 -34.5t62.5 -66.5t22.5 -102q0 -71 -38.5 -120.5t-108.5 -70.5z" />
    <glyph glyph-name="rcaron" unicode="&#x159;" horiz-adv-x="396" 
d="M425 716l-123 -144h-147l-124 144h130l68 -81l68 81h128zM394 508l-7 -144q-19 5 -42 5q-59 0 -88 -36.5t-29 -76.5v-256h-164v498h158v-72h2q19 39 54.5 62.5t80.5 23.5q24 0 35 -4z" />
    <glyph glyph-name="Sacute" unicode="&#x15a;" horiz-adv-x="591" 
d="M487 908l-146 -144h-124l104 144h166zM556 639l-109 -115q-21 27 -56.5 44t-69.5 17q-40 0 -69.5 -16.5t-29.5 -54.5q0 -32 24 -47.5t85 -35.5q40 -13 61 -21t56.5 -26.5t54 -38.5t33.5 -53t15 -74q0 -115 -78.5 -175.5t-192.5 -60.5q-77 0 -147.5 27t-117.5 75l112 114
q27 -33 69.5 -54t83.5 -21q43 0 70.5 18.5t27.5 58.5q0 36 -33 56t-114 45q-39 12 -67.5 26.5t-56.5 37.5t-42.5 58t-14.5 81q0 57 24 101t63.5 69.5t87 38.5t99.5 13q62 0 124 -22.5t108 -64.5z" />
    <glyph glyph-name="sacute" unicode="&#x15b;" horiz-adv-x="472" 
d="M424 716l-146 -144h-124l104 144h166zM447 444l-90 -93q-49 45 -104 45q-26 0 -44 -10t-18 -30t19 -29t72 -21q159 -36 159 -152q0 -86 -63 -128t-150 -42q-138 0 -217 77l92 97q51 -56 122 -56q24 0 41.5 10.5t17.5 32.5t-21.5 33t-77.5 24q-145 34 -145 145
q0 82 63 124.5t144 42.5q127 0 200 -70z" />
    <glyph glyph-name="Scircumflex" unicode="&#x15c;" horiz-adv-x="591" 
d="M518 764h-130l-68 81l-68 -81h-128l124 144h148zM556 639l-109 -115q-21 27 -56.5 44t-69.5 17q-40 0 -69.5 -16.5t-29.5 -54.5q0 -32 24 -47.5t85 -35.5q40 -13 61 -21t56.5 -26.5t54 -38.5t33.5 -53t15 -74q0 -115 -78.5 -175.5t-192.5 -60.5q-77 0 -147.5 27
t-117.5 75l112 114q27 -33 69.5 -54t83.5 -21q43 0 70.5 18.5t27.5 58.5q0 36 -33 56t-114 45q-39 12 -67.5 26.5t-56.5 37.5t-42.5 58t-14.5 81q0 57 24 101t63.5 69.5t87 38.5t99.5 13q62 0 124 -22.5t108 -64.5z" />
    <glyph glyph-name="scircumflex" unicode="&#x15d;" horiz-adv-x="472" 
d="M445 572h-130l-68 81l-68 -81h-128l124 144h148zM447 444l-90 -93q-49 45 -104 45q-26 0 -44 -10t-18 -30t19 -29t72 -21q159 -36 159 -152q0 -86 -63 -128t-150 -42q-138 0 -217 77l92 97q51 -56 122 -56q24 0 41.5 10.5t17.5 32.5t-21.5 33t-77.5 24q-145 34 -145 145
q0 82 63 124.5t144 42.5q127 0 200 -70z" />
    <glyph glyph-name="Scedilla" unicode="&#x15e;" horiz-adv-x="591" 
d="M417 -142q0 -52 -44.5 -75t-102.5 -23q-67 0 -119 25l27 60q40 -19 84 -19q50 0 50 33q0 29 -47 29q-22 0 -40 -6l-31 29l54 72q-149 11 -233 101l112 114q27 -33 69.5 -54t83.5 -21q43 0 70.5 18.5t27.5 58.5q0 36 -33 56t-114 45q-39 12 -67.5 26.5t-56.5 37.5
t-42.5 58t-14.5 81q0 57 24 101t63.5 69.5t87 38.5t99.5 13q62 0 124 -22.5t108 -64.5l-109 -115q-21 27 -56.5 44t-69.5 17q-40 0 -69.5 -16.5t-29.5 -54.5q0 -32 24 -47.5t85 -35.5q40 -13 61 -21t56.5 -26.5t54 -38.5t33.5 -53t15 -74q0 -102 -61.5 -160.5t-158.5 -71.5
l-35 -46q7 1 18 1q103 0 103 -83z" />
    <glyph glyph-name="scedilla" unicode="&#x15f;" horiz-adv-x="472" 
d="M363 -142q0 -52 -44.5 -75t-102.5 -23q-67 0 -119 25l27 60q40 -19 84 -19q50 0 50 33q0 29 -47 29q-22 0 -40 -6l-31 29l56 75q-120 12 -185 75l92 97q51 -56 122 -56q24 0 41.5 10.5t17.5 32.5t-21.5 33t-77.5 24q-145 34 -145 145q0 82 63 125t144 43q126 0 200 -71
l-90 -93q-49 45 -104 45q-26 0 -44 -10t-18 -30t19 -29t72 -21q159 -36 159 -152q0 -73 -46.5 -115t-115.5 -51l-37 -48q7 1 18 1q103 0 103 -83z" />
    <glyph glyph-name="Scaron" unicode="&#x160;" horiz-adv-x="591" 
d="M520 908l-123 -144h-147l-124 144h130l68 -81l68 81h128zM556 639l-109 -115q-21 27 -56.5 44t-69.5 17q-40 0 -69.5 -16.5t-29.5 -54.5q0 -32 24 -47.5t85 -35.5q40 -13 61 -21t56.5 -26.5t54 -38.5t33.5 -53t15 -74q0 -115 -78.5 -175.5t-192.5 -60.5q-77 0 -147.5 27
t-117.5 75l112 114q27 -33 69.5 -54t83.5 -21q43 0 70.5 18.5t27.5 58.5q0 36 -33 56t-114 45q-39 12 -67.5 26.5t-56.5 37.5t-42.5 58t-14.5 81q0 57 24 101t63.5 69.5t87 38.5t99.5 13q62 0 124 -22.5t108 -64.5z" />
    <glyph glyph-name="scaron" unicode="&#x161;" horiz-adv-x="472" 
d="M444 716l-123 -144h-147l-124 144h130l68 -81l68 81h128zM447 444l-90 -93q-49 45 -104 45q-26 0 -44 -10t-18 -30t19 -29t72 -21q159 -36 159 -152q0 -86 -63 -128t-150 -42q-138 0 -217 77l92 97q51 -56 122 -56q24 0 41.5 10.5t17.5 32.5t-21.5 33t-77.5 24
q-145 34 -145 145q0 82 63 124.5t144 42.5q127 0 200 -70z" />
    <glyph glyph-name="Tcommaaccent" unicode="&#x162;" horiz-adv-x="581" 
d="M413 -142q0 -52 -44.5 -75t-102.5 -23q-67 0 -119 25l27 60q40 -19 84 -19q50 0 50 33q0 29 -47 29q-22 0 -40 -6l-31 29l67 89h-52v562h-200v146h571v-146h-200v-562h-37l-47 -60q7 1 18 1q103 0 103 -83z" />
    <glyph glyph-name="tcommaaccent" unicode="&#x163;" horiz-adv-x="372" 
d="M376 -142q0 -52 -44.5 -75t-102.5 -23q-67 0 -119 25l27 60q40 -19 84 -19q50 0 50 33q0 29 -47 29q-22 0 -40 -6l-31 29l60 80q-131 22 -131 174v210h-80v123h79v131h161v-131h117v-123h-117v-190q0 -36 14 -53t48 -17q29 0 48 8l2 -120q-26 -8 -60 -13l-39 -50
q7 1 18 1q103 0 103 -83z" />
    <glyph glyph-name="Tcaron" unicode="&#x164;" horiz-adv-x="581" 
d="M488 908l-123 -144h-147l-124 144h130l68 -81l68 81h128zM576 562h-200v-562h-171v562h-200v146h571v-146z" />
    <glyph glyph-name="tcaron" unicode="&#x165;" horiz-adv-x="372" 
d="M482 731l-86 -195h-126l67 195h145zM359 375h-117v-190q0 -36 14 -53t48 -17q29 0 48 8l2 -120q-43 -15 -95 -15q-95 0 -136 46t-41 131v210h-80v123h79v131h161v-131h117v-123z" />
    <glyph glyph-name="Tbar" unicode="&#x166;" horiz-adv-x="581" 
d="M576 562h-200v-85h136v-89h-136v-388h-171v388h-131v89h131v85h-200v146h571v-146z" />
    <glyph glyph-name="tbar" unicode="&#x167;" horiz-adv-x="372" 
d="M339 215h-97v-30q0 -36 14 -53t48 -17q29 0 48 8l2 -120q-43 -15 -95 -15q-95 0 -136 46t-41 131v50h-71v89h71v71h-80v123h79v131h161v-131h117v-123h-117v-71h97v-89z" />
    <glyph glyph-name="Utilde" unicode="&#x168;" horiz-adv-x="738" 
d="M488 900h71q-7 -57 -35 -94.5t-78 -37.5q-34 0 -81 21q-36 20 -63 20q-29 0 -42 -40h-72q7 57 34.5 93.5t78.5 36.5q35 0 80 -20q43 -20 65 -20q30 0 42 41zM673 708v-441q0 -128 -83.5 -207t-221.5 -79q-139 0 -220.5 78.5t-81.5 207.5v441h170v-427q0 -63 33 -104.5
t100 -41.5q68 0 100.5 41.5t32.5 104.5v427h171z" />
    <glyph glyph-name="utilde" unicode="&#x169;" horiz-adv-x="614" 
d="M420 708h71q-7 -57 -35 -94.5t-78 -37.5q-34 0 -81 21q-36 20 -63 20q-29 0 -42 -40h-72q7 57 34.5 93.5t78.5 36.5q35 0 80 -20q43 -20 65 -20q30 0 42 41zM550 0h-158v69h-2q-19 -35 -59.5 -59t-90.5 -24q-92 0 -136.5 59.5t-44.5 144.5v308h165v-270q0 -106 74 -106
q41 0 64.5 31t23.5 76v269h164v-498z" />
    <glyph glyph-name="Umacron" unicode="&#x16a;" horiz-adv-x="738" 
d="M542 793h-336v86h336v-86zM673 708v-441q0 -128 -83.5 -207t-221.5 -79q-139 0 -220.5 78.5t-81.5 207.5v441h170v-427q0 -63 33 -104.5t100 -41.5q68 0 100.5 41.5t32.5 104.5v427h171z" />
    <glyph glyph-name="umacron" unicode="&#x16b;" horiz-adv-x="614" 
d="M472 601h-336v86h336v-86zM550 0h-158v69h-2q-19 -35 -59.5 -59t-90.5 -24q-92 0 -136.5 59.5t-44.5 144.5v308h165v-270q0 -106 74 -106q41 0 64.5 31t23.5 76v269h164v-498z" />
    <glyph glyph-name="Ubreve" unicode="&#x16c;" horiz-adv-x="738" 
d="M460 908h84q-6 -74 -53 -109t-122 -35q-74 0 -120.5 34.5t-52.5 109.5h84q10 -55 90 -55q39 0 61.5 11.5t28.5 43.5zM673 708v-441q0 -128 -83.5 -207t-221.5 -79q-139 0 -220.5 78.5t-81.5 207.5v441h170v-427q0 -63 33 -104.5t100 -41.5q68 0 100.5 41.5t32.5 104.5
v427h171z" />
    <glyph glyph-name="ubreve" unicode="&#x16d;" horiz-adv-x="614" 
d="M395 716h84q-6 -74 -53 -109t-122 -35q-74 0 -120.5 34.5t-52.5 109.5h84q6 -29 32 -44q23 -11 58 -11q39 0 61.5 11.5t28.5 43.5zM550 0h-158v69h-2q-19 -35 -59.5 -59t-90.5 -24q-92 0 -136.5 59.5t-44.5 144.5v308h165v-270q0 -106 74 -106q41 0 64.5 31t23.5 76v269
h164v-498z" />
    <glyph glyph-name="Uring" unicode="&#x16e;" horiz-adv-x="738" 
d="M433 856q0 25 -17 41.5t-42 16.5q-26 0 -42.5 -17t-16.5 -42q0 -24 17 -40.5t42 -16.5t42 16.5t17 41.5zM483 856q0 -46 -31.5 -76.5t-77.5 -30.5q-45 0 -77 30.5t-32 75.5q0 47 31.5 77.5t77.5 30.5q45 0 77 -31t32 -76zM673 708v-441q0 -128 -83.5 -207t-221.5 -79
q-139 0 -220.5 78.5t-81.5 207.5v441h170v-427q0 -63 33 -104.5t100 -41.5q68 0 100.5 41.5t32.5 104.5v427h171z" />
    <glyph glyph-name="uring" unicode="&#x16f;" horiz-adv-x="614" 
d="M364 664q0 25 -17 41.5t-42 16.5q-26 0 -42.5 -17t-16.5 -42q0 -24 17 -40.5t42 -16.5t42 16.5t17 41.5zM414 664q0 -46 -31.5 -76.5t-77.5 -30.5q-45 0 -77 30.5t-32 75.5q0 47 31.5 77.5t77.5 30.5q45 0 77 -31t32 -76zM550 0h-158v69h-2q-19 -35 -59.5 -59t-90.5 -24
q-92 0 -136.5 59.5t-44.5 144.5v308h165v-270q0 -106 74 -106q41 0 64.5 31t23.5 76v269h164v-498z" />
    <glyph glyph-name="Uhungarumlaut" unicode="&#x170;" horiz-adv-x="738" 
d="M466 908l-146 -144h-124l104 144h166zM686 908l-146 -144h-124l104 144h166zM673 708v-441q0 -128 -83.5 -207t-221.5 -79q-139 0 -220.5 78.5t-81.5 207.5v441h170v-427q0 -63 33 -104.5t100 -41.5q68 0 100.5 41.5t32.5 104.5v427h171z" />
    <glyph glyph-name="uhungarumlaut" unicode="&#x171;" horiz-adv-x="614" 
d="M402 716l-146 -144h-124l104 144h166zM622 716l-146 -144h-124l104 144h166zM550 0h-158v69h-2q-19 -35 -59.5 -59t-90.5 -24q-92 0 -136.5 59.5t-44.5 144.5v308h165v-270q0 -106 74 -106q41 0 64.5 31t23.5 76v269h164v-498z" />
    <glyph glyph-name="Uogonek" unicode="&#x172;" horiz-adv-x="738" 
d="M451 -134l32 -62q-54 -40 -115 -40q-46 0 -79.5 23t-33.5 68q0 60 80 128q-125 10 -197 86.5t-72 197.5v441h170v-427q0 -63 33 -104.5t100 -41.5q68 0 100.5 41.5t32.5 104.5v427h171v-441q0 -112 -65 -187.5t-176 -93.5q-73 -64 -73 -104q0 -16 10.5 -26t26.5 -10
q27 0 55 20z" />
    <glyph glyph-name="uogonek" unicode="&#x173;" horiz-adv-x="614" 
d="M486 -134l32 -62q-54 -40 -115 -40q-46 0 -79.5 23t-33.5 68q0 71 102 145v69h-2q-19 -35 -59.5 -59t-90.5 -24q-92 0 -136.5 59.5t-44.5 144.5v308h165v-270q0 -106 74 -106q41 0 64.5 31t23.5 76v269h164v-498h-66q-90 -71 -90 -118q0 -16 10.5 -26t26.5 -10
q27 0 55 20z" />
    <glyph glyph-name="Wcircumflex" unicode="&#x174;" horiz-adv-x="1025" 
d="M712 764h-130l-68 81l-68 -81h-128l124 144h148zM1025 708l-202 -708h-169l-140 479h-3l-140 -479h-170l-201 708h184l112 -471h3l126 471h178l127 -471h3l114 471h178z" />
    <glyph glyph-name="wcircumflex" unicode="&#x175;" horiz-adv-x="871" 
d="M635 572h-130l-68 81l-68 -81h-128l124 144h148zM871 498l-173 -498h-165l-98 310h-2l-96 -310h-165l-172 498h177l86 -315h3l89 315h165l92 -315h2l87 315h170z" />
    <glyph glyph-name="Ycircumflex" unicode="&#x176;" horiz-adv-x="669" 
d="M535 764h-130l-68 81l-68 -81h-128l124 144h148zM689 708l-272 -408v-300h-171v300l-266 408h207l151 -262l151 262h200z" />
    <glyph glyph-name="ycircumflex" unicode="&#x177;" horiz-adv-x="567" 
d="M489 572h-130l-68 81l-68 -81h-128l124 144h148zM568 498l-223 -573q-32 -84 -81 -124.5t-138 -40.5q-52 0 -90 11l18 138q29 -9 53 -9q36 0 53 15.5t31 51.5l16 41l-208 490h182l111 -320h3l99 320h174z" />
    <glyph glyph-name="Ydieresis" unicode="&#x178;" horiz-adv-x="669" 
d="M313 850q0 -35 -24.5 -58.5t-59.5 -23.5t-59 24t-24 58q0 33 24.5 57t58.5 24q35 0 59.5 -23.5t24.5 -57.5zM530 850q0 -35 -24.5 -58.5t-58.5 -23.5q-35 0 -59 24t-24 58q0 33 24 57t59 24q34 0 58.5 -23.5t24.5 -57.5zM689 708l-272 -408v-300h-171v300l-266 408h207
l151 -262l151 262h200z" />
    <glyph glyph-name="Zacute" unicode="&#x179;" horiz-adv-x="635" 
d="M517 908l-146 -144h-124l104 144h166zM597 0h-558v148l337 415h-329v145h543v-137l-345 -423h352v-148z" />
    <glyph glyph-name="zacute" unicode="&#x17a;" horiz-adv-x="512" 
d="M443 716l-146 -144h-124l104 144h166zM478 0h-444v128l234 244h-225v126h425v-123l-241 -248h251v-127z" />
    <glyph glyph-name="Zdotaccent" unicode="&#x17b;" horiz-adv-x="635" 
d="M418 849q0 -36 -26 -60.5t-64 -24.5t-63.5 24.5t-25.5 60.5t25.5 61t63.5 25t64 -25t26 -61zM597 0h-558v148l337 415h-329v145h543v-137l-345 -423h352v-148z" />
    <glyph glyph-name="zdotaccent" unicode="&#x17c;" horiz-adv-x="512" 
d="M349 657q0 -36 -26 -60.5t-64 -24.5t-63.5 24.5t-25.5 60.5t25.5 61t63.5 25t64 -25t26 -61zM478 0h-444v128l234 244h-225v126h425v-123l-241 -248h251v-127z" />
    <glyph glyph-name="Zcaron" unicode="&#x17d;" horiz-adv-x="635" 
d="M516 908l-123 -144h-147l-124 144h130l68 -81l68 81h128zM597 0h-558v148l337 415h-329v145h543v-137l-345 -423h352v-148z" />
    <glyph glyph-name="zcaron" unicode="&#x17e;" horiz-adv-x="512" 
d="M459 716l-123 -144h-147l-124 144h130l68 -81l68 81h128zM478 0h-444v128l234 244h-225v126h425v-123l-241 -248h251v-127z" />
    <glyph glyph-name="florin" unicode="&#x192;" horiz-adv-x="646" 
d="M528 436v-113h-148l-55 -274q-37 -188 -205 -188q-70 0 -122 28l58 120q23 -16 50 -16q31 0 46 22t24 67l49 241h-114v113h134l16 78q10 45 22 77.5t35 65t61 49.5t90 17q79 0 137 -34l-60 -121q-30 18 -57 18q-33 0 -48.5 -22t-24.5 -63l-14 -65h126z" />
    <glyph glyph-name="Ohorn" unicode="&#x1a0;" horiz-adv-x="855" 
d="M223 357q0 -96 56.5 -158t145.5 -62t146 62t57 158q0 94 -57 155t-146 61t-145.5 -61t-56.5 -155zM720 815l124 30q19 -37 19 -91q0 -143 -137 -154q85 -101 85 -243q0 -167 -109 -271.5t-277 -104.5q-167 0 -276 104.5t-109 271.5q0 168 108.5 269t276.5 101
q60 0 106.5 -12.5t78 -24.5t53.5 -12q40 0 57.5 18t17.5 56t-18 63z" />
    <glyph glyph-name="ohorn" unicode="&#x1a1;" horiz-adv-x="642" 
d="M315 378q-55 0 -86 -37.5t-31 -89.5t31.5 -90.5t86.5 -38.5t86.5 38.5t31.5 90.5q0 51 -32.5 89t-86.5 38zM673 562q0 -141 -131 -153q50 -69 50 -158q0 -119 -80 -193t-197 -74q-116 0 -196 74t-80 193t80 191.5t196 72.5q49 0 97 -15t62 -15q73 0 73 75q0 38 -17 63
l124 30q19 -40 19 -91z" />
    <glyph glyph-name="Uhorn" unicode="&#x1af;" horiz-adv-x="748" 
d="M673 631v-364q0 -128 -83.5 -207t-221.5 -79q-139 0 -220.5 78.5t-81.5 207.5v441h170v-427q0 -63 33 -104.5t100 -41.5q68 0 100.5 41.5t32.5 104.5v427h106q44 0 62.5 19t18.5 57q0 37 -18 63l124 29q19 -37 19 -91q0 -146 -141 -154z" />
    <glyph glyph-name="uhorn" unicode="&#x1b0;" horiz-adv-x="634" 
d="M550 422v-422h-158v69h-2q-19 -35 -59.5 -59t-90.5 -24q-92 0 -136.5 59.5t-44.5 144.5v308h165v-270q0 -106 74 -106q41 0 64.5 31t23.5 76v269h99q77 0 77 76q0 37 -18 63l125 30q18 -37 18 -91q0 -146 -137 -154z" />
    <glyph glyph-name="clickdental" unicode="&#x1c0;" horiz-adv-x="241" 
d="M186 -250h-130l-1 1000h131v-1000z" />
    <glyph glyph-name="clicklateral" unicode="&#x1c1;" horiz-adv-x="482" 
d="M427 -250h-130l-1 1000h131v-1000zM186 -250h-130l-1 1000h131v-1000z" />
    <glyph glyph-name="clickretroflex" unicode="&#x1c3;" horiz-adv-x="357" 
d="M276 85q0 -40 -28.5 -67.5t-69.5 -27.5q-39 0 -68 27.5t-29 66.5t28.5 67t68.5 28q41 0 69.5 -27.5t28.5 -66.5zM262 237h-168v471h168v-471z" />
    <glyph glyph-name="DZcaron" unicode="&#x1c4;" horiz-adv-x="1709" 
d="M1299 927l-123 -144h-147l-124 144h130l68 -81l68 81h128zM1371 0h-558v148l337 415h-329v145h543v-137l-345 -423h352v-148zM556 356q0 110 -65.5 158t-165.5 48h-85v-414h81q49 0 89 11t74 34t53 64.5t19 98.5zM734 356q0 -90 -34 -160t-91.5 -112t-126.5 -63t-145 -21
h-264v708h256q63 0 119.5 -10.5t109.5 -36.5t91.5 -65t61.5 -100.5t23 -139.5z" />
    <glyph glyph-name="Dzcaron" unicode="&#x1c5;" horiz-adv-x="1586" 
d="M1237 717l-123 -144h-147l-124 144h130l68 -81l68 81h128zM1252 0h-444v128l234 244h-225v126h425v-123l-241 -248h251v-127zM556 356q0 110 -65.5 158t-165.5 48h-85v-414h81q49 0 89 11t74 34t53 64.5t19 98.5zM734 356q0 -90 -34 -160t-91.5 -112t-126.5 -63t-145 -21
h-264v708h256q63 0 119.5 -10.5t109.5 -36.5t91.5 -65t61.5 -100.5t23 -139.5z" />
    <glyph glyph-name="dzcaron" unicode="&#x1c6;" horiz-adv-x="1470" 
d="M1121 717l-123 -144h-147l-124 144h130l68 -81l68 81h128zM1136 0h-444v128l234 244h-225v126h425v-123l-241 -248h251v-127zM435 250q0 51 -33.5 89.5t-86.5 38.5q-55 0 -86.5 -37.5t-31.5 -89.5t31.5 -90.5t86.5 -38.5q53 0 86.5 38.5t33.5 89.5zM592 0h-151v65h-2
q-24 -37 -68 -58t-95 -21q-108 0 -172.5 78t-64.5 187t65 185t170 76q95 0 152 -67h2v311h164v-756z" />
    <glyph glyph-name="LJ" unicode="&#x1c7;" horiz-adv-x="1055" 
d="M986 708v-466q0 -37 -5.5 -70.5t-21.5 -69.5t-41 -62t-67.5 -42.5t-97.5 -16.5q-88 0 -148.5 45.5t-81.5 120.5l151 51q7 -28 25.5 -45t45.5 -17q39 0 54 26.5t15 78.5v467h172zM519 0h-446v708h172v-559h274v-149z" />
    <glyph glyph-name="Lj" unicode="&#x1c8;" horiz-adv-x="825" 
d="M759 498v-511q0 -50 -9 -88.5t-30 -71t-61.5 -50t-98.5 -17.5q-41 0 -71 8l11 137q15 -5 35 -5q34 0 47 22.5t13 64.5v511h164zM771 657q0 -38 -27.5 -64t-66.5 -26t-66.5 26.5t-27.5 63.5q0 36 27.5 63t66.5 27t66.5 -26t27.5 -64zM519 0h-446v708h172v-559h274v-149z
" />
    <glyph glyph-name="lj" unicode="&#x1c9;" horiz-adv-x="597" 
d="M531 498v-511q0 -50 -9 -88.5t-30 -71t-61.5 -50t-98.5 -17.5q-41 0 -71 8l11 137q15 -5 35 -5q34 0 47 22.5t13 64.5v511h164zM543 657q0 -38 -27.5 -64t-66.5 -26t-66.5 26.5t-27.5 63.5q0 36 27.5 63t66.5 27t66.5 -26t27.5 -64zM232 0h-166v756h166v-756z" />
    <glyph glyph-name="NJ" unicode="&#x1ca;" horiz-adv-x="1319" 
d="M1250 708v-466q0 -37 -5.5 -70.5t-21.5 -69.5t-41 -62t-67.5 -42.5t-97.5 -16.5q-88 0 -148.5 45.5t-81.5 120.5l151 51q7 -28 25.5 -45t45.5 -17q39 0 54 26.5t15 78.5v467h172zM717 0h-194l-285 463h-3l4 -463h-166v708h195l284 -462h3l-4 462h166v-708z" />
    <glyph glyph-name="Nj" unicode="&#x1cb;" horiz-adv-x="1089" 
d="M1023 498v-511q0 -50 -9 -88.5t-30 -71t-61.5 -50t-98.5 -17.5q-41 0 -71 8l11 137q15 -5 35 -5q34 0 47 22.5t13 64.5v511h164zM1035 657q0 -38 -27.5 -64t-66.5 -26t-66.5 26.5t-27.5 63.5q0 36 27.5 63t66.5 27t66.5 -26t27.5 -64zM717 0h-194l-285 463h-3l4 -463
h-166v708h195l284 -462h3l-4 462h166v-708z" />
    <glyph glyph-name="nj" unicode="&#x1cc;" horiz-adv-x="915" 
d="M849 498v-511q0 -50 -9 -88.5t-30 -71t-61.5 -50t-98.5 -17.5q-41 0 -71 8l11 137q15 -5 35 -5q34 0 47 22.5t13 64.5v511h164zM861 657q0 -38 -27.5 -64t-66.5 -26t-66.5 26.5t-27.5 63.5q0 36 27.5 63t66.5 27t66.5 -26t27.5 -64zM556 0h-165v272q0 105 -74 105
q-42 0 -65 -30.5t-23 -76.5v-270h-165v498h159v-69h2q20 35 59.5 59t89.5 24q93 0 137.5 -59.5t44.5 -144.5v-308z" />
    <glyph glyph-name="Acaron" unicode="&#x1cd;" horiz-adv-x="729" 
d="M561 927l-123 -144h-147l-124 144h130l68 -81l68 81h128zM451 276l-88 243l-90 -243h178zM743 0h-190l-55 139h-274l-52 -139h-186l297 708h166z" />
    <glyph glyph-name="acaron" unicode="&#x1ce;" horiz-adv-x="566" 
d="M467 733l-123 -144h-147l-124 144h130l68 -81l68 81h128zM140 341l-83 89q88 84 222 84q123 0 176 -62.5t53 -200.5v-251h-150v53h-3q-18 -30 -56.5 -47.5t-84.5 -17.5q-71 0 -126 38t-55 118q0 168 320 168v8q0 35 -25 53.5t-65 18.5q-67 0 -123 -51zM358 200v17h-21
q-153 0 -153 -68q0 -26 21 -38.5t50 -12.5q50 0 76.5 27t26.5 75z" />
    <glyph glyph-name="Icaron" unicode="&#x1cf;" horiz-adv-x="318" 
d="M356 927l-123 -144h-147l-124 144h130l68 -81l68 81h128zM245 0h-172v708h172v-708z" />
    <glyph glyph-name="icaron" unicode="&#x1d0;" horiz-adv-x="296" 
d="M345 717l-123 -144h-147l-124 144h130l68 -81l68 81h128zM230 0h-164v498h164v-498z" />
    <glyph glyph-name="Ocaron" unicode="&#x1d1;" horiz-adv-x="851" 
d="M622 946l-123 -144h-147l-124 144h130l68 -81l68 81h128zM628 357q0 94 -57 155t-146 61t-145.5 -61t-56.5 -155q0 -96 56.5 -158t145.5 -62t146 62t57 158zM811 357q0 -167 -109 -271.5t-277 -104.5q-167 0 -276 104.5t-109 271.5q0 168 108.5 269t276.5 101
q169 0 277.5 -101t108.5 -269z" />
    <glyph glyph-name="ocaron" unicode="&#x1d2;" horiz-adv-x="632" 
d="M512 733l-123 -144h-147l-124 144h130l68 -81l68 81h128zM434 251q0 51 -32.5 89t-86.5 38q-55 0 -86 -37.5t-31 -89.5t31.5 -90.5t86.5 -38.5t86.5 38.5t31.5 90.5zM592 251q0 -119 -80 -193t-197 -74q-116 0 -196 74t-80 193t79.5 191t196.5 72t197 -72t80 -191z" />
    <glyph glyph-name="Ucaron" unicode="&#x1d3;" horiz-adv-x="738" 
d="M566 927l-123 -144h-147l-124 144h130l68 -81l68 81h128zM673 708v-441q0 -128 -83.5 -207t-221.5 -79q-139 0 -220.5 78.5t-81.5 207.5v441h170v-427q0 -63 33 -104.5t100 -41.5q68 0 100.5 41.5t32.5 104.5v427h171z" />
    <glyph glyph-name="ucaron" unicode="&#x1d4;" horiz-adv-x="614" 
d="M501 717l-123 -144h-147l-124 144h130l68 -81l68 81h128zM550 0h-158v69h-2q-19 -35 -59.5 -59t-90.5 -24q-92 0 -136.5 59.5t-44.5 144.5v308h165v-270q0 -106 74 -106q41 0 64.5 31t23.5 76v269h164v-498z" />
    <glyph glyph-name="Udieresismacron" unicode="&#x1d5;" horiz-adv-x="738" 
d="M537 1021h-336v86h336v-86zM344 865q0 -35 -24.5 -58.5t-59.5 -23.5t-59 24t-24 58q0 33 24.5 57t58.5 24q35 0 59.5 -23.5t24.5 -57.5zM561 865q0 -35 -24.5 -58.5t-58.5 -23.5q-35 0 -59 24t-24 58q0 33 24 57t59 24q34 0 58.5 -23.5t24.5 -57.5zM673 708v-441
q0 -128 -83.5 -207t-221.5 -79q-139 0 -220.5 78.5t-81.5 207.5v441h170v-427q0 -63 33 -104.5t100 -41.5q68 0 100.5 41.5t32.5 104.5v427h171z" />
    <glyph glyph-name="udieresismacron" unicode="&#x1d6;" horiz-adv-x="614" 
d="M472 811h-336v86h336v-86zM279 655q0 -35 -24.5 -58.5t-59.5 -23.5t-59 24t-24 58q0 33 24.5 57t58.5 24q35 0 59.5 -23.5t24.5 -57.5zM496 655q0 -35 -24.5 -58.5t-58.5 -23.5q-35 0 -59 24t-24 58q0 33 24 57t59 24q34 0 58.5 -23.5t24.5 -57.5zM550 0h-158v69h-2
q-19 -35 -59.5 -59t-90.5 -24q-92 0 -136.5 59.5t-44.5 144.5v308h165v-270q0 -106 74 -106q41 0 64.5 31t23.5 76v269h164v-498z" />
    <glyph glyph-name="Udieresisacute" unicode="&#x1d7;" horiz-adv-x="738" 
d="M578 1165l-146 -144h-124l104 144h166zM348 865q0 -35 -24.5 -58.5t-59.5 -23.5t-59 24t-24 58q0 33 24.5 57t58.5 24q35 0 59.5 -23.5t24.5 -57.5zM565 865q0 -35 -24.5 -58.5t-58.5 -23.5q-35 0 -59 24t-24 58q0 33 24 57t59 24q34 0 58.5 -23.5t24.5 -57.5zM673 708
v-441q0 -128 -83.5 -207t-221.5 -79q-139 0 -220.5 78.5t-81.5 207.5v441h170v-427q0 -63 33 -104.5t100 -41.5q68 0 100.5 41.5t32.5 104.5v427h171z" />
    <glyph glyph-name="udieresisacute" unicode="&#x1d8;" horiz-adv-x="614" 
d="M509 955l-146 -144h-124l104 144h166zM279 655q0 -35 -24.5 -58.5t-59.5 -23.5t-59 24t-24 58q0 33 24.5 57t58.5 24q35 0 59.5 -23.5t24.5 -57.5zM496 655q0 -35 -24.5 -58.5t-58.5 -23.5q-35 0 -59 24t-24 58q0 33 24 57t59 24q34 0 58.5 -23.5t24.5 -57.5zM550 0h-158
v69h-2q-19 -35 -59.5 -59t-90.5 -24q-92 0 -136.5 59.5t-44.5 144.5v308h165v-270q0 -106 74 -106q41 0 64.5 31t23.5 76v269h164v-498z" />
    <glyph glyph-name="Udieresiscaron" unicode="&#x1d9;" horiz-adv-x="738" 
d="M566 1165l-123 -144h-147l-124 144h130l68 -81l68 81h128zM344 865q0 -35 -24.5 -58.5t-59.5 -23.5t-59 24t-24 58q0 33 24.5 57t58.5 24q35 0 59.5 -23.5t24.5 -57.5zM561 865q0 -35 -24.5 -58.5t-58.5 -23.5q-35 0 -59 24t-24 58q0 33 24 57t59 24q34 0 58.5 -23.5
t24.5 -57.5zM673 708v-441q0 -128 -83.5 -207t-221.5 -79q-139 0 -220.5 78.5t-81.5 207.5v441h170v-427q0 -63 33 -104.5t100 -41.5q68 0 100.5 41.5t32.5 104.5v427h171z" />
    <glyph glyph-name="udieresiscaron" unicode="&#x1da;" horiz-adv-x="614" 
d="M501 955l-123 -144h-147l-124 144h130l68 -81l68 81h128zM279 655q0 -35 -24.5 -58.5t-59.5 -23.5t-59 24t-24 58q0 33 24.5 57t58.5 24q35 0 59.5 -23.5t24.5 -57.5zM496 655q0 -35 -24.5 -58.5t-58.5 -23.5q-35 0 -59 24t-24 58q0 33 24 57t59 24q34 0 58.5 -23.5
t24.5 -57.5zM550 0h-158v69h-2q-19 -35 -59.5 -59t-90.5 -24q-92 0 -136.5 59.5t-44.5 144.5v308h165v-270q0 -106 74 -106q41 0 64.5 31t23.5 76v269h164v-498z" />
    <glyph glyph-name="Udieresisgrave" unicode="&#x1db;" horiz-adv-x="738" 
d="M434 1021h-124l-146 144h166zM344 865q0 -35 -24.5 -58.5t-59.5 -23.5t-59 24t-24 58q0 33 24.5 57t58.5 24q35 0 59.5 -23.5t24.5 -57.5zM561 865q0 -35 -24.5 -58.5t-58.5 -23.5q-35 0 -59 24t-24 58q0 33 24 57t59 24q34 0 58.5 -23.5t24.5 -57.5zM673 708v-441
q0 -128 -83.5 -207t-221.5 -79q-139 0 -220.5 78.5t-81.5 207.5v441h170v-427q0 -63 33 -104.5t100 -41.5q68 0 100.5 41.5t32.5 104.5v427h171z" />
    <glyph glyph-name="udieresisgrave" unicode="&#x1dc;" horiz-adv-x="614" 
d="M359 811h-124l-146 144h166zM279 655q0 -35 -24.5 -58.5t-59.5 -23.5t-59 24t-24 58q0 33 24.5 57t58.5 24q35 0 59.5 -23.5t24.5 -57.5zM496 655q0 -35 -24.5 -58.5t-58.5 -23.5q-35 0 -59 24t-24 58q0 33 24 57t59 24q34 0 58.5 -23.5t24.5 -57.5zM550 0h-158v69h-2
q-19 -35 -59.5 -59t-90.5 -24q-92 0 -136.5 59.5t-44.5 144.5v308h165v-270q0 -106 74 -106q41 0 64.5 31t23.5 76v269h164v-498z" />
    <glyph glyph-name="Adieresismacron" unicode="&#x1de;" horiz-adv-x="729" 
d="M532 1021h-336v86h336v-86zM339 865q0 -35 -24.5 -58.5t-59.5 -23.5t-59 24t-24 58q0 33 24.5 57t58.5 24q35 0 59.5 -23.5t24.5 -57.5zM556 865q0 -35 -24.5 -58.5t-58.5 -23.5q-35 0 -59 24t-24 58q0 33 24 57t59 24q34 0 58.5 -23.5t24.5 -57.5zM451 276l-88 243
l-90 -243h178zM743 0h-190l-55 139h-274l-52 -139h-186l297 708h166z" />
    <glyph glyph-name="adieresismacron" unicode="&#x1df;" horiz-adv-x="566" 
d="M438 827h-336v86h336v-86zM245 671q0 -35 -24.5 -58.5t-59.5 -23.5t-59 24t-24 58q0 33 24.5 57t58.5 24q35 0 59.5 -23.5t24.5 -57.5zM462 671q0 -35 -24.5 -58.5t-58.5 -23.5q-35 0 -59 24t-24 58q0 33 24 57t59 24q34 0 58.5 -23.5t24.5 -57.5zM140 341l-83 89
q88 84 222 84q123 0 176 -62.5t53 -200.5v-251h-150v53h-3q-18 -30 -56.5 -47.5t-84.5 -17.5q-71 0 -126 38t-55 118q0 168 320 168v8q0 35 -25 53.5t-65 18.5q-67 0 -123 -51zM358 200v17h-21q-153 0 -153 -68q0 -26 21 -38.5t50 -12.5q50 0 76.5 27t26.5 75z" />
    <glyph glyph-name="Adotmacron" unicode="&#x1e0;" horiz-adv-x="729" 
d="M532 1029h-336v86h336v-86zM454 868q0 -36 -26 -60.5t-64 -24.5t-63.5 24.5t-25.5 60.5t25.5 61t63.5 25t64 -25t26 -61zM451 276l-88 243l-90 -243h178zM743 0h-190l-55 139h-274l-52 -139h-186l297 708h166z" />
    <glyph glyph-name="adotmacron" unicode="&#x1e1;" horiz-adv-x="566" 
d="M438 835h-336v86h336v-86zM360 674q0 -36 -26 -60.5t-64 -24.5t-63.5 24.5t-25.5 60.5t25.5 61t63.5 25t64 -25t26 -61zM140 341l-83 89q88 84 222 84q123 0 176 -62.5t53 -200.5v-251h-150v53h-3q-18 -30 -56.5 -47.5t-84.5 -17.5q-71 0 -126 38t-55 118q0 168 320 168
v8q0 35 -25 53.5t-65 18.5q-67 0 -123 -51zM358 200v17h-21q-153 0 -153 -68q0 -26 21 -38.5t50 -12.5q50 0 76.5 27t26.5 75z" />
    <glyph glyph-name="AEmacron" unicode="&#x1e2;" horiz-adv-x="1033" 
d="M872 783h-336v86h336v-86zM514 291v272h-10l-153 -272h163zM993 0h-479v153h-231l-88 -153h-199l414 708h565v-145h-298v-133h281v-137h-281v-147h316v-146z" />
    <glyph glyph-name="aemacron" unicode="&#x1e3;" horiz-adv-x="899" 
d="M615 589h-336v86h336v-86zM727 162l113 -72q-73 -106 -226 -106q-125 0 -187 90q-52 -86 -202 -86q-75 0 -133.5 39t-58.5 117q0 50 26 83.5t74.5 49.5t99.5 22t120 6v7q0 80 -89 80q-68 0 -124 -51l-82 89q86 84 221 84q110 0 161 -73q61 73 171 73q112 0 181 -72.5
t69 -198.5q0 -15 -2 -39h-360q5 -41 38.5 -67.5t79.5 -26.5q75 0 110 52zM498 306h211q0 41 -25.5 68t-72.5 27t-79 -27.5t-34 -67.5zM358 191v16h-21q-78 0 -115.5 -12t-37.5 -46q0 -26 21 -38.5t50 -12.5q50 0 76.5 25t26.5 68z" />
    <glyph glyph-name="Gcaron" unicode="&#x1e6;" horiz-adv-x="769" 
d="M608 946l-123 -144h-147l-124 144h130l68 -81l68 81h128zM702 418v-375q-117 -61 -273 -61q-171 0 -280 103.5t-109 269.5q0 168 109.5 270t274.5 102q83 0 155 -25.5t118 -68.5l-108 -123q-56 66 -159 66q-90 0 -149 -62.5t-59 -158.5q0 -101 56.5 -162t159.5 -61
q62 0 107 19v129h-135v138h292z" />
    <glyph glyph-name="gcaron" unicode="&#x1e7;" horiz-adv-x="658" 
d="M552 731l-123 -144h-147l-124 144h130l68 -81l68 81h128zM436 252q0 53 -33.5 89.5t-87.5 36.5t-85.5 -36t-31.5 -90q0 -53 32 -90t85 -37q55 0 88 37t33 90zM592 498v-451q0 -142 -78 -214.5t-215 -72.5q-68 0 -137 20.5t-119 57.5l82 117q70 -63 165 -63q70 0 105.5 37
t35.5 102v30h-3q-51 -66 -151 -66q-110 0 -174 73.5t-64 182.5q0 108 64.5 184.5t172.5 76.5q107 0 159 -78h2v64h155z" />
    <glyph glyph-name="Kcaron" unicode="&#x1e8;" horiz-adv-x="711" 
d="M538 927l-123 -144h-147l-124 144h130l68 -81l68 81h128zM729 0h-223l-263 326h-2v-326h-168v708h168v-288h3l253 288h214l-305 -326z" />
    <glyph glyph-name="kcaron" unicode="&#x1e9;" horiz-adv-x="595" 
d="M346 975l-123 -144h-147l-124 144h130l68 -81l68 81h128zM399 273l200 -273h-203l-163 239h-3v-239h-165v756h165v-460h3l159 202h199z" />
    <glyph glyph-name="Oogonek" unicode="&#x1ea;" horiz-adv-x="851" 
d="M628 357q0 94 -57 155t-146 61t-145.5 -61t-56.5 -155q0 -96 56.5 -158t145.5 -62t146 62t57 158zM811 357q0 -145 -84 -245t-221 -124q-91 -71 -91 -129q0 -16 10.5 -26t26.5 -10q27 0 55 20l32 -62q-54 -40 -115 -40q-46 0 -79.5 23t-33.5 68q0 78 95 150
q-161 6 -263.5 109.5t-102.5 265.5q0 168 108.5 269t276.5 101q169 0 277.5 -101t108.5 -269z" />
    <glyph glyph-name="oogonek" unicode="&#x1eb;" horiz-adv-x="632" 
d="M434 251q0 51 -32.5 89t-86.5 38q-55 0 -86 -37.5t-31 -89.5t31.5 -90.5t86.5 -38.5t86.5 38.5t31.5 90.5zM592 251q0 -99 -57 -168t-147 -90q-93 -75 -93 -131q0 -16 10.5 -26t26.5 -10q27 0 55 20l32 -62q-54 -40 -115 -40q-46 0 -79.5 23t-33.5 68q0 77 96 150
q-106 8 -177 81.5t-71 184.5q0 119 79.5 191t196.5 72t197 -72t80 -191z" />
    <glyph glyph-name="Oogonekmacron" unicode="&#x1ec;" horiz-adv-x="851" 
d="M593 802h-336v86h336v-86zM628 357q0 94 -57 155t-146 61t-145.5 -61t-56.5 -155q0 -96 56.5 -158t145.5 -62t146 62t57 158zM811 357q0 -145 -84 -245t-221 -124q-91 -71 -91 -129q0 -16 10.5 -26t26.5 -10q27 0 55 20l32 -62q-54 -40 -115 -40q-46 0 -79.5 23t-33.5 68
q0 78 95 150q-161 6 -263.5 109.5t-102.5 265.5q0 168 108.5 269t276.5 101q169 0 277.5 -101t108.5 -269z" />
    <glyph glyph-name="oogonekmacron" unicode="&#x1ed;" horiz-adv-x="632" 
d="M483 589h-336v86h336v-86zM434 251q0 51 -32.5 89t-86.5 38q-55 0 -86 -37.5t-31 -89.5t31.5 -90.5t86.5 -38.5t86.5 38.5t31.5 90.5zM592 251q0 -99 -57 -168t-147 -90q-93 -75 -93 -131q0 -16 10.5 -26t26.5 -10q27 0 55 20l32 -62q-54 -40 -115 -40q-46 0 -79.5 23
t-33.5 68q0 77 96 150q-106 8 -177 81.5t-71 184.5q0 119 79.5 191t196.5 72t197 -72t80 -191z" />
    <glyph glyph-name="DZ" unicode="&#x1f1;" horiz-adv-x="1409" 
d="M1371 0h-558v148l337 415h-329v145h543v-137l-345 -423h352v-148zM556 356q0 110 -65.5 158t-165.5 48h-85v-414h81q49 0 89 11t74 34t53 64.5t19 98.5zM734 356q0 -90 -34 -160t-91.5 -112t-126.5 -63t-145 -21h-264v708h256q63 0 119.5 -10.5t109.5 -36.5t91.5 -65
t61.5 -100.5t23 -139.5z" />
    <glyph glyph-name="Dz" unicode="&#x1f2;" horiz-adv-x="1286" 
d="M1252 0h-444v128l234 244h-225v126h425v-123l-241 -248h251v-127zM556 356q0 110 -65.5 158t-165.5 48h-85v-414h81q49 0 89 11t74 34t53 64.5t19 98.5zM734 356q0 -90 -34 -160t-91.5 -112t-126.5 -63t-145 -21h-264v708h256q63 0 119.5 -10.5t109.5 -36.5t91.5 -65
t61.5 -100.5t23 -139.5z" />
    <glyph glyph-name="dz" unicode="&#x1f3;" horiz-adv-x="1170" 
d="M1136 0h-444v128l234 244h-225v126h425v-123l-241 -248h251v-127zM435 250q0 51 -33.5 89.5t-86.5 38.5q-55 0 -86.5 -37.5t-31.5 -89.5t31.5 -90.5t86.5 -38.5q53 0 86.5 38.5t33.5 89.5zM592 0h-151v65h-2q-24 -37 -68 -58t-95 -21q-108 0 -172.5 78t-64.5 187t65 185
t170 76q95 0 152 -67h2v311h164v-756z" />
    <glyph glyph-name="Gacute" unicode="&#x1f4;" horiz-adv-x="769" 
d="M566 946l-146 -144h-124l104 144h166zM702 418v-375q-117 -61 -273 -61q-171 0 -280 103.5t-109 269.5q0 168 109.5 270t274.5 102q83 0 155 -25.5t118 -68.5l-108 -123q-56 66 -159 66q-90 0 -149 -62.5t-59 -158.5q0 -101 56.5 -162t159.5 -61q62 0 107 19v129h-135
v138h292z" />
    <glyph glyph-name="gacute" unicode="&#x1f5;" horiz-adv-x="658" 
d="M520 731l-146 -144h-124l104 144h166zM436 252q0 53 -33.5 89.5t-87.5 36.5t-85.5 -36t-31.5 -90q0 -53 32 -90t85 -37q55 0 88 37t33 90zM592 498v-451q0 -142 -78 -214.5t-215 -72.5q-68 0 -137 20.5t-119 57.5l82 117q70 -63 165 -63q70 0 105.5 37t35.5 102v30h-3
q-51 -66 -151 -66q-110 0 -174 73.5t-64 182.5q0 108 64.5 184.5t172.5 76.5q107 0 159 -78h2v64h155z" />
    <glyph glyph-name="Ngrave" unicode="&#x1f8;" horiz-adv-x="790" 
d="M480 783h-124l-146 144h166zM717 0h-194l-285 463h-3l4 -463h-166v708h195l284 -462h3l-4 462h166v-708z" />
    <glyph glyph-name="ngrave" unicode="&#x1f9;" horiz-adv-x="616" 
d="M395 587h-124l-146 144h166zM556 0h-165v272q0 105 -74 105q-42 0 -65 -30.5t-23 -76.5v-270h-165v498h159v-69h2q20 35 59.5 59t89.5 24q93 0 137.5 -59.5t44.5 -144.5v-308z" />
    <glyph glyph-name="Aringacute" unicode="&#x1fa;" horiz-adv-x="729" 
d="M499 1216l-146 -144h-124l104 144h166zM423 890q0 25 -17 41.5t-42 16.5q-26 0 -42.5 -17t-16.5 -42q0 -24 17 -40.5t42 -16.5t42 16.5t17 41.5zM473 890q0 -46 -31.5 -76.5t-77.5 -30.5q-45 0 -77 30.5t-32 75.5q0 47 31.5 77.5t77.5 30.5q45 0 77 -31t32 -76zM451 276
l-88 243l-90 -243h178zM743 0h-190l-55 139h-274l-52 -139h-186l297 708h166z" />
    <glyph glyph-name="aringacute" unicode="&#x1fb;" horiz-adv-x="566" 
d="M405 1022l-146 -144h-124l104 144h166zM329 696q0 25 -17 41.5t-42 16.5q-26 0 -42.5 -17t-16.5 -42q0 -24 17 -40.5t42 -16.5t42 16.5t17 41.5zM379 696q0 -46 -31.5 -76.5t-77.5 -30.5q-45 0 -77 30.5t-32 75.5q0 47 31.5 77.5t77.5 30.5q45 0 77 -31t32 -76zM140 341
l-83 89q88 84 222 84q123 0 176 -62.5t53 -200.5v-251h-150v53h-3q-18 -30 -56.5 -47.5t-84.5 -17.5q-71 0 -126 38t-55 118q0 168 320 168v8q0 35 -25 53.5t-65 18.5q-67 0 -123 -51zM358 200v17h-21q-153 0 -153 -68q0 -26 21 -38.5t50 -12.5q50 0 76.5 27t26.5 75z" />
    <glyph glyph-name="AEacute" unicode="&#x1fc;" horiz-adv-x="1033" 
d="M849 927l-146 -144h-124l104 144h166zM514 291v272h-10l-153 -272h163zM993 0h-479v153h-231l-88 -153h-199l414 708h565v-145h-298v-133h281v-137h-281v-147h316v-146z" />
    <glyph glyph-name="aeacute" unicode="&#x1fd;" horiz-adv-x="899" 
d="M622 733l-146 -144h-124l104 144h166zM727 162l113 -72q-73 -106 -226 -106q-125 0 -187 90q-52 -86 -202 -86q-75 0 -133.5 39t-58.5 117q0 50 26 83.5t74.5 49.5t99.5 22t120 6v7q0 80 -89 80q-68 0 -124 -51l-82 89q86 84 221 84q110 0 161 -73q61 73 171 73
q112 0 181 -72.5t69 -198.5q0 -15 -2 -39h-360q5 -41 38.5 -67.5t79.5 -26.5q75 0 110 52zM498 306h211q0 41 -25.5 68t-72.5 27t-79 -27.5t-34 -67.5zM358 191v16h-21q-78 0 -115.5 -12t-37.5 -46q0 -26 21 -38.5t50 -12.5q50 0 76.5 25t26.5 68z" />
    <glyph glyph-name="Oslashacute" unicode="&#x1fe;" horiz-adv-x="851" 
d="M600 984l-146 -144h-124l104 144h166zM214 355q0 -74 31 -120l290 315q-41 29 -110 29q-96 0 -153.5 -64t-57.5 -160zM635 356q0 81 -38 130l-292 -318q46 -37 119 -37q94 0 152.5 64t58.5 161zM40 356q0 168 108.5 269t276.5 101q127 0 219 -58l87 97l67 -59l-86 -93
q99 -101 99 -257q0 -165 -110 -269.5t-277 -104.5h-5q-134 0 -224 69l-89 -95l-67 57l89 97q-88 94 -88 246z" />
    <glyph glyph-name="oslashacute" unicode="&#x1ff;" horiz-adv-x="632" 
d="M490 757l-146 -144h-124l104 144h166zM436 248q0 36 -13 58l-167 -168q23 -20 61 -20q56 0 87.5 38t31.5 92zM206 197l166 168q-26 19 -59 19q-55 0 -88 -38.5t-33 -91.5q0 -37 14 -57zM607 480l-70 -69q55 -64 55 -161q0 -118 -80 -192t-197 -74q-92 0 -157 47l-75 -74
l-59 58l72 71q-57 65 -57 164q0 118 79.5 191.5t196.5 73.5q95 0 160 -49l72 72z" />
    <glyph glyph-name="Adblgrave" unicode="&#x200;" horiz-adv-x="729" 
d="M331 783h-124l-146 144h166zM568 783h-124l-146 144h166zM451 276l-88 243l-90 -243h178zM743 0h-190l-55 139h-274l-52 -139h-186l297 708h166z" />
    <glyph glyph-name="adblgrave" unicode="&#x201;" horiz-adv-x="566" 
d="M247 589h-124l-146 144h166zM484 589h-124l-146 144h166zM140 341l-83 89q88 84 222 84q123 0 176 -62.5t53 -200.5v-251h-150v53h-3q-18 -30 -56.5 -47.5t-84.5 -17.5q-71 0 -126 38t-55 118q0 168 320 168v8q0 35 -25 53.5t-65 18.5q-67 0 -123 -51zM358 200v17h-21
q-153 0 -153 -68q0 -26 21 -38.5t50 -12.5q50 0 76.5 27t26.5 75z" />
    <glyph glyph-name="Ainvertedbreve" unicode="&#x202;" horiz-adv-x="729" 
d="M538 783h-84q-6 32 -28.5 43.5t-61.5 11.5q-35 0 -58 -11q-26 -15 -32 -44h-84q6 75 52.5 109.5t120.5 34.5q75 0 122 -35t53 -109zM451 276l-88 243l-90 -243h178zM743 0h-190l-55 139h-274l-52 -139h-186l297 708h166z" />
    <glyph glyph-name="ainvertedbreve" unicode="&#x203;" horiz-adv-x="566" 
d="M444 589h-84q-6 32 -28.5 43.5t-61.5 11.5q-35 0 -58 -11q-26 -15 -32 -44h-84q6 75 52.5 109.5t120.5 34.5q75 0 122 -35t53 -109zM140 341l-83 89q88 84 222 84q123 0 176 -62.5t53 -200.5v-251h-150v53h-3q-18 -30 -56.5 -47.5t-84.5 -17.5q-71 0 -126 38t-55 118
q0 168 320 168v8q0 35 -25 53.5t-65 18.5q-67 0 -123 -51zM358 200v17h-21q-153 0 -153 -68q0 -26 21 -38.5t50 -12.5q50 0 76.5 27t26.5 75z" />
    <glyph glyph-name="Edblgrave" unicode="&#x204;" horiz-adv-x="607" 
d="M267 783h-124l-146 144h166zM504 783h-124l-146 144h166zM567 0h-494v708h476v-145h-311v-133h294v-137h-294v-147h329v-146z" />
    <glyph glyph-name="edblgrave" unicode="&#x205;" horiz-adv-x="596" 
d="M255 589h-124l-146 144h166zM492 589h-124l-146 144h166zM558 243q0 -27 -1 -39h-361q4 -40 39 -67t80 -27q71 0 110 52l114 -72q-73 -106 -226 -106q-117 0 -195.5 70.5t-78.5 192.5q0 120 76.5 193.5t192.5 73.5q112 0 181 -72.5t69 -198.5zM196 306h211q0 41 -25.5 68
t-72.5 27t-79 -27.5t-34 -67.5z" />
    <glyph glyph-name="Einvertedbreve" unicode="&#x206;" horiz-adv-x="607" 
d="M494 783h-84q-6 32 -28.5 43.5t-61.5 11.5q-35 0 -58 -11q-26 -15 -32 -44h-84q6 75 52.5 109.5t120.5 34.5q75 0 122 -35t53 -109zM567 0h-494v708h476v-145h-311v-133h294v-137h-294v-147h329v-146z" />
    <glyph glyph-name="einvertedbreve" unicode="&#x207;" horiz-adv-x="596" 
d="M472 589h-84q-6 32 -28.5 43.5t-61.5 11.5q-35 0 -58 -11q-26 -15 -32 -44h-84q6 75 52.5 109.5t120.5 34.5q75 0 122 -35t53 -109zM558 243q0 -27 -1 -39h-361q4 -40 39 -67t80 -27q71 0 110 52l114 -72q-73 -106 -226 -106q-117 0 -195.5 70.5t-78.5 192.5
q0 120 76.5 193.5t192.5 73.5q112 0 181 -72.5t69 -198.5zM196 306h211q0 41 -25.5 68t-72.5 27t-79 -27.5t-34 -67.5z" />
    <glyph glyph-name="Idblgrave" unicode="&#x208;" horiz-adv-x="318" 
d="M146 783h-124l-146 144h166zM383 783h-124l-146 144h166zM245 0h-172v708h172v-708z" />
    <glyph glyph-name="idblgrave" unicode="&#x209;" horiz-adv-x="296" 
d="M125 573h-124l-146 144h166zM362 573h-124l-146 144h166zM230 0h-164v498h164v-498z" />
    <glyph glyph-name="Iinvertedbreve" unicode="&#x20a;" horiz-adv-x="318" 
d="M333 783h-84q-6 32 -28.5 43.5t-61.5 11.5q-35 0 -58 -11q-26 -15 -32 -44h-84q6 75 52.5 109.5t120.5 34.5q75 0 122 -35t53 -109zM245 0h-172v708h172v-708z" />
    <glyph glyph-name="iinvertedbreve" unicode="&#x20b;" horiz-adv-x="296" 
d="M322 573h-84q-6 32 -28.5 43.5t-61.5 11.5q-35 0 -58 -11q-26 -15 -32 -44h-84q6 75 52.5 109.5t120.5 34.5q75 0 122 -35t53 -109zM230 0h-164v498h164v-498z" />
    <glyph glyph-name="Odblgrave" unicode="&#x20c;" horiz-adv-x="851" 
d="M392 802h-124l-146 144h166zM629 802h-124l-146 144h166zM628 357q0 94 -57 155t-146 61t-145.5 -61t-56.5 -155q0 -96 56.5 -158t145.5 -62t146 62t57 158zM811 357q0 -167 -109 -271.5t-277 -104.5q-167 0 -276 104.5t-109 271.5q0 168 108.5 269t276.5 101
q169 0 277.5 -101t108.5 -269z" />
    <glyph glyph-name="odblgrave" unicode="&#x20d;" horiz-adv-x="632" 
d="M282 589h-124l-146 144h166zM519 589h-124l-146 144h166zM434 251q0 51 -32.5 89t-86.5 38q-55 0 -86 -37.5t-31 -89.5t31.5 -90.5t86.5 -38.5t86.5 38.5t31.5 90.5zM592 251q0 -119 -80 -193t-197 -74q-116 0 -196 74t-80 193t79.5 191t196.5 72t197 -72t80 -191z" />
    <glyph glyph-name="Oinvertedbreve" unicode="&#x20e;" horiz-adv-x="851" 
d="M599 802h-84q-6 32 -28.5 43.5t-61.5 11.5q-35 0 -58 -11q-26 -15 -32 -44h-84q6 75 52.5 109.5t120.5 34.5q75 0 122 -35t53 -109zM628 357q0 94 -57 155t-146 61t-145.5 -61t-56.5 -155q0 -96 56.5 -158t145.5 -62t146 62t57 158zM811 357q0 -167 -109 -271.5
t-277 -104.5q-167 0 -276 104.5t-109 271.5q0 168 108.5 269t276.5 101q169 0 277.5 -101t108.5 -269z" />
    <glyph glyph-name="oinvertedbreve" unicode="&#x20f;" horiz-adv-x="632" 
d="M489 589h-84q-6 32 -28.5 43.5t-61.5 11.5q-35 0 -58 -11q-26 -15 -32 -44h-84q6 75 52.5 109.5t120.5 34.5q75 0 122 -35t53 -109zM434 251q0 51 -32.5 89t-86.5 38q-55 0 -86 -37.5t-31 -89.5t31.5 -90.5t86.5 -38.5t86.5 38.5t31.5 90.5zM592 251q0 -119 -80 -193
t-197 -74q-116 0 -196 74t-80 193t79.5 191t196.5 72t197 -72t80 -191z" />
    <glyph glyph-name="Rdblgrave" unicode="&#x210;" horiz-adv-x="663" 
d="M269 783h-124l-146 144h166zM506 783h-124l-146 144h166zM445 491q0 79 -114 79h-91v-165h81q124 0 124 86zM652 0h-200l-153 281h-58v-281h-168v708h270q54 0 100 -11t86 -34.5t62.5 -66.5t22.5 -102q0 -71 -38.5 -120.5t-108.5 -70.5z" />
    <glyph glyph-name="rdblgrave" unicode="&#x211;" horiz-adv-x="396" 
d="M176 587h-124l-146 144h166zM413 587h-124l-146 144h166zM394 508l-7 -144q-19 5 -42 5q-59 0 -88 -36.5t-29 -76.5v-256h-164v498h158v-72h2q19 39 54.5 62.5t80.5 23.5q24 0 35 -4z" />
    <glyph glyph-name="Rinvertedbreve" unicode="&#x212;" horiz-adv-x="663" 
d="M466 783h-84q-6 32 -28.5 43.5t-61.5 11.5q-35 0 -58 -11q-26 -15 -32 -44h-84q6 75 52.5 109.5t120.5 34.5q75 0 122 -35t53 -109zM445 491q0 79 -114 79h-91v-165h81q124 0 124 86zM652 0h-200l-153 281h-58v-281h-168v708h270q54 0 100 -11t86 -34.5t62.5 -66.5
t22.5 -102q0 -71 -38.5 -120.5t-108.5 -70.5z" />
    <glyph glyph-name="rinvertedbreve" unicode="&#x213;" horiz-adv-x="396" 
d="M393 587h-84q-6 32 -28.5 43.5t-61.5 11.5q-35 0 -58 -11q-26 -15 -32 -44h-84q6 75 52.5 109.5t120.5 34.5q75 0 122 -35t53 -109zM394 508l-7 -144q-19 5 -42 5q-59 0 -88 -36.5t-29 -76.5v-256h-164v498h158v-72h2q19 39 54.5 62.5t80.5 23.5q24 0 35 -4z" />
    <glyph glyph-name="Udblgrave" unicode="&#x214;" horiz-adv-x="738" 
d="M336 783h-124l-146 144h166zM573 783h-124l-146 144h166zM673 708v-441q0 -128 -83.5 -207t-221.5 -79q-139 0 -220.5 78.5t-81.5 207.5v441h170v-427q0 -63 33 -104.5t100 -41.5q68 0 100.5 41.5t32.5 104.5v427h171z" />
    <glyph glyph-name="udblgrave" unicode="&#x215;" horiz-adv-x="614" 
d="M251 573h-124l-146 144h166zM488 573h-124l-146 144h166zM550 0h-158v69h-2q-19 -35 -59.5 -59t-90.5 -24q-92 0 -136.5 59.5t-44.5 144.5v308h165v-270q0 -106 74 -106q41 0 64.5 31t23.5 76v269h164v-498z" />
    <glyph glyph-name="Uinvertedbreve" unicode="&#x216;" horiz-adv-x="738" 
d="M543 783h-84q-6 32 -28.5 43.5t-61.5 11.5q-35 0 -58 -11q-26 -15 -32 -44h-84q6 75 52.5 109.5t120.5 34.5q75 0 122 -35t53 -109zM673 708v-441q0 -128 -83.5 -207t-221.5 -79q-139 0 -220.5 78.5t-81.5 207.5v441h170v-427q0 -63 33 -104.5t100 -41.5q68 0 100.5 41.5
t32.5 104.5v427h171z" />
    <glyph glyph-name="uinvertedbreve" unicode="&#x217;" horiz-adv-x="614" 
d="M478 573h-84q-6 32 -28.5 43.5t-61.5 11.5q-35 0 -58 -11q-26 -15 -32 -44h-84q6 75 52.5 109.5t120.5 34.5q75 0 122 -35t53 -109zM550 0h-158v69h-2q-19 -35 -59.5 -59t-90.5 -24q-92 0 -136.5 59.5t-44.5 144.5v308h165v-270q0 -106 74 -106q41 0 64.5 31t23.5 76v269
h164v-498z" />
    <glyph glyph-name="Scommaaccent" unicode="&#x218;" horiz-adv-x="591" 
d="M364 -45l-86 -195h-126l67 195h145zM556 639l-109 -115q-21 27 -56.5 44t-69.5 17q-40 0 -69.5 -16.5t-29.5 -54.5q0 -32 24 -47.5t85 -35.5q40 -13 61 -21t56.5 -26.5t54 -38.5t33.5 -53t15 -74q0 -115 -78.5 -175.5t-192.5 -60.5q-77 0 -147.5 27t-117.5 75l112 114
q27 -33 69.5 -54t83.5 -21q43 0 70.5 18.5t27.5 58.5q0 36 -33 56t-114 45q-39 12 -67.5 26.5t-56.5 37.5t-42.5 58t-14.5 81q0 57 24 101t63.5 69.5t87 38.5t99.5 13q62 0 124 -22.5t108 -64.5z" />
    <glyph glyph-name="scommaaccent" unicode="&#x219;" horiz-adv-x="472" 
d="M304 -45l-86 -195h-126l67 195h145zM447 444l-90 -93q-49 45 -104 45q-26 0 -44 -10t-18 -30t19 -29t72 -21q159 -36 159 -152q0 -86 -63 -128t-150 -42q-138 0 -217 77l92 97q51 -56 122 -56q24 0 41.5 10.5t17.5 32.5t-21.5 33t-77.5 24q-145 34 -145 145
q0 82 63 124.5t144 42.5q127 0 200 -70z" />
    <glyph glyph-name="uni021A" unicode="&#x21a;" horiz-adv-x="581" 
d="M365 -45l-86 -195h-126l67 195h145zM576 562h-200v-562h-171v562h-200v146h571v-146z" />
    <glyph glyph-name="uni021B" unicode="&#x21b;" horiz-adv-x="372" 
d="M288 -45l-86 -195h-126l67 195h145zM359 375h-117v-190q0 -36 14 -53t48 -17q29 0 48 8l2 -120q-43 -15 -95 -15q-95 0 -136 46t-41 131v210h-80v123h79v131h161v-131h117v-123z" />
    <glyph glyph-name="Hcaron" unicode="&#x21e;" horiz-adv-x="764" 
d="M579 927l-123 -144h-147l-124 144h130l68 -81l68 81h128zM691 0h-171v296h-276v-296h-171v708h171v-268h276v268h171v-708z" />
    <glyph glyph-name="hcaron" unicode="&#x21f;" horiz-adv-x="617" 
d="M345 975l-123 -144h-147l-124 144h130l68 -81l68 81h128zM557 0h-165v270q0 105 -73 105q-42 0 -65.5 -30t-23.5 -76v-269h-164v756h164v-321h2q19 33 56.5 55t86.5 22q94 0 138 -59.5t44 -144.5v-308z" />
    <glyph glyph-name="Adotaccent" unicode="&#x226;" horiz-adv-x="729" 
d="M454 868q0 -36 -26 -60.5t-64 -24.5t-63.5 24.5t-25.5 60.5t25.5 61t63.5 25t64 -25t26 -61zM451 276l-88 243l-90 -243h178zM743 0h-190l-55 139h-274l-52 -139h-186l297 708h166z" />
    <glyph glyph-name="adotaccent" unicode="&#x227;" horiz-adv-x="566" 
d="M360 674q0 -36 -26 -60.5t-64 -24.5t-63.5 24.5t-25.5 60.5t25.5 61t63.5 25t64 -25t26 -61zM140 341l-83 89q88 84 222 84q123 0 176 -62.5t53 -200.5v-251h-150v53h-3q-18 -30 -56.5 -47.5t-84.5 -17.5q-71 0 -126 38t-55 118q0 168 320 168v8q0 35 -25 53.5t-65 18.5
q-67 0 -123 -51zM358 200v17h-21q-153 0 -153 -68q0 -26 21 -38.5t50 -12.5q50 0 76.5 27t26.5 75z" />
    <glyph glyph-name="Ecedilla" unicode="&#x228;" horiz-adv-x="607" 
d="M453 -142q0 -52 -44.5 -75t-102.5 -23q-67 0 -119 25l27 60q40 -19 84 -19q50 0 50 33q0 29 -47 29q-22 0 -40 -6l-31 29l67 89h-224v708h476v-145h-311v-133h294v-137h-294v-147h329v-146h-188l-47 -60q7 1 18 1q103 0 103 -83z" />
    <glyph glyph-name="ecedilla" unicode="&#x229;" horiz-adv-x="596" 
d="M196 306h211q0 41 -25.5 68t-72.5 27t-79 -27.5t-34 -67.5zM558 243q0 -27 -1 -39h-361q4 -40 39 -67t80 -27q71 0 110 52l114 -72q-63 -90 -185 -104l-44 -62q7 1 18 1q103 0 103 -83q0 -52 -44.5 -75t-102.5 -23q-67 0 -119 25l27 60q40 -19 84 -19q50 0 50 33
q0 29 -47 29q-22 0 -40 -6l-31 29l64 92q-103 13 -168 81t-65 179q0 120 76.5 193.5t192.5 73.5q112 0 181 -72.5t69 -198.5z" />
    <glyph glyph-name="Odieresismacron" unicode="&#x22a;" horiz-adv-x="851" 
d="M593 1040h-336v86h336v-86zM400 884q0 -35 -24.5 -58.5t-59.5 -23.5t-59 24t-24 58q0 33 24.5 57t58.5 24q35 0 59.5 -23.5t24.5 -57.5zM617 884q0 -35 -24.5 -58.5t-58.5 -23.5q-35 0 -59 24t-24 58q0 33 24 57t59 24q34 0 58.5 -23.5t24.5 -57.5zM628 357q0 94 -57 155
t-146 61t-145.5 -61t-56.5 -155q0 -96 56.5 -158t145.5 -62t146 62t57 158zM811 357q0 -167 -109 -271.5t-277 -104.5q-167 0 -276 104.5t-109 271.5q0 168 108.5 269t276.5 101q169 0 277.5 -101t108.5 -269z" />
    <glyph glyph-name="odieresismacron" unicode="&#x22b;" horiz-adv-x="632" 
d="M483 827h-336v86h336v-86zM290 671q0 -35 -24.5 -58.5t-59.5 -23.5t-59 24t-24 58q0 33 24.5 57t58.5 24q35 0 59.5 -23.5t24.5 -57.5zM507 671q0 -35 -24.5 -58.5t-58.5 -23.5q-35 0 -59 24t-24 58q0 33 24 57t59 24q34 0 58.5 -23.5t24.5 -57.5zM434 251q0 51 -32.5 89
t-86.5 38q-55 0 -86 -37.5t-31 -89.5t31.5 -90.5t86.5 -38.5t86.5 38.5t31.5 90.5zM592 251q0 -119 -80 -193t-197 -74q-116 0 -196 74t-80 193t79.5 191t196.5 72t197 -72t80 -191z" />
    <glyph glyph-name="Otildemacron" unicode="&#x22c;" horiz-adv-x="851" 
d="M593 1009h-336v86h336v-86zM540 934h71q-7 -57 -35 -94.5t-78 -37.5q-34 0 -81 21q-36 20 -63 20q-29 0 -42 -40h-72q7 57 34.5 93.5t78.5 36.5q35 0 80 -20q43 -20 65 -20q30 0 42 41zM628 357q0 94 -57 155t-146 61t-145.5 -61t-56.5 -155q0 -96 56.5 -158t145.5 -62
t146 62t57 158zM811 357q0 -167 -109 -271.5t-277 -104.5q-167 0 -276 104.5t-109 271.5q0 168 108.5 269t276.5 101q169 0 277.5 -101t108.5 -269z" />
    <glyph glyph-name="otildemacron" unicode="&#x22d;" horiz-adv-x="632" 
d="M483 796h-336v86h336v-86zM430 721h71q-7 -57 -35 -94.5t-78 -37.5q-34 0 -81 21q-36 20 -63 20q-29 0 -42 -40h-72q7 57 34.5 93.5t78.5 36.5q35 0 80 -20q43 -20 65 -20q30 0 42 41zM434 251q0 51 -32.5 89t-86.5 38q-55 0 -86 -37.5t-31 -89.5t31.5 -90.5t86.5 -38.5
t86.5 38.5t31.5 90.5zM592 251q0 -119 -80 -193t-197 -74q-116 0 -196 74t-80 193t79.5 191t196.5 72t197 -72t80 -191z" />
    <glyph glyph-name="Odotaccent" unicode="&#x22e;" horiz-adv-x="851" 
d="M515 887q0 -36 -26 -60.5t-64 -24.5t-63.5 24.5t-25.5 60.5t25.5 61t63.5 25t64 -25t26 -61zM628 357q0 94 -57 155t-146 61t-145.5 -61t-56.5 -155q0 -96 56.5 -158t145.5 -62t146 62t57 158zM811 357q0 -167 -109 -271.5t-277 -104.5q-167 0 -276 104.5t-109 271.5
q0 168 108.5 269t276.5 101q169 0 277.5 -101t108.5 -269z" />
    <glyph glyph-name="odotaccent" unicode="&#x22f;" horiz-adv-x="632" 
d="M405 674q0 -36 -26 -60.5t-64 -24.5t-63.5 24.5t-25.5 60.5t25.5 61t63.5 25t64 -25t26 -61zM434 251q0 51 -32.5 89t-86.5 38q-55 0 -86 -37.5t-31 -89.5t31.5 -90.5t86.5 -38.5t86.5 38.5t31.5 90.5zM592 251q0 -119 -80 -193t-197 -74q-116 0 -196 74t-80 193
t79.5 191t196.5 72t197 -72t80 -191z" />
    <glyph glyph-name="Odotaccentmacron" unicode="&#x230;" horiz-adv-x="851" 
d="M593 1048h-336v86h336v-86zM515 887q0 -36 -26 -60.5t-64 -24.5t-63.5 24.5t-25.5 60.5t25.5 61t63.5 25t64 -25t26 -61zM628 357q0 94 -57 155t-146 61t-145.5 -61t-56.5 -155q0 -96 56.5 -158t145.5 -62t146 62t57 158zM811 357q0 -167 -109 -271.5t-277 -104.5
q-167 0 -276 104.5t-109 271.5q0 168 108.5 269t276.5 101q169 0 277.5 -101t108.5 -269z" />
    <glyph glyph-name="odotaccentmacron" unicode="&#x231;" horiz-adv-x="632" 
d="M483 835h-336v86h336v-86zM405 674q0 -36 -26 -60.5t-64 -24.5t-63.5 24.5t-25.5 60.5t25.5 61t63.5 25t64 -25t26 -61zM434 251q0 51 -32.5 89t-86.5 38q-55 0 -86 -37.5t-31 -89.5t31.5 -90.5t86.5 -38.5t86.5 38.5t31.5 90.5zM592 251q0 -119 -80 -193t-197 -74
q-116 0 -196 74t-80 193t79.5 191t196.5 72t197 -72t80 -191z" />
    <glyph glyph-name="Ymacron" unicode="&#x232;" horiz-adv-x="669" 
d="M502 783h-336v86h336v-86zM689 708l-272 -408v-300h-171v300l-266 408h207l151 -262l151 262h200z" />
    <glyph glyph-name="ymacron" unicode="&#x233;" horiz-adv-x="567" 
d="M451 573h-336v86h336v-86zM568 498l-223 -573q-32 -84 -81 -124.5t-138 -40.5q-52 0 -90 11l18 138q29 -9 53 -9q36 0 53 15.5t31 51.5l16 41l-208 490h182l111 -320h3l99 320h174z" />
    <glyph glyph-name="dotlessj" unicode="&#x237;" horiz-adv-x="299" 
d="M233 498v-511q0 -50 -9 -88.5t-30 -71t-61.5 -50t-98.5 -17.5q-41 0 -71 8l11 137q15 -5 35 -5q34 0 47 22.5t13 64.5v511h164z" />
    <glyph glyph-name="commaturnedmod" unicode="&#x2bb;" 
d="M259 708l-72 -271h-145l91 271h126z" />
    <glyph glyph-name="afii57929" unicode="&#x2bc;" 
d="M258 708l-91 -271h-126l72 271h145z" />
    <glyph glyph-name="circumflex" unicode="&#x2c6;" 
d="M347 572h-130l-68 81l-68 -81h-128l124 144h148z" />
    <glyph glyph-name="caron" unicode="&#x2c7;" 
d="M347 716l-123 -144h-147l-124 144h130l68 -81l68 81h128z" />
    <glyph glyph-name="uni02C9" unicode="&#x2c9;" 
d="M318 793h-336v86h336v-86z" />
    <glyph glyph-name="breve" unicode="&#x2d8;" 
d="M240 716h84q-6 -74 -53 -109t-122 -35q-74 0 -120.5 34.5t-52.5 109.5h84q6 -29 32 -44q23 -11 58 -11q39 0 61.5 11.5t28.5 43.5z" />
    <glyph glyph-name="dotaccent" unicode="&#x2d9;" 
d="M240 657q0 -36 -26 -60.5t-64 -24.5t-63.5 24.5t-25.5 60.5t25.5 61t63.5 25t64 -25t26 -61z" />
    <glyph glyph-name="ring" unicode="&#x2da;" 
d="M209 664q0 25 -17 41.5t-42 16.5q-26 0 -42.5 -17t-16.5 -42q0 -24 17 -40.5t42 -16.5t42 16.5t17 41.5zM259 664q0 -46 -31.5 -76.5t-77.5 -30.5q-45 0 -77 30.5t-32 75.5q0 47 31.5 77.5t77.5 30.5q45 0 77 -31t32 -76z" />
    <glyph glyph-name="ogonek" unicode="&#x2db;" 
d="M208 -134l32 -62q-54 -40 -115 -40q-46 0 -79.5 23t-33.5 68q0 70 108 149h91q-95 -75 -95 -122q0 -16 10.5 -26t26.5 -10q27 0 55 20z" />
    <glyph glyph-name="tilde" unicode="&#x2dc;" 
d="M264 708h71q-7 -57 -35 -94.5t-78 -37.5q-34 0 -81 21q-36 20 -63 20q-29 0 -42 -40h-72q7 57 34.5 93.5t78.5 36.5q35 0 80 -20q43 -20 65 -20q30 0 42 41z" />
    <glyph glyph-name="hungarumlaut" unicode="&#x2dd;" 
d="M236 716l-146 -144h-124l104 144h166zM456 716l-146 -144h-124l104 144h166z" />
    <glyph glyph-name="uni02EE" unicode="&#x2ee;" horiz-adv-x="507" 
d="M256 708l-89 -271h-126l72 271h143zM465 708l-90 -271h-127l74 271h143z" />
    <glyph glyph-name="gravecmb" unicode="&#x300;" horiz-adv-x="0" 
d="M-30 572h-124l-146 144h166z" />
    <glyph glyph-name="acutecmb" unicode="&#x301;" horiz-adv-x="0" 
d="M-30 716l-146 -144h-124l104 144h166z" />
    <glyph glyph-name="circumflexcmb" unicode="&#x302;" horiz-adv-x="0" 
d="M94 572h-130l-68 81l-68 -81h-128l124 144h148z" />
    <glyph glyph-name="tildecmb" unicode="&#x303;" horiz-adv-x="0" 
d="M0 708h71q-7 -57 -35 -94.5t-78 -37.5q-34 0 -81 21q-36 20 -63 20q-29 0 -42 -40h-72q7 57 34.5 93.5t78.5 36.5q35 0 80 -20q43 -20 65 -20q30 0 42 41z" />
    <glyph glyph-name="macroncmb" unicode="&#x304;" horiz-adv-x="0" 
d="M36 601h-336v86h336v-86z" />
    <glyph glyph-name="brevecmb" unicode="&#x306;" horiz-adv-x="0" 
d="M-36 716h84q-6 -74 -53 -109t-122 -35q-74 0 -120.5 34.5t-52.5 109.5h84q6 -29 32 -44q23 -11 58 -11q39 0 61.5 11.5t28.5 43.5z" />
    <glyph glyph-name="dotaccentcmb" unicode="&#x307;" horiz-adv-x="0" 
d="M-121 657q0 -36 -26 -60.5t-64 -24.5t-63.5 24.5t-25.5 60.5t25.5 61t63.5 25t64 -25t26 -61z" />
    <glyph glyph-name="dieresiscmb" unicode="&#x308;" horiz-adv-x="0" 
d="M-133 658q0 -35 -24.5 -58.5t-59.5 -23.5t-59 24t-24 58q0 33 24.5 57t58.5 24q35 0 59.5 -23.5t24.5 -57.5zM84 658q0 -35 -24.5 -58.5t-58.5 -23.5q-35 0 -59 24t-24 58q0 33 24 57t59 24q34 0 58.5 -23.5t24.5 -57.5z" />
    <glyph glyph-name="hookabovecomb" unicode="&#x309;" 
d="M199 562h-92q0 27 10.5 43t37.5 32q29 17 29 39q0 30 -32 30q-36 0 -41 -48l-98 11q16 109 141 109q61 0 95.5 -27.5t34.5 -68.5q0 -54 -56 -81q-29 -14 -29 -39z" />
    <glyph glyph-name="ringcmb" unicode="&#x30a;" horiz-adv-x="0" 
d="M-132 664q0 25 -17 41.5t-42 16.5q-26 0 -42.5 -17t-16.5 -42q0 -24 17 -40.5t42 -16.5t42 16.5t17 41.5zM-82 664q0 -46 -31.5 -76.5t-77.5 -30.5q-45 0 -77 30.5t-32 75.5q0 47 31.5 77.5t77.5 30.5q45 0 77 -31t32 -76z" />
    <glyph glyph-name="hungarumlautcmb" unicode="&#x30b;" horiz-adv-x="0" 
d="M-30 716l-146 -144h-124l104 144h166zM190 716l-146 -144h-124l104 144h166z" />
    <glyph glyph-name="caroncmb" unicode="&#x30c;" horiz-adv-x="0" 
d="M94 716l-123 -144h-147l-124 144h130l68 -81l68 81h128z" />
    <glyph glyph-name="doublegravecmb" unicode="&#x30f;" horiz-adv-x="0" 
d="M-267 572h-124l-146 144h166zM-30 572h-124l-146 144h166z" />
    <glyph glyph-name="invertedbrevecmb" unicode="&#x311;" horiz-adv-x="0" 
d="M0 572h-84q-6 32 -28.5 43.5t-61.5 11.5q-35 0 -58 -11q-26 -15 -32 -44h-84q6 75 52.5 109.5t120.5 34.5q75 0 122 -35t53 -109z" />
    <glyph glyph-name="horncmb" unicode="&#x31b;" horiz-adv-x="0" 
d="M-241 485q66 0 66 75q0 38 -17 63l124 30q19 -40 19 -91q0 -73 -38.5 -118t-106.5 -45q-61 0 -104 28q-20 13 -33 28l2 73q9 -8 27 -22q31 -21 61 -21z" />
    <glyph glyph-name="dotbelowcmb" unicode="&#x323;" horiz-adv-x="0" 
d="M-98 -168q0 -42 -29 -70t-71 -28t-72 28t-30 69q0 40 30 69.5t72 29.5t71 -28t29 -70z" />
    <glyph glyph-name="dieresisbelowcmb" unicode="&#x324;" horiz-adv-x="0" 
d="M-133 -151q0 -35 -24.5 -58.5t-59.5 -23.5t-59 24t-24 58q0 33 24.5 57t58.5 24q35 0 59.5 -23.5t24.5 -57.5zM84 -151q0 -35 -24.5 -58.5t-58.5 -23.5q-35 0 -59 24t-24 58q0 33 24 57t59 24q34 0 58.5 -23.5t24.5 -57.5z" />
    <glyph glyph-name="ringbelowcmb" unicode="&#x325;" horiz-adv-x="0" 
d="M-132 -177q0 25 -17 41.5t-42 16.5q-26 0 -42.5 -17t-16.5 -42q0 -24 17 -40.5t42 -16.5t42 16.5t17 41.5zM-82 -177q0 -46 -31.5 -76.5t-77.5 -30.5q-45 0 -77 30.5t-32 75.5q0 47 31.5 77.5t77.5 30.5q45 0 77 -31t32 -76z" />
    <glyph glyph-name="commabelowcmb" unicode="&#x326;" horiz-adv-x="0" 
d="M-68 -70l-97 -284h-135l75 284h157z" />
    <glyph glyph-name="cedillacmb" unicode="&#x327;" horiz-adv-x="0" 
d="M-34 -142q0 -52 -44.5 -75t-102.5 -23q-67 0 -119 25l27 60q40 -19 84 -19q50 0 50 33q0 29 -47 29q-22 0 -40 -6l-31 29l67 89h82l-47 -60q7 1 18 1q103 0 103 -83z" />
    <glyph glyph-name="ogonekcmb" unicode="&#x328;" horiz-adv-x="0" 
d="M-104 -134l32 -62q-54 -40 -115 -40q-46 0 -79.5 23t-33.5 68q0 70 108 149h91q-95 -75 -95 -122q0 -16 10.5 -26t26.5 -10q27 0 55 20z" />
    <glyph glyph-name="circumflexbelowcmb" unicode="&#x32d;" horiz-adv-x="0" 
d="M94 -214h-130l-68 81l-68 -81h-128l124 144h148z" />
    <glyph glyph-name="brevebelowcmb" unicode="&#x32e;" horiz-adv-x="0" 
d="M-36 -70h84q-6 -74 -53 -109t-122 -35q-74 0 -120.5 34.5t-52.5 109.5h84q6 -29 32 -44q23 -11 58 -11q39 0 61.5 11.5t28.5 43.5z" />
    <glyph glyph-name="tildebelowcmb" unicode="&#x330;" horiz-adv-x="0" 
d="M0 -70h71q-7 -57 -35 -94.5t-78 -37.5q-34 0 -81 21q-36 20 -63 20q-29 0 -42 -40h-72q7 57 34.5 93.5t78.5 36.5q35 0 80 -20q43 -20 65 -20q30 0 42 41z" />
    <glyph glyph-name="macronbelowcmb" unicode="&#x331;" horiz-adv-x="0" 
d="M36 -156h-336v86h336v-86z" />
    <glyph glyph-name="gravetonecmb" unicode="&#x340;" horiz-adv-x="0" 
d="M-30 572h-124l-146 144h166z" />
    <glyph glyph-name="acutetonecmb" unicode="&#x341;" horiz-adv-x="0" 
d="M-30 716l-146 -144h-124l104 144h166z" />
    <glyph glyph-name="dialytikatonoscmb" unicode="&#x344;" horiz-adv-x="0" 
d="M27 958l-146 -144h-124l104 144h166zM-133 658q0 -35 -24.5 -58.5t-59.5 -23.5t-59 24t-24 58q0 33 24.5 57t58.5 24q35 0 59.5 -23.5t24.5 -57.5zM84 658q0 -35 -24.5 -58.5t-58.5 -23.5q-35 0 -59 24t-24 58q0 33 24 57t59 24q34 0 58.5 -23.5t24.5 -57.5z" />
    <glyph glyph-name="combininggraphemejoiner" unicode="&#x34f;" horiz-adv-x="500" 
 />
    <glyph glyph-name="uni037E" unicode="&#x37e;" horiz-adv-x="332" 
d="M265 160l-97 -284h-138l75 284h160zM264 410q0 -40 -28.5 -67.5t-68.5 -27.5t-69 27.5t-29 66.5q0 40 28.5 68t69.5 28q39 0 68 -28t29 -67z" />
    <glyph glyph-name="u0384" unicode="&#x384;" horiz-adv-x="260" 
d="M77 551l-11 223h127l-10 -223h-106z" />
    <glyph glyph-name="u0385" unicode="&#x385;" horiz-adv-x="240" 
d="M70 552l-11 223h107l-10 -223h-86zM212 613q0 25 18.5 44t44.5 19t44.5 -19t18.5 -44t-18.5 -44t-44.5 -19t-44.5 19t-18.5 44zM-118 613q0 25 18.5 44t44.5 19t44.5 -19t18.5 -44t-18.5 -44t-44.5 -19t-44.5 19t-18.5 44z" />
    <glyph glyph-name="u0386" unicode="&#x386;" horiz-adv-x="753" 
d="M57 551l-11 223h127l-10 -223h-106zM475 276l-88 243l-90 -243h178zM767 0h-190l-55 139h-274l-52 -139h-186l297 708h166z" />
    <glyph glyph-name="anoteleia" unicode="&#x387;" 
d="M251 291q0 -42 -29 -70t-71 -28t-72 28t-30 69q0 40 30 69.5t72 29.5t71 -28t29 -70z" />
    <glyph glyph-name="u0388" unicode="&#x388;" horiz-adv-x="716" 
d="M11 551l-11 223h127l-10 -223h-106zM676 0h-494v708h476v-145h-311v-133h294v-137h-294v-147h329v-146z" />
    <glyph glyph-name="u0389" unicode="&#x389;" horiz-adv-x="879" 
d="M11 551l-11 223h127l-10 -223h-106zM806 0h-171v296h-276v-296h-171v708h171v-268h276v268h171v-708z" />
    <glyph glyph-name="u038A" unicode="&#x38a;" horiz-adv-x="433" 
d="M11 551l-11 223h127l-10 -223h-106zM360 0h-172v708h172v-708z" />
    <glyph glyph-name="u038C" unicode="&#x38c;" horiz-adv-x="953" 
d="M11 551l-11 223h127l-10 -223h-106zM730 357q0 94 -57 155t-146 61t-145.5 -61t-56.5 -155q0 -96 56.5 -158t145.5 -62t146 62t57 158zM913 357q0 -167 -109 -271.5t-277 -104.5q-167 0 -276 104.5t-109 271.5q0 168 108.5 269t276.5 101q169 0 277.5 -101t108.5 -269z
" />
    <glyph glyph-name="u038E" unicode="&#x38e;" horiz-adv-x="862" 
d="M11 551l-11 223h127l-10 -223h-106zM882 708l-272 -408v-300h-171v300l-266 408h207l151 -262l151 262h200z" />
    <glyph glyph-name="u038F" unicode="&#x38f;" horiz-adv-x="909" 
d="M10 484l-11 223h127l-10 -223h-106zM864 0h-312v196q71 23 107.5 69t36.5 126q0 89 -48.5 137.5t-136.5 48.5t-142.5 -50t-54.5 -136q0 -80 45 -132.5t110 -61.5v-197h-313v125h179v7q-73 11 -138.5 87.5t-65.5 180.5q0 148 109.5 239.5t272.5 91.5q157 0 261.5 -94
t104.5 -237q0 -101 -69.5 -178.5t-136.5 -89.5v-7h191v-125z" />
    <glyph glyph-name="u0390" unicode="&#x390;" horiz-adv-x="496" 
d="M208 572l-11 223h107l-10 -223h-86zM350 633q0 25 18.5 44t44.5 19t44.5 -19t18.5 -44t-18.5 -44t-44.5 -19t-44.5 19t-18.5 44zM20 633q0 25 18.5 44t44.5 19t44.5 -19t18.5 -44t-18.5 -44t-44.5 -19t-44.5 19t-18.5 44zM328 0h-164v498h164v-498z" />
    <glyph glyph-name="u0391" unicode="&#x391;" horiz-adv-x="729" 
d="M451 276l-88 243l-90 -243h178zM743 0h-190l-55 139h-274l-52 -139h-186l297 708h166z" />
    <glyph glyph-name="u0392" unicode="&#x392;" horiz-adv-x="665" 
d="M454 222q0 78 -121 78h-95v-162h96q120 0 120 84zM431 503q0 69 -109 69h-84v-146h92q101 0 101 77zM625 206q0 -74 -40.5 -122t-98.5 -66t-131 -18h-282v708h282q45 0 84.5 -8.5t76.5 -28t58.5 -57t21.5 -88.5q0 -114 -116 -153v-2q63 -10 104 -54t41 -111z" />
    <glyph glyph-name="u0393" unicode="&#x393;" horiz-adv-x="524" 
d="M73 708h446v-149h-274v-559h-172v708z" />
    <glyph glyph-name="u0394" unicode="&#x394;" horiz-adv-x="790" 
d="M563 145l-171 379l-174 -379h345zM742 0h-694v147l265 561h166l263 -559v-149z" />
    <glyph glyph-name="u0395" unicode="&#x395;" horiz-adv-x="607" 
d="M567 0h-494v708h476v-145h-311v-133h294v-137h-294v-147h329v-146z" />
    <glyph glyph-name="u0396" unicode="&#x396;" horiz-adv-x="635" 
d="M597 0h-558v148l337 415h-329v145h543v-137l-345 -423h352v-148z" />
    <glyph glyph-name="u0397" unicode="&#x397;" horiz-adv-x="764" 
d="M691 0h-171v296h-276v-296h-171v708h171v-268h276v268h171v-708z" />
    <glyph glyph-name="u0398" unicode="&#x398;" horiz-adv-x="851" 
d="M425 573q-74 0 -125.5 -42.5t-69.5 -112.5h390q-18 70 -69.5 112.5t-125.5 42.5zM425 137q75 0 128 44.5t69 119.5h-394q16 -75 69 -119.5t128 -44.5zM811 357q0 -167 -109 -271.5t-277 -104.5q-167 0 -276 104.5t-109 271.5q0 168 108.5 269t276.5 101q169 0 277.5 -101
t108.5 -269z" />
    <glyph glyph-name="u0399" unicode="&#x399;" horiz-adv-x="318" 
d="M245 0h-172v708h172v-708z" />
    <glyph glyph-name="u039A" unicode="&#x39a;" horiz-adv-x="711" 
d="M729 0h-223l-263 326h-2v-326h-168v708h168v-288h3l253 288h214l-305 -326z" />
    <glyph glyph-name="u039B" unicode="&#x39b;" horiz-adv-x="729" 
d="M363 472l-181 -472h-183l275 708h175l281 -708h-187z" />
    <glyph glyph-name="u039C" unicode="&#x39c;" horiz-adv-x="955" 
d="M882 0h-167l4 501h-3l-184 -501h-120l-179 501h-3l4 -501h-161v708h243l161 -454h4l154 454h247v-708z" />
    <glyph glyph-name="u039D" unicode="&#x39d;" horiz-adv-x="790" 
d="M717 0h-194l-285 463h-3l4 -463h-166v708h195l284 -462h3l-4 462h166v-708z" />
    <glyph glyph-name="u039E" unicode="&#x39e;" horiz-adv-x="594" 
d="M40 144h514v-144h-514v144zM86 423h417v-130h-417v130zM40 708h512v-144h-512v144z" />
    <glyph glyph-name="u039F" unicode="&#x39f;" horiz-adv-x="851" 
d="M628 357q0 94 -57 155t-146 61t-145.5 -61t-56.5 -155q0 -96 56.5 -158t145.5 -62t146 62t57 158zM811 357q0 -167 -109 -271.5t-277 -104.5q-167 0 -276 104.5t-109 271.5q0 168 108.5 269t276.5 101q169 0 277.5 -101t108.5 -269z" />
    <glyph glyph-name="u03A0" unicode="&#x3a0;" horiz-adv-x="746" 
d="M73 708h600v-708h-170v564h-260v-564h-170v708z" />
    <glyph glyph-name="u03A1" unicode="&#x3a1;" horiz-adv-x="640" 
d="M439 489q0 81 -120 81h-75v-167h72q123 0 123 86zM610 490q0 -78 -40.5 -130t-101 -72.5t-139.5 -20.5h-85v-267h-171v708h260q126 0 201.5 -51.5t75.5 -166.5z" />
    <glyph glyph-name="u03A3" unicode="&#x3a3;" horiz-adv-x="614" 
d="M574 0h-514v120l226 233v6l-226 228v121h509v-139h-298l216 -204v-15l-196 -211h283v-139z" />
    <glyph glyph-name="u03A4" unicode="&#x3a4;" horiz-adv-x="581" 
d="M576 562h-200v-562h-171v562h-200v146h571v-146z" />
    <glyph glyph-name="u03A5" unicode="&#x3a5;" horiz-adv-x="669" 
d="M689 708l-272 -408v-300h-171v300l-266 408h207l151 -262l151 262h200z" />
    <glyph glyph-name="u03A6" unicode="&#x3a6;" horiz-adv-x="950" 
d="M727 354q0 75 -43.5 128.5t-127.5 71.5v-400q84 17 127.5 71t43.5 129zM223 354q0 -76 44 -129.5t129 -71.5v401q-85 -18 -129 -71t-44 -129zM556 772v-62q157 -22 255.5 -118t98.5 -238q0 -141 -99 -239t-255 -119v-67h-160v67q-158 21 -257 118t-99 240q0 142 99 238.5
t257 117.5v62h160z" />
    <glyph glyph-name="u03A7" unicode="&#x3a7;" horiz-adv-x="703" 
d="M711 0h-211l-155 250l-149 -250h-204l248 374l-228 334h206l132 -220l130 220h199l-224 -334z" />
    <glyph glyph-name="u03A8" unicode="&#x3a8;" horiz-adv-x="888" 
d="M529 708v-439h15q60 0 88.5 37.5t28.5 99.5v302h170v-336q0 -123 -79.5 -189.5t-202.5 -66.5h-20v-116h-170v116h-20q-122 0 -202 66.5t-80 189.5v336h170v-302q0 -62 28.5 -99.5t88.5 -37.5h15v439h170z" />
    <glyph glyph-name="u03A9" unicode="&#x3a9;" horiz-adv-x="808" 
d="M763 0h-312v196q71 23 107.5 69t36.5 126q0 89 -48.5 137.5t-136.5 48.5t-142.5 -50t-54.5 -136q0 -80 45 -132.5t110 -61.5v-197h-313v125h179v7q-73 11 -138.5 87.5t-65.5 180.5q0 148 109.5 239.5t272.5 91.5q157 0 261.5 -94t104.5 -237q0 -101 -69.5 -178.5
t-136.5 -89.5v-7h191v-125z" />
    <glyph glyph-name="u03AA" unicode="&#x3aa;" horiz-adv-x="318" 
d="M134 850q0 -35 -24.5 -58.5t-59.5 -23.5t-59 24t-24 58q0 33 24.5 57t58.5 24q35 0 59.5 -23.5t24.5 -57.5zM351 850q0 -35 -24.5 -58.5t-58.5 -23.5q-35 0 -59 24t-24 58q0 33 24 57t59 24q34 0 58.5 -23.5t24.5 -57.5zM245 0h-172v708h172v-708z" />
    <glyph glyph-name="u03AB" unicode="&#x3ab;" horiz-adv-x="669" 
d="M313 850q0 -35 -24.5 -58.5t-59.5 -23.5t-59 24t-24 58q0 33 24.5 57t58.5 24q35 0 59.5 -23.5t24.5 -57.5zM530 850q0 -35 -24.5 -58.5t-58.5 -23.5q-35 0 -59 24t-24 58q0 33 24 57t59 24q34 0 58.5 -23.5t24.5 -57.5zM689 708l-272 -408v-300h-171v300l-266 408h207
l151 -262l151 262h200z" />
    <glyph glyph-name="u03AC" unicode="&#x3ac;" horiz-adv-x="644" 
d="M277 551l-11 223h127l-10 -223h-106zM191 251q0 -52 31.5 -90.5t86.5 -38.5q53 0 86.5 38.5t33.5 89.5t-33.5 89.5t-86.5 38.5q-55 0 -86.5 -37.5t-31.5 -89.5zM435 65h-2q-24 -37 -68 -58t-95 -21q-108 0 -172.5 78t-64.5 187t65 185t170 76q95 0 152 -67h2v55h164v-500
h-151v65z" />
    <glyph glyph-name="u03AD" unicode="&#x3ad;" horiz-adv-x="569" 
d="M217 774h127l-10 -223h-106zM526 428l-85 -90q-11 9 -34 21q-44 21 -105 21q-43 0 -68.5 -9.5t-25.5 -26.5q0 -40 117 -40h73v-111h-73q-122 0 -122 -37q0 -35 100 -35q76 0 119 19q21 9 35 20l79 -98q-25 -29 -86 -53.5t-158 -24.5q-109 0 -180.5 36t-71.5 111
q0 54 37 85t76 36v3q-38 13 -68 40.5t-30 72.5q0 68 68.5 106t177.5 38q170 0 225 -84z" />
    <glyph glyph-name="u03AE" unicode="&#x3ae;" horiz-adv-x="619" 
d="M252 551l-11 223h127l-10 -223h-106zM64 498h159v-69h2q20 35 61 59t91 24q93 0 139.5 -60t46.5 -144v-548h-163v512q0 105 -80 105q-42 0 -66.5 -31t-24.5 -76v-270h-165v498z" />
    <glyph glyph-name="u03AF" unicode="&#x3af;" horiz-adv-x="272" 
d="M84 618l-11 223h127l-10 -223h-106zM218 0h-164v498h164v-498z" />
    <glyph glyph-name="u03B0" unicode="&#x3b0;" horiz-adv-x="615" 
d="M263 552l-11 223h107l-10 -223h-86zM405 613q0 25 18.5 44t44.5 19t44.5 -19t18.5 -44t-18.5 -44t-44.5 -19t-44.5 19t-18.5 44zM75 613q0 25 18.5 44t44.5 19t44.5 -19t18.5 -44t-18.5 -44t-44.5 -19t-44.5 19t-18.5 44zM306 -15q-130 0 -188 61t-58 153v299h164v-263
q0 -54 18 -83t65 -29q86 0 86 112v263h164v-299q0 -91 -60.5 -152.5t-190.5 -61.5z" />
    <glyph glyph-name="u03B1" unicode="&#x3b1;" horiz-adv-x="644" 
d="M191 251q0 -52 31.5 -90.5t86.5 -38.5q53 0 86.5 38.5t33.5 89.5t-33.5 89.5t-86.5 38.5q-55 0 -86.5 -37.5t-31.5 -89.5zM435 65h-2q-24 -37 -68 -58t-95 -21q-108 0 -172.5 78t-64.5 187t65 185t170 76q95 0 152 -67h2v55h164v-500h-151v65z" />
    <glyph glyph-name="u03B2" unicode="&#x3b2;" horiz-adv-x="663" 
d="M224 519v-218q0 -27 3 -51q7 -61 32.5 -90t78.5 -29q48 0 78 24.5t30 72.5q0 45 -30 73t-91 28h-40v134h30q35 0 58 20t23 57q0 39 -25 59.5t-61 20.5q-39 0 -62.5 -24t-23.5 -77zM224 85v-325h-164v776q0 106 70 164.5t186 58.5q106 0 176.5 -51t70.5 -141
q0 -63 -35 -109.5t-80 -52.5v-3q27 -1 55.5 -12t56 -31.5t45.5 -58t18 -85.5q0 -102 -65 -163.5t-165 -61.5q-87 0 -136 47q-23 21 -33 48z" />
    <glyph glyph-name="u03B3" unicode="&#x3b3;" horiz-adv-x="620" 
d="M398 18v-258h-165v258l-231 480h182l132 -333l125 333h177z" />
    <glyph glyph-name="u03B4" unicode="&#x3b4;" horiz-adv-x="634" 
d="M436 251q0 56 -32.5 91.5t-85.5 35.5q-54 0 -86 -36.5t-32 -91.5t33 -91.5t85 -36.5q54 0 86 37t32 92zM75 623q0 62 72.5 98.5t189.5 36.5q87 0 169 -22q34 -10 64 -21l-32 -136q-29 14 -57 23q-73 23 -137 23q-70 0 -70 -26q0 -8 4.5 -14.5t17 -13t23.5 -11t36 -13.5
q7 -3 11 -4q91 -33 159.5 -109t68.5 -184q0 -112 -74.5 -189t-201.5 -77q-122 0 -199.5 75t-77.5 190q0 46 16 87.5t40 69t52 47.5t52 29.5t40 9.5l4 8l-19 5q-26 6 -49 15q-22 8 -35 14t-31 18.5t-27 30t-9 40.5z" />
    <glyph glyph-name="u03B5" unicode="&#x3b5;" horiz-adv-x="569" 
d="M526 428l-85 -90q-11 9 -34 21q-44 21 -105 21q-43 0 -68.5 -9.5t-25.5 -26.5q0 -40 117 -40h73v-111h-73q-122 0 -122 -37q0 -35 100 -35q76 0 119 19q21 9 35 20l79 -98q-25 -29 -86 -53.5t-158 -24.5q-109 0 -180.5 36t-71.5 111q0 54 37 85t76 36v3q-38 13 -68 40.5
t-30 72.5q0 68 68.5 106t177.5 38q170 0 225 -84z" />
    <glyph glyph-name="u03B6" unicode="&#x3b6;" horiz-adv-x="541" 
d="M276 0q-47 17 -83 36.5t-73.5 51.5t-58 80.5t-20.5 110.5q0 67 20.5 124.5t55.5 98.5t69.5 68.5t75.5 48.5h-206v137h464v-106l-103.5 -63.5t-84.5 -61t-72.5 -69t-42 -74.5t-17.5 -90q0 -64 32.5 -104.5t108.5 -66.5q37 -13 62.5 -25t57.5 -32.5t48.5 -50t16.5 -65.5
q0 -79 -46.5 -130t-106.5 -74l-121 70l45 24.5t34.5 23.5t28 30.5t8.5 34.5t-12.5 32.5t-26 20t-42.5 16.5q-7 3 -11 4z" />
    <glyph glyph-name="u03B7" unicode="&#x3b7;" horiz-adv-x="619" 
d="M64 498h159v-69h2q20 35 61 59t91 24q93 0 139.5 -60t46.5 -144v-548h-163v512q0 105 -80 105q-42 0 -66.5 -31t-24.5 -76v-270h-165v498z" />
    <glyph glyph-name="u03B8" unicode="&#x3b8;" horiz-adv-x="664" 
d="M453 314h-243q14 -195 122 -195q107 0 121 195zM332 625q-108 0 -122 -192h242q-6 88 -36 140t-84 52zM332 760q133 0 209.5 -109.5t76.5 -279.5q0 -174 -72.5 -280.5t-213.5 -106.5t-213.5 106.5t-72.5 280.5q0 171 76.5 280t209.5 109z" />
    <glyph glyph-name="u03B9" unicode="&#x3b9;" horiz-adv-x="296" 
d="M230 0h-164v498h164v-498z" />
    <glyph glyph-name="u03BA" unicode="&#x3ba;" horiz-adv-x="613" 
d="M229 498v-202h3l159 202h189l-192 -225l200 -273h-193l-163 239h-3v-239h-163v498h163z" />
    <glyph glyph-name="u03BB" unicode="&#x3bb;" horiz-adv-x="596" 
d="M296 346l-123 -346h-173l214 538l-3 7q-8 20 -11.5 27t-13 19.5t-22 17t-30.5 4.5q-23 0 -43.5 -9.5t-29.5 -21.5l-19 131q17 17 53.5 31t84.5 14q80 0 118.5 -38t72.5 -127l225 -593h-173l-125 346h-2z" />
    <glyph glyph-name="u03BC" unicode="&#x3bc;" horiz-adv-x="651" 
d="M64 -240v738h164v-237q0 -72 22.5 -102.5t73.5 -30.5t73 30.5t22 102.5v237h163v-395q0 -45 5 -103h-162l-6 66h-2q-24 -78 -96 -78q-77 0 -96 76h-2v-304h-159z" />
    <glyph glyph-name="u03BD" unicode="&#x3bd;" horiz-adv-x="567" 
d="M568 498l-196 -498h-177l-196 498h181l105 -323h3l105 323h175z" />
    <glyph glyph-name="u03BE" unicode="&#x3be;" horiz-adv-x="532" 
d="M40 175q0 84 66 132.5t170 59.5q-50 5 -86.5 13.5t-71 24t-52.5 41.5t-18 62q0 26 9.5 46t22 31.5t37 21t41 13.5t48.5 10v5q-4 -1 -24 -1h-129v120h417v-127q-143 0 -194.5 -19t-51.5 -75q0 -91 136 -91h108v-157h-131q-62 0 -94 -23.5t-32 -58.5q0 -45 26.5 -66.5
t86.5 -32.5q188 -33 188 -151q0 -77 -48.5 -126t-114.5 -71l-134 52q122 47 122 104v4v6.5t-1 8t-3 9.5t-7 10t-11 10.5t-16.5 10t-23 10.5t-30 9.5t-38.5 8.5q-167 31 -167 176z" />
    <glyph glyph-name="u03BF" unicode="&#x3bf;" horiz-adv-x="633" 
d="M435 251q0 51 -32.5 89t-86.5 38q-55 0 -86 -37.5t-31 -89.5t31.5 -90.5t86.5 -38.5t86.5 38.5t31.5 90.5zM593 251q0 -119 -80 -193t-197 -74q-116 0 -196 74t-80 193t79.5 191t196.5 72t197 -72t80 -191z" />
    <glyph glyph-name="u03C0" unicode="&#x3c0;" horiz-adv-x="623" 
d="M228 371v-371h-164v498h495v-498h-164v371h-167z" />
    <glyph glyph-name="u03C1" unicode="&#x3c1;" horiz-adv-x="655" 
d="M460 249q0 58 -30.5 93t-88.5 35q-54 0 -87.5 -36t-33.5 -92q0 -59 34 -94t88 -35q57 0 87.5 36t30.5 93zM222 18v-258h-158v474q0 129 77 204.5t207 75.5q112 0 190 -75t78 -193q0 -117 -77.5 -188.5t-190.5 -71.5q-74 0 -123 32h-3z" />
    <glyph glyph-name="u03C2" unicode="&#x3c2;" horiz-adv-x="541" 
d="M321 121q185 -49 185 -173q0 -79 -46.5 -130t-106.5 -74l-121 70l45 24.5t34.5 23.5t28 30.5t8.5 34.5q0 18 -7.5 31t-24 21t-25 10.5t-28.5 7.5q-30 7 -51.5 13.5t-57 25t-57.5 42.5t-39.5 66.5t-17.5 96.5q0 127 81.5 200t193.5 73q60 0 118.5 -21t87.5 -59l-93 -110
q-35 54 -109 54q-53 0 -87 -32t-34 -94q0 -33 10 -57t29.5 -38t37.5 -21.5t46 -14.5z" />
    <glyph glyph-name="u03C3" unicode="&#x3c3;" horiz-adv-x="657" 
d="M430 249q0 55 -33.5 92t-87.5 37q-55 0 -88 -37t-33 -92t33 -91.5t88 -36.5q54 0 87.5 36.5t33.5 91.5zM655 369h-109v-4q11 -18 17 -34q17 -49 17 -88q0 -111 -76.5 -185.5t-194.5 -74.5q-117 0 -193 75.5t-76 190.5t76 191t193 76q35 0 86.5 -7t95.5 -7h164v-133z" />
    <glyph glyph-name="u03C4" unicode="&#x3c4;" horiz-adv-x="465" 
d="M2 371v127h461v-127h-149v-371h-164v371h-148z" />
    <glyph glyph-name="u03C5" unicode="&#x3c5;" horiz-adv-x="615" 
d="M305 -15q-130 0 -188 61t-58 153v299h164v-263q0 -54 18 -83t65 -29q86 0 86 112v263h164v-299q0 -91 -60.5 -152.5t-190.5 -61.5z" />
    <glyph glyph-name="u03C6" unicode="&#x3c6;" horiz-adv-x="854" 
d="M655 245q0 59 -35 88.5t-84 29.5h-26v-237q75 1 110 32.5t35 86.5zM40 247q0 108 55.5 171t141.5 91l74 -115q-50 -15 -81.5 -51.5t-31.5 -88.5q0 -63 44 -94.5t120 -33.5v373h180q116 0 194 -66t78 -184q0 -126 -90.5 -193.5t-213.5 -67.5v-228h-148v228
q-69 1 -125.5 15.5t-101.5 44t-70 80.5t-25 119z" />
    <glyph glyph-name="u03C7" unicode="&#x3c7;" horiz-adv-x="614" 
d="M15 498h177l117 -227l116 227h174l-185 -347l205 -390h-177l-135 273l-135 -273h-177l204 392z" />
    <glyph glyph-name="u03C8" unicode="&#x3c8;" horiz-adv-x="864" 
d="M514 498v-374q71 8 98.5 48.5t27.5 135.5v190h164v-244q0 -71 -24 -125.5t-65.5 -87t-92 -49t-108.5 -17.5v-215h-164v215q-58 1 -108.5 17.5t-92 49t-65.5 87t-24 125.5v244h164v-190q0 -95 27.5 -135.5t98.5 -48.5v374h164z" />
    <glyph glyph-name="u03C9" unicode="&#x3c9;" horiz-adv-x="818" 
d="M205 510l108 -93q-63 -31 -88.5 -66.5t-25.5 -100.5q0 -121 70 -121q28 0 43 27.5t15 99.5v89h164v-89q0 -71 13.5 -99t42.5 -28q72 0 72 121q0 64 -25 100.5t-87 66.5l106 93q75 -35 120 -108t45 -173q0 -116 -52.5 -177.5t-153.5 -61.5q-124 0 -161 107h-4
q-37 -107 -163 -107q-98 0 -151 60.5t-53 178.5q0 203 165 281z" />
    <glyph glyph-name="u03CA" unicode="&#x3ca;" horiz-adv-x="296" 
d="M125 658q0 -35 -24.5 -58.5t-59.5 -23.5t-59 24t-24 58q0 33 24.5 57t58.5 24q35 0 59.5 -23.5t24.5 -57.5zM342 658q0 -35 -24.5 -58.5t-58.5 -23.5q-35 0 -59 24t-24 58q0 33 24 57t59 24q34 0 58.5 -23.5t24.5 -57.5zM230 0h-164v498h164v-498z" />
    <glyph glyph-name="u03CB" unicode="&#x3cb;" horiz-adv-x="617" 
d="M359 -15q-130 0 -188 61t-58 153v299h164v-263q0 -54 18 -83t65 -29q86 0 86 112v263h164v-299q0 -91 -60.5 -152.5t-190.5 -61.5zM333 658q0 -35 -24.5 -58.5t-59.5 -23.5t-59 24t-24 58q0 33 24.5 57t58.5 24q35 0 59.5 -23.5t24.5 -57.5zM550 658q0 -35 -24.5 -58.5
t-58.5 -23.5q-35 0 -59 24t-24 58q0 33 24 57t59 24q34 0 58.5 -23.5t24.5 -57.5z" />
    <glyph glyph-name="u03CC" unicode="&#x3cc;" horiz-adv-x="633" 
d="M261 551l-11 223h127l-10 -223h-106zM435 251q0 51 -32.5 89t-86.5 38q-55 0 -86 -37.5t-31 -89.5t31.5 -90.5t86.5 -38.5t86.5 38.5t31.5 90.5zM593 251q0 -119 -80 -193t-197 -74q-116 0 -196 74t-80 193t79.5 191t196.5 72t197 -72t80 -191z" />
    <glyph glyph-name="u03CD" unicode="&#x3cd;" horiz-adv-x="617" 
d="M306 -15q-130 0 -188 61t-58 153v299h164v-263q0 -54 18 -83t65 -29q86 0 86 112v263h164v-299q0 -91 -60.5 -152.5t-190.5 -61.5zM255 551l-11 223h127l-10 -223h-106z" />
    <glyph glyph-name="u03CE" unicode="&#x3ce;" horiz-adv-x="818" 
d="M346 774h127l-10 -223h-106zM205 510l108 -93q-63 -31 -88.5 -66.5t-25.5 -100.5q0 -121 70 -121q28 0 43 27.5t15 99.5v89h164v-89q0 -71 13.5 -99t42.5 -28q72 0 72 121q0 64 -25 100.5t-87 66.5l106 93q75 -35 120 -108t45 -173q0 -116 -52.5 -177.5t-153.5 -61.5
q-124 0 -161 107h-4q-37 -107 -163 -107q-98 0 -151 60.5t-53 178.5q0 203 165 281z" />
    <glyph glyph-name="u0401" unicode="&#x401;" horiz-adv-x="607" 
d="M290 850q0 -35 -24.5 -58.5t-59.5 -23.5t-59 24t-24 58q0 33 24.5 57t58.5 24q35 0 59.5 -23.5t24.5 -57.5zM507 850q0 -35 -24.5 -58.5t-58.5 -23.5q-35 0 -59 24t-24 58q0 33 24 57t59 24q34 0 58.5 -23.5t24.5 -57.5zM567 0h-494v708h476v-145h-311v-133h294v-137
h-294v-147h329v-146z" />
    <glyph glyph-name="u0402" unicode="&#x402;" horiz-adv-x="717" 
d="M163 564h-158v144h535v-144h-207v-94h86q132 0 200 -61t68 -181q0 -100 -69.5 -164t-195.5 -64h-27v138h19q47 0 74.5 25t27.5 64q0 53 -28 75.5t-97 22.5h-58v-325h-170v564z" />
    <glyph glyph-name="u0403" unicode="&#x403;" horiz-adv-x="557" 
d="M311 908h166l-146 -144h-124zM73 708h446v-149h-274v-559h-172v708z" />
    <glyph glyph-name="u0404" unicode="&#x404;" horiz-adv-x="696" 
d="M589 212l107 -107q-91 -123 -271 -123q-171 0 -278 105t-107 267t107.5 267t277.5 105q185 0 264 -103l-109 -125q-49 74 -154 74q-67 0 -120 -37.5t-72 -109.5h325v-133h-327q17 -78 72.5 -116t121.5 -38q92 0 163 74z" />
    <glyph glyph-name="u0405" unicode="&#x405;" horiz-adv-x="591" 
d="M556 639l-109 -115q-21 27 -56.5 44t-69.5 17q-40 0 -69.5 -16.5t-29.5 -54.5q0 -32 24 -47.5t85 -35.5q40 -13 61 -21t56.5 -26.5t54 -38.5t33.5 -53t15 -74q0 -115 -78.5 -175.5t-192.5 -60.5q-77 0 -147.5 27t-117.5 75l112 114q27 -33 69.5 -54t83.5 -21
q43 0 70.5 18.5t27.5 58.5q0 36 -33 56t-114 45q-39 12 -67.5 26.5t-56.5 37.5t-42.5 58t-14.5 81q0 57 24 101t63.5 69.5t87 38.5t99.5 13q62 0 124 -22.5t108 -64.5z" />
    <glyph glyph-name="u0406" unicode="&#x406;" horiz-adv-x="318" 
d="M245 0h-172v708h172v-708z" />
    <glyph glyph-name="u0407" unicode="&#x407;" horiz-adv-x="339" 
d="M150 850q0 -35 -24.5 -58.5t-59.5 -23.5t-59 24t-24 58q0 33 24.5 57t58.5 24q35 0 59.5 -23.5t24.5 -57.5zM367 850q0 -35 -24.5 -58.5t-58.5 -23.5q-35 0 -59 24t-24 58q0 33 24 57t59 24q34 0 58.5 -23.5t24.5 -57.5zM261 0h-172v708h172v-708z" />
    <glyph glyph-name="u0408" unicode="&#x408;" horiz-adv-x="529" 
d="M460 708v-466q0 -37 -5.5 -70.5t-21.5 -69.5t-41 -62t-67.5 -42.5t-97.5 -16.5q-88 0 -148.5 45.5t-81.5 120.5l151 51q7 -28 25.5 -45t45.5 -17q39 0 54 26.5t15 78.5v467h172z" />
    <glyph glyph-name="u0409" unicode="&#x409;" horiz-adv-x="998" 
d="M650 310h-49l66 -168q28 0 47 2.5t42.5 10t36 27t12.5 49.5q0 27 -11.5 43.5t-35.5 24t-47 9.5t-61 2zM354 518l-185 -518h-183l288 708h166l105 -258h107q73 0 129.5 -11t102 -36t70 -70t24.5 -109q0 -112 -83.5 -168t-234.5 -56h-124z" />
    <glyph glyph-name="u040A" unicode="&#x40a;" horiz-adv-x="1046" 
d="M712 306h-67v-160h70q119 0 119 78q0 82 -122 82zM73 708h170v-258h232v258h170v-258h80q122 0 201.5 -56t79.5 -171q0 -116 -75.5 -169.5t-201.5 -53.5h-254v306h-232v-306h-170v708z" />
    <glyph glyph-name="u040B" unicode="&#x40b;" horiz-adv-x="731" 
d="M368 326h-35v-326h-170v564h-158v144h535v-144h-207v-94h105q138 0 195.5 -77t57.5 -217v-176h-172v131q0 55 -4.5 87t-20 59t-46 38t-80.5 11z" />
    <glyph glyph-name="u040C" unicode="&#x40c;" horiz-adv-x="713" 
d="M575 908l-146 -144h-124l104 144h166zM243 0h-170v708h170v-257q20 0 54 -2l217 259h186l-237 -299q93 -45 153 -143.5t92 -265.5h-186q-31 165 -94.5 238t-184.5 69v-307z" />
    <glyph glyph-name="u040E" unicode="&#x40e;" horiz-adv-x="650" 
d="M187 708h-190l249 -552q-26 -33 -66 -33q-39 0 -79 45l-106 -119q1 -1 9 -9.5t11.5 -11.5t13.5 -11t18 -11.5l22 -9.5t28 -9t34 -5t43 -2q98 0 153 45t92 129l241 554h-183l-142 -352zM129 875l88 48q15 -31 46 -50.5t64 -19.5t64 19.5t46 50.5l88 -48q-18 -47 -74.5 -80
t-123.5 -33t-123.5 33t-74.5 80z" />
    <glyph glyph-name="u040F" unicode="&#x40f;" horiz-adv-x="756" 
d="M243 144h270v564h170v-708h-227v-139h-140v139h-243v708h170v-564z" />
    <glyph glyph-name="u0410" unicode="&#x410;" horiz-adv-x="729" 
d="M363 519l-90 -243h178zM224 139l-52 -139h-186l297 708h166l294 -708h-190l-55 139h-274z" />
    <glyph glyph-name="u0411" unicode="&#x411;" horiz-adv-x="672" 
d="M243 144h80q53 0 87.5 20t34.5 62q0 79 -119 79h-83v-161zM336 0h-263v708h506v-144h-336v-115h97q126 0 201.5 -53.5t75.5 -168.5t-79.5 -171t-201.5 -56z" />
    <glyph glyph-name="u0412" unicode="&#x412;" horiz-adv-x="665" 
d="M454 222q0 78 -121 78h-95v-162h96q120 0 120 84zM431 503q0 69 -109 69h-84v-146h92q101 0 101 77zM625 206q0 -74 -40.5 -122t-98.5 -66t-131 -18h-282v708h282q45 0 84.5 -8.5t76.5 -28t58.5 -57t21.5 -88.5q0 -114 -116 -153v-2q63 -10 104 -54t41 -111z" />
    <glyph glyph-name="u0413" unicode="&#x413;" horiz-adv-x="549" 
d="M73 708h446v-149h-274v-559h-172v708z" />
    <glyph glyph-name="u0414" unicode="&#x414;" horiz-adv-x="830" 
d="M410 516l-117 -372h234zM695 0h-560v-139h-140v283h122l214 564h166l212 -564h126v-283h-140v139z" />
    <glyph glyph-name="u0415" unicode="&#x415;" horiz-adv-x="607" 
d="M567 0h-494v708h476v-145h-311v-133h294v-137h-294v-147h329v-146z" />
    <glyph glyph-name="u0416" unicode="&#x416;" horiz-adv-x="1010" 
d="M420 0v302q-50 0 -91 -26.5t-67.5 -71t-43.5 -96t-25 -108.5h-186q35 279 200 387l-202 321h186l177 -265q26 3 52 3v262h170v-262q26 0 51 -3l178 265h186l-203 -321q165 -109 201 -387h-186q-7 58 -24 109.5t-44 96t-68 70.5t-91 26v-302h-170z" />
    <glyph glyph-name="u0417" unicode="&#x417;" horiz-adv-x="621" 
d="M154 303v120h107q120 0 120 84q0 33 -25.5 55t-64.5 22q-79 0 -98 -87l-151 49q27 83 94.5 131.5t165.5 48.5q112 0 185.5 -51.5t73.5 -145.5q0 -65 -42.5 -105t-94.5 -50v-2q61 -7 109 -48t48 -120q0 -102 -81 -162t-202 -60q-105 0 -172 51t-91 136l152 47
q32 -92 118 -92q48 0 75 21t27 59q0 47 -34.5 73t-120.5 26h-98z" />
    <glyph glyph-name="u0418" unicode="&#x418;" horiz-adv-x="806" 
d="M243 236h3l294 472h193v-708h-170v466h-3l-295 -466h-192v708h170v-472z" />
    <glyph glyph-name="u0419" unicode="&#x419;" horiz-adv-x="804" 
d="M204 875l88 48q15 -31 46 -50.5t64 -19.5t64 19.5t46 50.5l88 -48q-18 -47 -74.5 -80t-123.5 -33t-123.5 33t-74.5 80zM245 246l284 462h202v-708h-170l1 463h-3l-285 -463h-201v708h170l-1 -462h3z" />
    <glyph glyph-name="u041A" unicode="&#x41a;" horiz-adv-x="713" 
d="M243 0h-170v708h170v-257q20 0 54 -2l217 259h186l-237 -299q93 -45 153 -143.5t92 -265.5h-186q-31 165 -94.5 238t-184.5 69v-307z" />
    <glyph glyph-name="u041B" unicode="&#x41b;" horiz-adv-x="703" 
d="M350 472l-181 -472h-183l275 708h175l281 -708h-187z" />
    <glyph glyph-name="u041C" unicode="&#x41c;" horiz-adv-x="955" 
d="M882 0h-167l4 501h-3l-184 -501h-120l-179 501h-3l4 -501h-161v708h243l161 -454h4l154 454h247v-708z" />
    <glyph glyph-name="u041D" unicode="&#x41d;" horiz-adv-x="764" 
d="M691 0h-171v296h-276v-296h-171v708h171v-268h276v268h171v-708z" />
    <glyph glyph-name="u041E" unicode="&#x41e;" horiz-adv-x="851" 
d="M628 357q0 94 -57 155t-146 61t-145.5 -61t-56.5 -155q0 -96 56.5 -158t145.5 -62t146 62t57 158zM811 357q0 -167 -109 -271.5t-277 -104.5q-167 0 -276 104.5t-109 271.5q0 168 108.5 269t276.5 101q169 0 277.5 -101t108.5 -269z" />
    <glyph glyph-name="u041F" unicode="&#x41f;" horiz-adv-x="746" 
d="M73 708h600v-708h-170v564h-260v-564h-170v708z" />
    <glyph glyph-name="u0420" unicode="&#x420;" horiz-adv-x="640" 
d="M439 489q0 81 -120 81h-75v-167h72q123 0 123 86zM610 490q0 -78 -40.5 -130t-101 -72.5t-139.5 -20.5h-85v-267h-171v708h260q126 0 201.5 -51.5t75.5 -166.5z" />
    <glyph glyph-name="u0421" unicode="&#x421;" horiz-adv-x="696" 
d="M577 210l119 -112q-102 -117 -275 -117q-165 0 -273 104.5t-108 269.5q0 168 109.5 270t274.5 102q77 0 149 -27t116 -77l-116 -116q-47 65 -143 65q-89 0 -146.5 -61.5t-57.5 -155.5q0 -96 56.5 -156.5t144.5 -60.5q98 0 150 72z" />
    <glyph glyph-name="u0422" unicode="&#x422;" horiz-adv-x="581" 
d="M576 562h-200v-562h-171v562h-200v146h571v-146z" />
    <glyph glyph-name="u0423" unicode="&#x423;" horiz-adv-x="650" 
d="M-3 708h190l148 -352l142 352h183l-241 -554q-37 -84 -92 -129t-153 -45q-23 0 -43 2t-34 5t-28 9l-22 9.5t-18 11.5t-13.5 11t-11.5 11.5t-9 9.5l106 119q40 -45 79 -45q40 0 66 33z" />
    <glyph glyph-name="u0424" unicode="&#x424;" horiz-adv-x="950" 
d="M727 354q0 75 -43.5 128.5t-127.5 71.5v-400q84 17 127.5 71t43.5 129zM223 354q0 -76 44 -129.5t129 -71.5v401q-85 -18 -129 -71t-44 -129zM556 772v-62q157 -22 255.5 -118t98.5 -238q0 -141 -99 -239t-255 -119v-67h-160v67q-158 21 -257 118t-99 240q0 142 99 238.5
t257 117.5v62h160z" />
    <glyph glyph-name="u0425" unicode="&#x425;" horiz-adv-x="703" 
d="M711 0h-211l-155 250l-149 -250h-204l248 374l-228 334h206l132 -220l130 220h199l-224 -334z" />
    <glyph glyph-name="u0426" unicode="&#x426;" horiz-adv-x="784" 
d="M619 0h-546v708h170v-564h270v564h170v-564h76v-283h-140v139z" />
    <glyph glyph-name="u0427" unicode="&#x427;" horiz-adv-x="672" 
d="M430 407v301h169v-708h-168v263h-128q-263 0 -263 280v165h170v-129q0 -96 23.5 -134t95.5 -38h101z" />
    <glyph glyph-name="u0428" unicode="&#x428;" horiz-adv-x="1007" 
d="M243 144h179v564h170v-564h172v564h170v-708h-861v708h170v-564z" />
    <glyph glyph-name="u0429" unicode="&#x429;" horiz-adv-x="1081" 
d="M916 0h-843v708h170v-564h179v564h170v-564h178v564h170v-564h116v-283h-140v139z" />
    <glyph glyph-name="u042A" unicode="&#x42a;" horiz-adv-x="718" 
d="M339 306v-162h55q112 0 112 85q0 77 -112 77h-55zM5 708h334v-258h42q297 0 297 -212q0 -117 -84.5 -177.5t-215.5 -60.5h-209v564h-164v144z" />
    <glyph glyph-name="u042B" unicode="&#x42b;" horiz-adv-x="871" 
d="M628 708h170v-708h-170v708zM243 306v-162h57q61 0 86 21.5t25 62.5q0 78 -111 78h-57zM73 708h170v-258h44q297 0 297 -212q0 -117 -84.5 -177.5t-215.5 -60.5h-211v708z" />
    <glyph glyph-name="u042C" unicode="&#x42c;" horiz-adv-x="644" 
d="M73 0v708h170v-258h64q64 0 116 -11t93.5 -35t64.5 -66t23 -100q0 -117 -84.5 -177.5t-215.5 -60.5h-231zM320 306h-77v-162h77q61 0 86.5 21t25.5 62q0 40 -25.5 59.5t-86.5 19.5z" />
    <glyph glyph-name="u042D" unicode="&#x42d;" horiz-adv-x="699" 
d="M0 96l107 107q62 -65 173 -65q66 0 122.5 38t73.5 116h-336v133h334q-19 71 -73 109t-121 38q-112 0 -161 -74l-101 115q88 113 276 113q167 0 266 -104t99 -268q0 -162 -107 -267t-278 -105q-190 0 -274 114z" />
    <glyph glyph-name="u042E" unicode="&#x42e;" horiz-adv-x="1162" 
d="M534 357q0 -96 56.5 -158t145.5 -62t146 62t57 158q0 94 -57 155t-146 61t-145.5 -61t-56.5 -155zM73 708h170v-280h113q20 136 125 217.5t255 81.5q169 0 277.5 -101t108.5 -269q0 -167 -109 -271.5t-277 -104.5q-148 0 -253 83.5t-127 219.5h-113v-284h-170v708z" />
    <glyph glyph-name="u042F" unicode="&#x42f;" horiz-adv-x="691" 
d="M448 401v163h-74q-79 0 -115 -20.5t-36 -63.5q0 -79 153 -79h72zM200 319v2q-74 12 -117 55.5t-43 112.5q0 105 81 162t238 57h259v-708h-170v257h-61q-76 0 -127.5 -66.5t-68.5 -190.5h-186q8 118 62 197.5t133 121.5z" />
    <glyph glyph-name="u0430" unicode="&#x430;" horiz-adv-x="566" 
d="M140 341l-83 89q88 84 222 84q123 0 176 -62.5t53 -200.5v-251h-150v53h-3q-18 -30 -56.5 -47.5t-84.5 -17.5q-71 0 -126 38t-55 118q0 168 320 168v8q0 35 -25 53.5t-65 18.5q-67 0 -123 -51zM358 200v17h-21q-153 0 -153 -68q0 -26 21 -38.5t50 -12.5q50 0 76.5 27
t26.5 75z" />
    <glyph glyph-name="u0431" unicode="&#x431;" horiz-adv-x="628" 
d="M339 498q107 0 178 -69t71 -184q0 -117 -77 -189t-199 -72q-96 0 -165.5 55.5t-92.5 161.5q-9 43 -9 96q0 220 86 315t269 95h162v-123h-164q-156 0 -174 -112q37 26 115 26zM434 242q0 54 -31 88.5t-82 34.5q-53 0 -85.5 -31t-32.5 -91q0 -57 32 -90.5t84 -33.5
q51 0 83 34.5t32 88.5z" />
    <glyph glyph-name="u0432" unicode="&#x432;" horiz-adv-x="582" 
d="M228 299h66q81 0 81 43q0 44 -83 44h-64v-87zM228 204v-92h62q28 0 40.5 0.5t31.5 4.5t27 13.5t8 25.5q0 22 -17 33t-36 13t-53 2h-63zM352 0h-288v498h275q94 0 146 -36t52 -98q0 -51 -28 -73.5t-83 -37.5q61 -4 98.5 -33t37.5 -87q0 -61 -56.5 -97t-153.5 -36z" />
    <glyph glyph-name="u0433" unicode="&#x433;" horiz-adv-x="434" 
d="M228 372v-372h-164v498h350v-126h-186z" />
    <glyph glyph-name="u0434" unicode="&#x434;" horiz-adv-x="650" 
d="M318 315l-61 -188h138l-57 188h-20zM139 0v-139h-134v266h82l140 371h200l132 -371h86v-266h-134v139h-372z" />
    <glyph glyph-name="u0435" unicode="&#x435;" horiz-adv-x="596" 
d="M558 243q0 -27 -1 -39h-361q4 -40 39 -67t80 -27q71 0 110 52l114 -72q-73 -106 -226 -106q-117 0 -195.5 70.5t-78.5 192.5q0 120 76.5 193.5t192.5 73.5q112 0 181 -72.5t69 -198.5zM196 306h211q0 41 -25.5 68t-72.5 27t-79 -27.5t-34 -67.5z" />
    <glyph glyph-name="u0436" unicode="&#x436;" horiz-adv-x="894" 
d="M365 0v196q-61 -10 -99.5 -54t-59.5 -142h-181q41 167 162 253l-147 245h181l100 -184q9 2 24 4.5t20 3.5v176h164v-176q4 -1 19 -3.5t24 -4.5l101 184h181l-147 -245q121 -86 162 -253h-181q-21 97 -60 141.5t-99 54.5v-196h-164z" />
    <glyph glyph-name="u0437" unicode="&#x437;" horiz-adv-x="496" 
d="M97 338l-93 70q58 109 223 109q108 0 167 -37t59 -105q0 -83 -90 -120v-3q39 -5 76 -38t37 -87q0 -147 -248 -147q-130 0 -223 74l71 98q22 -17 61.5 -32.5t78.5 -15.5q99 0 99 49q0 48 -114 48h-82v102h82q49 0 74.5 8t25.5 31q0 24 -26 40.5t-72 16.5q-47 0 -82 -31
q-15 -14 -24 -30z" />
    <glyph glyph-name="u0438" unicode="&#x438;" horiz-adv-x="675" 
d="M447 0v288l-219 -288h-164v498h164v-286l219 286h164v-498h-164z" />
    <glyph glyph-name="u0439" unicode="&#x439;" horiz-adv-x="675" 
d="M187 692l110 19q11 -51 58 -51q21 0 37 13.5t21 37.5l110 -19q-35 -130 -168 -130q-66 0 -109.5 33.5t-58.5 96.5zM447 288v-288h164v498h-164l-219 -286v286h-164v-498h164z" />
    <glyph glyph-name="u043A" unicode="&#x43a;" horiz-adv-x="593" 
d="M228 498v-181q22 -1 43 -6l114 187h181l-157 -241q112 -75 159 -257h-181q-21 100 -58 141t-101 50v-191h-164v498h164z" />
    <glyph glyph-name="u043B" unicode="&#x43b;" horiz-adv-x="591" 
d="M582 0h-177l-105 303l-113 -303h-177l193 498h196z" />
    <glyph glyph-name="u043C" unicode="&#x43c;" horiz-adv-x="743" 
d="M64 498h144l165 -201l162 201h144v-498h-164v271l-129 -176h-28l-130 174v-269h-164v498z" />
    <glyph glyph-name="u043D" unicode="&#x43d;" horiz-adv-x="623" 
d="M228 188v-188h-164v498h164v-184h167v184h164v-498h-164v188h-167z" />
    <glyph glyph-name="u043E" unicode="&#x43e;" horiz-adv-x="633" 
d="M435 251q0 51 -32.5 89t-86.5 38q-55 0 -86 -37.5t-31 -89.5t31.5 -90.5t86.5 -38.5t86.5 38.5t31.5 90.5zM593 251q0 -119 -80 -193t-197 -74q-116 0 -196 74t-80 193t79.5 191t196.5 72t197 -72t80 -191z" />
    <glyph glyph-name="u043F" unicode="&#x43f;" horiz-adv-x="615" 
d="M228 371v-371h-164v498h487v-498h-164v371h-159z" />
    <glyph glyph-name="u0440" unicode="&#x440;" horiz-adv-x="657" 
d="M459 251q0 52 -31 89.5t-86 37.5q-53 0 -86.5 -38.5t-33.5 -89.5t33.5 -89.5t86.5 -38.5q55 0 86 38.5t31 90.5zM618 251q0 -109 -64.5 -187t-172.5 -78q-46 0 -87 18.5t-64 50.5h-2v-295h-164v738h156v-61h3q58 75 159 75q106 0 171 -76t65 -185z" />
    <glyph glyph-name="u0441" unicode="&#x441;" horiz-adv-x="503" 
d="M502 447l-95 -110q-32 40 -87 40q-50 0 -82.5 -38t-32.5 -90q0 -53 32 -90t85 -37q58 0 89 37l91 -111q-66 -64 -184 -64q-121 0 -200 72t-79 193q0 120 79 192.5t199 72.5q54 0 104.5 -18.5t80.5 -48.5z" />
    <glyph glyph-name="u0442" unicode="&#x442;" horiz-adv-x="481" 
d="M20 371v127h441v-127h-139v-371h-164v371h-138z" />
    <glyph glyph-name="u0443" unicode="&#x443;" horiz-adv-x="567" 
d="M568 498l-223 -573q-32 -84 -81 -124.5t-138 -40.5q-52 0 -90 11l18 138q29 -9 53 -9q36 0 53 15.5t31 51.5l16 41l-208 490h182l111 -320h3l99 320h174z" />
    <glyph glyph-name="u0444" unicode="&#x444;" horiz-adv-x="748" 
d="M192 248q0 -126 104 -133v266q-104 -5 -104 -133zM556 248q0 126 -105 133v-266q105 7 105 133zM451 756v-247q112 -2 184.5 -76.5t72.5 -184.5q0 -111 -72 -184.5t-185 -75.5v-228h-155v228q-110 2 -183 76.5t-73 183.5q0 111 72 184t184 77v247h155z" />
    <glyph glyph-name="u0445" unicode="&#x445;" horiz-adv-x="594" 
d="M597 0h-193l-107 153l-110 -153h-190l199 261l-180 237h191l93 -133l94 133h185l-179 -237z" />
    <glyph glyph-name="u0446" unicode="&#x446;" horiz-adv-x="636" 
d="M64 0v498h164v-371h161v371h164v-371h78v-266h-134v139h-433z" />
    <glyph glyph-name="u0447" unicode="&#x447;" horiz-adv-x="605" 
d="M41 363v135h164v-67q0 -93 15.5 -128.5t69.5 -35.5h87v231h164v-498h-164v121l-111 1q-125 1 -175 61t-50 180z" />
    <glyph glyph-name="u0448" unicode="&#x448;" horiz-adv-x="885" 
d="M821 0h-757v498h164v-371h132v371h164v-371h133v371h164v-498z" />
    <glyph glyph-name="u0449" unicode="&#x449;" horiz-adv-x="868" 
d="M64 0v498h164v-371h114v371h163v-371h114v371h164v-371h80v-266h-134v139h-665z" />
    <glyph glyph-name="u044A" unicode="&#x44a;" horiz-adv-x="639" 
d="M303 232v-117h76q77 0 77 59q0 58 -79 58h-74zM20 498h283v-151h107q106 0 155 -47t49 -125q0 -77 -52.5 -126t-147.5 -49h-275v371h-119v127z" />
    <glyph glyph-name="u044B" unicode="&#x44b;" horiz-adv-x="814" 
d="M586 498h164v-498h-164v498zM228 232v-117h80q77 0 77 59q0 58 -79 58h-78zM64 498h164v-151h111q106 0 155 -47t49 -125q0 -77 -52.5 -126t-147.5 -49h-279v498z" />
    <glyph glyph-name="u044C" unicode="&#x44c;" horiz-adv-x="568" 
d="M228 232v-117h80q77 0 77 59q0 58 -79 58h-78zM64 498h164v-151h111q106 0 155 -47t49 -125q0 -77 -52.5 -126t-147.5 -49h-279v498z" />
    <glyph glyph-name="u044D" unicode="&#x44d;" horiz-adv-x="563" 
d="M140 320l-105 90q72 105 218 105q126 0 198 -74t72 -192q0 -115 -76.5 -190t-195.5 -75q-138 0 -221 107l108 87q15 -26 44.5 -43.5t67.5 -17.5q50 0 76 20t37 66h-191v99h191q-25 81 -113 81q-76 0 -110 -63z" />
    <glyph glyph-name="u044E" unicode="&#x44e;" horiz-adv-x="875" 
d="M677 251q0 51 -32.5 89t-86.5 38q-55 0 -86 -37.5t-31 -89.5t31.5 -90.5t86.5 -38.5t86.5 38.5t31.5 90.5zM835 251q0 -119 -80 -193t-197 -74q-102 0 -178 58.5t-94 155.5h-58v-198h-164v498h164v-173h63q24 87 97.5 138t169.5 51q117 0 197 -72t80 -191z" />
    <glyph glyph-name="u044F" unicode="&#x44f;" horiz-adv-x="530" 
d="M190 317q0 -25 17 -33t68 -8h55v85h-56q-53 0 -68.5 -8.5t-15.5 -35.5zM330 149h-33q-25 0 -40.5 -4.5t-31.5 -18.5t-26.5 -45t-17.5 -81h-181q18 98 60.5 149t89.5 63v3q-117 14 -117 148q0 135 198 135h263v-498h-164v149z" />
    <glyph glyph-name="u0451" unicode="&#x451;" horiz-adv-x="572" 
d="M305 658q0 -35 -24.5 -58.5t-59.5 -23.5t-59 24t-24 58q0 33 24.5 57t58.5 24q35 0 59.5 -23.5t24.5 -57.5zM522 658q0 -35 -24.5 -58.5t-58.5 -23.5q-35 0 -59 24t-24 58q0 33 24 57t59 24q34 0 58.5 -23.5t24.5 -57.5zM575 243q0 -27 -1 -39h-361q4 -40 39 -67t80 -27
q71 0 110 52l114 -72q-73 -106 -226 -106q-117 0 -195.5 70.5t-78.5 192.5q0 120 76.5 193.5t192.5 73.5q112 0 181 -72.5t69 -198.5zM213 306h211q0 41 -25.5 68t-72.5 27t-79 -27.5t-34 -67.5z" />
    <glyph glyph-name="u0452" unicode="&#x452;" horiz-adv-x="624" 
d="M181 -159l66 95q7 -5 21 -11q20 -11 49 -11q78 0 78 112v233q0 68 -19 92t-54 24q-89 0 -89 -117v-258h-164v570h-69v89h69v97h164v-97h148v-89h-148v-137h2q39 79 148 79q88 0 132.5 -60.5t44.5 -154.5v-273q0 -47 -11.5 -86.5t-36.5 -74t-71 -54t-108 -19.5
q-81 0 -152 51z" />
    <glyph glyph-name="u0453" unicode="&#x453;" horiz-adv-x="455" 
d="M435 716l-146 -144h-124l104 144h166zM228 372v-372h-164v498h350v-126h-186z" />
    <glyph glyph-name="u0454" unicode="&#x454;" horiz-adv-x="563" 
d="M528 410l-105 -90q-34 63 -110 63q-88 0 -113 -81h191v-99h-191q20 -86 119 -86q33 0 62 17.5t44 43.5l108 -87q-83 -107 -221 -107q-124 0 -198 74.5t-74 190.5q0 118 72 192t198 74q146 0 218 -105z" />
    <glyph glyph-name="u0455" unicode="&#x455;" horiz-adv-x="516" 
d="M474 444l-90 -93q-49 45 -104 45q-26 0 -44 -10t-18 -30t19 -29t72 -21q159 -36 159 -152q0 -86 -63 -128t-150 -42q-138 0 -217 77l92 97q51 -56 122 -56q24 0 41.5 10.5t17.5 32.5t-21.5 33t-77.5 24q-145 34 -145 145q0 82 63 124.5t144 42.5q127 0 200 -70z" />
    <glyph glyph-name="u0456" unicode="&#x456;" horiz-adv-x="296" 
d="M230 0h-164v498h164v-498zM242 657q0 -38 -27.5 -64t-66.5 -26t-66.5 26.5t-27.5 63.5q0 36 27.5 63t66.5 27t66.5 -26t27.5 -64z" />
    <glyph glyph-name="u0457" unicode="&#x457;" horiz-adv-x="296" 
d="M125 658q0 -35 -24.5 -58.5t-59.5 -23.5t-59 24t-24 58q0 33 24.5 57t58.5 24q35 0 59.5 -23.5t24.5 -57.5zM342 658q0 -35 -24.5 -58.5t-58.5 -23.5q-35 0 -59 24t-24 58q0 33 24 57t59 24q34 0 58.5 -23.5t24.5 -57.5zM230 0h-164v498h164v-498z" />
    <glyph glyph-name="u0458" unicode="&#x458;" horiz-adv-x="299" 
d="M233 498v-511q0 -50 -9 -88.5t-30 -71t-61.5 -50t-98.5 -17.5q-41 0 -71 8l11 137q15 -5 35 -5q34 0 47 22.5t13 64.5v511h164zM245 657q0 -38 -27.5 -64t-66.5 -26t-66.5 26.5t-27.5 63.5q0 36 27.5 63t66.5 27t66.5 -26t27.5 -64z" />
    <glyph glyph-name="u0459" unicode="&#x459;" horiz-adv-x="774" 
d="M510 232h-48l37 -117h11q49 0 67.5 15t18.5 42q0 31 -19 45.5t-67 14.5zM541 0h-167l-90 303l-97 -303h-163l167 498h188l47 -151h122q112 0 159 -49t47 -123q0 -86 -58 -130.5t-155 -44.5z" />
    <glyph glyph-name="u045A" unicode="&#x45a;" horiz-adv-x="903" 
d="M567 222v-107h76q77 0 77 54q0 53 -79 53h-74zM64 498h164v-161h175v161h164v-161h107q105 0 154.5 -46t49.5 -121q0 -73 -52.5 -121.5t-147.5 -48.5h-275v210h-175v-210h-164v498z" />
    <glyph glyph-name="u045B" unicode="&#x45b;" horiz-adv-x="620" 
d="M233 435h2q19 33 56.5 55t86.5 22q94 0 138 -59.5t44 -144.5v-308h-165v270q0 105 -73 105q-42 0 -65.5 -30t-23.5 -76v-269h-164v570h-69v89h69v97h164v-97h148v-89h-148v-135z" />
    <glyph glyph-name="u045C" unicode="&#x45c;" horiz-adv-x="593" 
d="M506 716l-146 -144h-124l104 144h166zM228 498v-181q22 -1 43 -6l114 187h181l-157 -241q112 -75 159 -257h-181q-21 100 -58 141t-101 50v-191h-164v498h164z" />
    <glyph glyph-name="u045E" unicode="&#x45e;" horiz-adv-x="567" 
d="M345 -75l223 573h-174l-99 -320h-3l-111 320h-182l208 -490l-16 -41q-14 -36 -31 -51.5t-53 -15.5q-24 0 -53 9l-18 -138q38 -11 90 -11q89 0 138 40.5t81 124.5zM105 682l79 43q14 -28 41.5 -45.5t57.5 -17.5t57.5 17.5t41.5 45.5l79 -43q-16 -43 -66.5 -72.5
t-111.5 -29.5t-111.5 29.5t-66.5 72.5z" />
    <glyph glyph-name="u045F" unicode="&#x45f;" horiz-adv-x="618" 
d="M554 0h-178v-139h-134v139h-178v498h164v-371h162v371h164v-498z" />
    <glyph glyph-name="u0490" unicode="&#x490;" horiz-adv-x="532" 
d="M371 708v129h126v-278h-274v-559h-172v708h320z" />
    <glyph glyph-name="u0491" unicode="&#x491;" horiz-adv-x="444" 
d="M227 371v-371h-163v498h214v136h136v-263h-187z" />
    <glyph glyph-name="palochkacyrillic" unicode="&#x4c0;" horiz-adv-x="318" 
d="M245 0h-172v708h172v-708z" />
    <glyph glyph-name="Aiecyrillic" unicode="&#x4d4;" horiz-adv-x="1033" 
d="M514 291v272h-10l-153 -272h163zM993 0h-479v153h-231l-88 -153h-199l414 708h565v-145h-298v-133h281v-137h-281v-147h316v-146z" />
    <glyph glyph-name="aiecyrillic" unicode="&#x4d5;" horiz-adv-x="899" 
d="M727 162l113 -72q-73 -106 -226 -106q-125 0 -187 90q-52 -86 -202 -86q-75 0 -133.5 39t-58.5 117q0 50 26 83.5t74.5 49.5t99.5 22t120 6v7q0 80 -89 80q-68 0 -124 -51l-82 89q86 84 221 84q110 0 161 -73q61 73 171 73q112 0 181 -72.5t69 -198.5q0 -15 -2 -39h-360
q5 -41 38.5 -67.5t79.5 -26.5q75 0 110 52zM498 306h211q0 41 -25.5 68t-72.5 27t-79 -27.5t-34 -67.5zM358 191v16h-21q-78 0 -115.5 -12t-37.5 -46q0 -26 21 -38.5t50 -12.5q50 0 76.5 25t26.5 68z" />
    <glyph glyph-name="Aringbelow" unicode="&#x1e00;" horiz-adv-x="729" 
d="M423 -182q0 25 -17 41.5t-42 16.5q-26 0 -42.5 -17t-16.5 -42q0 -24 17 -40.5t42 -16.5t42 16.5t17 41.5zM473 -182q0 -46 -31.5 -76.5t-77.5 -30.5q-45 0 -77 30.5t-32 75.5q0 47 31.5 77.5t77.5 30.5q45 0 77 -31t32 -76zM451 276l-88 243l-90 -243h178zM743 0h-190
l-55 139h-274l-52 -139h-186l297 708h166z" />
    <glyph glyph-name="aringbelow" unicode="&#x1e01;" horiz-adv-x="566" 
d="M329 -194q0 25 -17 41.5t-42 16.5q-26 0 -42.5 -17t-16.5 -42q0 -24 17 -40.5t42 -16.5t42 16.5t17 41.5zM379 -194q0 -46 -31.5 -76.5t-77.5 -30.5q-45 0 -77 30.5t-32 75.5q0 47 31.5 77.5t77.5 30.5q45 0 77 -31t32 -76zM140 341l-83 89q88 84 222 84q123 0 176 -62.5
t53 -200.5v-251h-150v53h-3q-18 -30 -56.5 -47.5t-84.5 -17.5q-71 0 -126 38t-55 118q0 168 320 168v8q0 35 -25 53.5t-65 18.5q-67 0 -123 -51zM358 200v17h-21q-153 0 -153 -68q0 -26 21 -38.5t50 -12.5q50 0 76.5 27t26.5 75z" />
    <glyph glyph-name="uni1E02" unicode="&#x1e02;" horiz-adv-x="665" 
d="M409 849q0 -36 -26 -60.5t-64 -24.5t-63.5 24.5t-25.5 60.5t25.5 61t63.5 25t64 -25t26 -61zM454 222q0 78 -121 78h-95v-162h96q120 0 120 84zM431 503q0 69 -109 69h-84v-146h92q101 0 101 77zM625 206q0 -74 -40.5 -122t-98.5 -66t-131 -18h-282v708h282
q45 0 84.5 -8.5t76.5 -28t58.5 -57t21.5 -88.5q0 -114 -116 -153v-2q63 -10 104 -54t41 -111z" />
    <glyph glyph-name="uni1E03" unicode="&#x1e03;" horiz-adv-x="659" 
d="M239 879q0 -36 -26 -60.5t-64 -24.5t-63.5 24.5t-25.5 60.5t25.5 61t63.5 25t64 -25t26 -61zM461 251q0 52 -31.5 89.5t-86.5 37.5q-53 0 -86.5 -38.5t-33.5 -89.5t33.5 -89.5t86.5 -38.5q55 0 86.5 38.5t31.5 90.5zM619 251q0 -109 -64.5 -187t-172.5 -78q-51 0 -95 21
t-68 58h-2v-65h-151v756h164v-311h2q57 67 152 67q105 0 170 -76t65 -185z" />
    <glyph glyph-name="Bdotbelow" unicode="&#x1e04;" horiz-adv-x="665" 
d="M429 -161q0 -36 -26 -60.5t-64 -24.5t-63.5 24.5t-25.5 60.5t25.5 61t63.5 25t64 -25t26 -61zM454 222q0 78 -121 78h-95v-162h96q120 0 120 84zM431 503q0 69 -109 69h-84v-146h92q101 0 101 77zM625 206q0 -74 -40.5 -122t-98.5 -66t-131 -18h-282v708h282
q45 0 84.5 -8.5t76.5 -28t58.5 -57t21.5 -88.5q0 -114 -116 -153v-2q63 -10 104 -54t41 -111z" />
    <glyph glyph-name="bdotbelow" unicode="&#x1e05;" horiz-adv-x="659" 
d="M452 -175q0 -36 -26 -60.5t-64 -24.5t-63.5 24.5t-25.5 60.5t25.5 61t63.5 25t64 -25t26 -61zM461 251q0 52 -31.5 89.5t-86.5 37.5q-53 0 -86.5 -38.5t-33.5 -89.5t33.5 -89.5t86.5 -38.5q55 0 86.5 38.5t31.5 90.5zM619 251q0 -109 -64.5 -187t-172.5 -78q-51 0 -95 21
t-68 58h-2v-65h-151v756h164v-311h2q57 67 152 67q105 0 170 -76t65 -185z" />
    <glyph glyph-name="Blinebelow" unicode="&#x1e06;" horiz-adv-x="665" 
d="M467 -161h-336v86h336v-86zM454 222q0 78 -121 78h-95v-162h96q120 0 120 84zM431 503q0 69 -109 69h-84v-146h92q101 0 101 77zM625 206q0 -74 -40.5 -122t-98.5 -66t-131 -18h-282v708h282q45 0 84.5 -8.5t76.5 -28t58.5 -57t21.5 -88.5q0 -114 -116 -153v-2
q63 -10 104 -54t41 -111z" />
    <glyph glyph-name="blinebelow" unicode="&#x1e07;" horiz-adv-x="659" 
d="M480 -175h-336v86h336v-86zM461 251q0 52 -31.5 89.5t-86.5 37.5q-53 0 -86.5 -38.5t-33.5 -89.5t33.5 -89.5t86.5 -38.5q55 0 86.5 38.5t31.5 90.5zM619 251q0 -109 -64.5 -187t-172.5 -78q-51 0 -95 21t-68 58h-2v-65h-151v756h164v-311h2q57 67 152 67q105 0 170 -76
t65 -185z" />
    <glyph glyph-name="Ccedillaacute" unicode="&#x1e08;" horiz-adv-x="696" 
d="M583 946l-146 -144h-124l104 144h166zM531 -142q0 -52 -44.5 -75t-102.5 -23q-67 0 -119 25l27 60q40 -19 84 -19q50 0 50 33q0 29 -47 29q-22 0 -40 -6l-31 29l55 74q-143 18 -233 119t-90 251q0 168 109.5 270t274.5 102q77 0 149 -27t116 -77l-116 -116
q-47 65 -143 65q-89 0 -146.5 -61.5t-57.5 -155.5q0 -96 56.5 -156.5t144.5 -60.5q98 0 150 72l119 -112q-94 -109 -254 -116l-32 -42q7 1 18 1q103 0 103 -83z" />
    <glyph glyph-name="ccedillaacute" unicode="&#x1e09;" horiz-adv-x="503" 
d="M435 733l-146 -144h-124l104 144h166zM430 -142q0 -52 -44.5 -75t-102.5 -23q-67 0 -119 25l27 60q40 -19 84 -19q50 0 50 33q0 29 -47 29q-22 0 -40 -6l-31 29l58 77q-101 15 -163.5 84.5t-62.5 176.5q0 120 79 192.5t199 72.5q54 0 104.5 -18.5t80.5 -48.5l-95 -110
q-32 40 -87 40q-50 0 -82.5 -38t-32.5 -90q0 -53 32 -90t85 -37q58 0 89 37l91 -111q-57 -55 -158 -63l-35 -45q7 1 18 1q103 0 103 -83z" />
    <glyph glyph-name="uni1E0A" unicode="&#x1e0a;" horiz-adv-x="774" 
d="M441 849q0 -36 -26 -60.5t-64 -24.5t-63.5 24.5t-25.5 60.5t25.5 61t63.5 25t64 -25t26 -61zM556 356q0 110 -65.5 158t-165.5 48h-85v-414h81q49 0 89 11t74 34t53 64.5t19 98.5zM734 356q0 -90 -34 -160t-91.5 -112t-126.5 -63t-145 -21h-264v708h256q63 0 119.5 -10.5
t109.5 -36.5t91.5 -65t61.5 -100.5t23 -139.5z" />
    <glyph glyph-name="uni1E0B" unicode="&#x1e0b;" horiz-adv-x="658" 
d="M600 879q0 -36 -26 -60.5t-64 -24.5t-63.5 24.5t-25.5 60.5t25.5 61t63.5 25t64 -25t26 -61zM435 250q0 51 -33.5 89.5t-86.5 38.5q-55 0 -86.5 -37.5t-31.5 -89.5t31.5 -90.5t86.5 -38.5q53 0 86.5 38.5t33.5 89.5zM592 0h-151v65h-2q-24 -37 -68 -58t-95 -21
q-108 0 -172.5 78t-64.5 187t65 185t170 76q95 0 152 -67h2v311h164v-756z" />
    <glyph glyph-name="Ddotbelow" unicode="&#x1e0c;" horiz-adv-x="774" 
d="M443 -161q0 -36 -26 -60.5t-64 -24.5t-63.5 24.5t-25.5 60.5t25.5 61t63.5 25t64 -25t26 -61zM556 356q0 110 -65.5 158t-165.5 48h-85v-414h81q49 0 89 11t74 34t53 64.5t19 98.5zM734 356q0 -90 -34 -160t-91.5 -112t-126.5 -63t-145 -21h-264v708h256
q63 0 119.5 -10.5t109.5 -36.5t91.5 -65t61.5 -100.5t23 -139.5z" />
    <glyph glyph-name="ddotbelow" unicode="&#x1e0d;" horiz-adv-x="658" 
d="M471 -175q0 -36 -26 -60.5t-64 -24.5t-63.5 24.5t-25.5 60.5t25.5 61t63.5 25t64 -25t26 -61zM435 250q0 51 -33.5 89.5t-86.5 38.5q-55 0 -86.5 -37.5t-31.5 -89.5t31.5 -90.5t86.5 -38.5q53 0 86.5 38.5t33.5 89.5zM592 0h-151v65h-2q-24 -37 -68 -58t-95 -21
q-108 0 -172.5 78t-64.5 187t65 185t170 76q95 0 152 -67h2v311h164v-756z" />
    <glyph glyph-name="Dlinebelow" unicode="&#x1e0e;" horiz-adv-x="774" 
d="M491 -161h-336v86h336v-86zM556 356q0 110 -65.5 158t-165.5 48h-85v-414h81q49 0 89 11t74 34t53 64.5t19 98.5zM734 356q0 -90 -34 -160t-91.5 -112t-126.5 -63t-145 -21h-264v708h256q63 0 119.5 -10.5t109.5 -36.5t91.5 -65t61.5 -100.5t23 -139.5z" />
    <glyph glyph-name="dlinebelow" unicode="&#x1e0f;" horiz-adv-x="658" 
d="M533 -175h-336v86h336v-86zM435 250q0 51 -33.5 89.5t-86.5 38.5q-55 0 -86.5 -37.5t-31.5 -89.5t31.5 -90.5t86.5 -38.5q53 0 86.5 38.5t33.5 89.5zM592 0h-151v65h-2q-24 -37 -68 -58t-95 -21q-108 0 -172.5 78t-64.5 187t65 185t170 76q95 0 152 -67h2v311h164v-756z
" />
    <glyph glyph-name="Dcommaaccent" unicode="&#x1e10;" horiz-adv-x="774" 
d="M439 -75l-97 -284h-135l75 284h157zM556 356q0 110 -65.5 158t-165.5 48h-85v-414h81q49 0 89 11t74 34t53 64.5t19 98.5zM734 356q0 -90 -34 -160t-91.5 -112t-126.5 -63t-145 -21h-264v708h256q63 0 119.5 -10.5t109.5 -36.5t91.5 -65t61.5 -100.5t23 -139.5z" />
    <glyph glyph-name="dcommaaccent" unicode="&#x1e11;" horiz-adv-x="658" 
d="M471 -89l-97 -284h-135l75 284h157zM435 250q0 51 -33.5 89.5t-86.5 38.5q-55 0 -86.5 -37.5t-31.5 -89.5t31.5 -90.5t86.5 -38.5q53 0 86.5 38.5t33.5 89.5zM592 0h-151v65h-2q-24 -37 -68 -58t-95 -21q-108 0 -172.5 78t-64.5 187t65 185t170 76q95 0 152 -67h2v311
h164v-756z" />
    <glyph glyph-name="Dcircumflexbelow" unicode="&#x1e12;" horiz-adv-x="774" 
d="M530 -219h-130l-68 81l-68 -81h-128l124 144h148zM556 356q0 110 -65.5 158t-165.5 48h-85v-414h81q49 0 89 11t74 34t53 64.5t19 98.5zM734 356q0 -90 -34 -160t-91.5 -112t-126.5 -63t-145 -21h-264v708h256q63 0 119.5 -10.5t109.5 -36.5t91.5 -65t61.5 -100.5
t23 -139.5z" />
    <glyph glyph-name="dcircumflexbelow" unicode="&#x1e13;" horiz-adv-x="658" 
d="M572 -233h-130l-68 81l-68 -81h-128l124 144h148zM435 250q0 51 -33.5 89.5t-86.5 38.5q-55 0 -86.5 -37.5t-31.5 -89.5t31.5 -90.5t86.5 -38.5q53 0 86.5 38.5t33.5 89.5zM592 0h-151v65h-2q-24 -37 -68 -58t-95 -21q-108 0 -172.5 78t-64.5 187t65 185t170 76
q95 0 152 -67h2v311h164v-756z" />
    <glyph glyph-name="Emacrongrave" unicode="&#x1e14;" horiz-adv-x="607" 
d="M397 944h-124l-146 144h166zM488 783h-336v86h336v-86zM567 0h-494v708h476v-145h-311v-133h294v-137h-294v-147h329v-146z" />
    <glyph glyph-name="emacrongrave" unicode="&#x1e15;" horiz-adv-x="596" 
d="M393 750h-124l-146 144h166zM466 589h-336v86h336v-86zM558 243q0 -27 -1 -39h-361q4 -40 39 -67t80 -27q71 0 110 52l114 -72q-73 -106 -226 -106q-117 0 -195.5 70.5t-78.5 192.5q0 120 76.5 193.5t192.5 73.5q112 0 181 -72.5t69 -198.5zM196 306h211q0 41 -25.5 68
t-72.5 27t-79 -27.5t-34 -67.5z" />
    <glyph glyph-name="Emacronacute" unicode="&#x1e16;" horiz-adv-x="607" 
d="M525 1088l-146 -144h-124l104 144h166zM488 783h-336v86h336v-86zM567 0h-494v708h476v-145h-311v-133h294v-137h-294v-147h329v-146z" />
    <glyph glyph-name="emacronacute" unicode="&#x1e17;" horiz-adv-x="596" 
d="M503 894l-146 -144h-124l104 144h166zM466 589h-336v86h336v-86zM558 243q0 -27 -1 -39h-361q4 -40 39 -67t80 -27q71 0 110 52l114 -72q-73 -106 -226 -106q-117 0 -195.5 70.5t-78.5 192.5q0 120 76.5 193.5t192.5 73.5q112 0 181 -72.5t69 -198.5zM196 306h211
q0 41 -25.5 68t-72.5 27t-79 -27.5t-34 -67.5z" />
    <glyph glyph-name="Ecircumflexbelow" unicode="&#x1e18;" horiz-adv-x="607" 
d="M517 -219h-130l-68 81l-68 -81h-128l124 144h148zM567 0h-494v708h476v-145h-311v-133h294v-137h-294v-147h329v-146z" />
    <glyph glyph-name="ecircumflexbelow" unicode="&#x1e19;" horiz-adv-x="596" 
d="M495 -235h-130l-68 81l-68 -81h-128l124 144h148zM558 243q0 -27 -1 -39h-361q4 -40 39 -67t80 -27q71 0 110 52l114 -72q-73 -106 -226 -106q-117 0 -195.5 70.5t-78.5 192.5q0 120 76.5 193.5t192.5 73.5q112 0 181 -72.5t69 -198.5zM196 306h211q0 41 -25.5 68
t-72.5 27t-79 -27.5t-34 -67.5z" />
    <glyph glyph-name="Etildebelow" unicode="&#x1e1a;" horiz-adv-x="607" 
d="M435 -75h71q-7 -57 -35 -94.5t-78 -37.5q-34 0 -81 21q-36 20 -63 20q-29 0 -42 -40h-72q7 57 34.5 93.5t78.5 36.5q35 0 80 -20q43 -20 65 -20q30 0 42 41zM567 0h-494v708h476v-145h-311v-133h294v-137h-294v-147h329v-146z" />
    <glyph glyph-name="etildebelow" unicode="&#x1e1b;" horiz-adv-x="596" 
d="M413 -91h71q-7 -57 -35 -94.5t-78 -37.5q-34 0 -81 21q-36 20 -63 20q-29 0 -42 -40h-72q7 57 34.5 93.5t78.5 36.5q35 0 80 -20q43 -20 65 -20q30 0 42 41zM558 243q0 -27 -1 -39h-361q4 -40 39 -67t80 -27q71 0 110 52l114 -72q-73 -106 -226 -106q-117 0 -195.5 70.5
t-78.5 192.5q0 120 76.5 193.5t192.5 73.5q112 0 181 -72.5t69 -198.5zM196 306h211q0 41 -25.5 68t-72.5 27t-79 -27.5t-34 -67.5z" />
    <glyph glyph-name="Ecedillabreve" unicode="&#x1e1c;" horiz-adv-x="607" 
d="M410 927h84q-6 -74 -53 -109t-122 -35q-74 0 -120.5 34.5t-52.5 109.5h84q6 -29 32 -44q23 -11 58 -11q39 0 61.5 11.5t28.5 43.5zM453 -142q0 -52 -44.5 -75t-102.5 -23q-67 0 -119 25l27 60q40 -19 84 -19q50 0 50 33q0 29 -47 29q-22 0 -40 -6l-31 29l67 89h-224v708
h476v-145h-311v-133h294v-137h-294v-147h329v-146h-188l-47 -60q7 1 18 1q103 0 103 -83z" />
    <glyph glyph-name="ecedillabreve" unicode="&#x1e1d;" horiz-adv-x="596" 
d="M196 306h211q0 41 -25.5 68t-72.5 27t-79 -27.5t-34 -67.5zM388 733h84q-6 -74 -53 -109t-122 -35q-74 0 -120.5 34.5t-52.5 109.5h84q6 -29 32 -44q23 -11 58 -11q39 0 61.5 11.5t28.5 43.5zM431 -158q0 -52 -44.5 -75t-102.5 -23q-67 0 -119 25l27 60q40 -19 84 -19
q50 0 50 33q0 29 -47 29q-22 0 -40 -6l-31 29l63 92q-103 13 -167.5 81t-64.5 179q0 120 76.5 193.5t192.5 73.5q112 0 181 -72.5t69 -198.5q0 -27 -1 -39h-361q4 -40 39 -67t80 -27q71 0 110 52l114 -72q-63 -91 -186 -104l-43 -62q7 1 18 1q103 0 103 -83z" />
    <glyph glyph-name="uni1E1E" unicode="&#x1e1e;" horiz-adv-x="576" 
d="M395 849q0 -36 -26 -60.5t-64 -24.5t-63.5 24.5t-25.5 60.5t25.5 61t63.5 25t64 -25t26 -61zM539 562h-297v-146h274v-141h-274v-275h-169v708h466v-146z" />
    <glyph glyph-name="uni1E1F" unicode="&#x1e1f;" horiz-adv-x="364" 
d="M275 891q0 -36 -26 -60.5t-64 -24.5t-63.5 24.5t-25.5 60.5t25.5 61t63.5 25t64 -25t26 -61zM384 765l-11 -130q-21 7 -45 7q-73 0 -73 -94v-50h111v-123h-111v-375h-164v375h-91v123h91v48q0 229 214 229q46 0 79 -10z" />
    <glyph glyph-name="Gmacron" unicode="&#x1e20;" horiz-adv-x="769" 
d="M569 802h-336v86h336v-86zM702 418v-375q-117 -61 -273 -61q-171 0 -280 103.5t-109 269.5q0 168 109.5 270t274.5 102q83 0 155 -25.5t118 -68.5l-108 -123q-56 66 -159 66q-90 0 -149 -62.5t-59 -158.5q0 -101 56.5 -162t159.5 -61q62 0 107 19v129h-135v138h292z" />
    <glyph glyph-name="gmacron" unicode="&#x1e21;" horiz-adv-x="658" 
d="M523 587h-336v86h336v-86zM436 252q0 53 -33.5 89.5t-87.5 36.5t-85.5 -36t-31.5 -90q0 -53 32 -90t85 -37q55 0 88 37t33 90zM592 498v-451q0 -142 -78 -214.5t-215 -72.5q-68 0 -137 20.5t-119 57.5l82 117q70 -63 165 -63q70 0 105.5 37t35.5 102v30h-3
q-51 -66 -151 -66q-110 0 -174 73.5t-64 182.5q0 108 64.5 184.5t172.5 76.5q107 0 159 -78h2v64h155z" />
    <glyph glyph-name="uni1E22" unicode="&#x1e22;" horiz-adv-x="764" 
d="M472 849q0 -36 -26 -60.5t-64 -24.5t-63.5 24.5t-25.5 60.5t25.5 61t63.5 25t64 -25t26 -61zM691 0h-171v296h-276v-296h-171v708h171v-268h276v268h171v-708z" />
    <glyph glyph-name="uni1E23" unicode="&#x1e23;" horiz-adv-x="617" 
d="M243 879q0 -36 -26 -60.5t-64 -24.5t-63.5 24.5t-25.5 60.5t25.5 61t63.5 25t64 -25t26 -61zM557 0h-165v270q0 105 -73 105q-42 0 -65.5 -30t-23.5 -76v-269h-164v756h164v-321h2q19 33 56.5 55t86.5 22q94 0 138 -59.5t44 -144.5v-308z" />
    <glyph glyph-name="Hdotbelow" unicode="&#x1e24;" horiz-adv-x="764" 
d="M472 -161q0 -36 -26 -60.5t-64 -24.5t-63.5 24.5t-25.5 60.5t25.5 61t63.5 25t64 -25t26 -61zM691 0h-171v296h-276v-296h-171v708h171v-268h276v268h171v-708z" />
    <glyph glyph-name="hdotbelow" unicode="&#x1e25;" horiz-adv-x="617" 
d="M401 -161q0 -36 -26 -60.5t-64 -24.5t-63.5 24.5t-25.5 60.5t25.5 61t63.5 25t64 -25t26 -61zM557 0h-165v270q0 105 -73 105q-42 0 -65.5 -30t-23.5 -76v-269h-164v756h164v-321h2q19 33 56.5 55t86.5 22q94 0 138 -59.5t44 -144.5v-308z" />
    <glyph glyph-name="Hdieresis" unicode="&#x1e26;" horiz-adv-x="764" 
d="M357 865q0 -35 -24.5 -58.5t-59.5 -23.5t-59 24t-24 58q0 33 24.5 57t58.5 24q35 0 59.5 -23.5t24.5 -57.5zM574 865q0 -35 -24.5 -58.5t-58.5 -23.5q-35 0 -59 24t-24 58q0 33 24 57t59 24q34 0 58.5 -23.5t24.5 -57.5zM691 0h-171v296h-276v-296h-171v708h171v-268h276
v268h171v-708z" />
    <glyph glyph-name="hdieresis" unicode="&#x1e27;" horiz-adv-x="617" 
d="M124 913q0 -35 -24.5 -58.5t-59.5 -23.5t-59 24t-24 58q0 33 24.5 57t58.5 24q35 0 59.5 -23.5t24.5 -57.5zM341 913q0 -35 -24.5 -58.5t-58.5 -23.5q-35 0 -59 24t-24 58q0 33 24 57t59 24q34 0 58.5 -23.5t24.5 -57.5zM557 0h-165v270q0 105 -73 105q-42 0 -65.5 -30
t-23.5 -76v-269h-164v756h164v-321h2q19 33 56.5 55t86.5 22q94 0 138 -59.5t44 -144.5v-308z" />
    <glyph glyph-name="Hcedilla" unicode="&#x1e28;" horiz-adv-x="764" 
d="M318 -142q0 -52 -44.5 -75t-102.5 -23q-67 0 -119 25l27 60q40 -19 84 -19q50 0 50 33q0 29 -47 29q-22 0 -40 -6l-31 29l67 89h-89v708h171v-268h276v268h171v-708h-171v296h-276v-296l-47 -60q7 1 18 1q103 0 103 -83z" />
    <glyph glyph-name="hcedilla" unicode="&#x1e29;" horiz-adv-x="617" 
d="M304 -142q0 -52 -44.5 -75t-102.5 -23q-67 0 -119 25l27 60q40 -19 84 -19q50 0 50 33q0 29 -47 29q-22 0 -40 -6l-31 29l67 89h-82v756h164v-321h2q19 33 56.5 55t86.5 22q94 0 138 -59.5t44 -144.5v-308h-165v270q0 105 -73 105q-42 0 -65.5 -30t-23.5 -76v-269
l-47 -60q7 1 18 1q103 0 103 -83z" />
    <glyph glyph-name="Hbrevebelow" unicode="&#x1e2a;" horiz-adv-x="764" 
d="M472 -75h84q-6 -74 -53 -109t-122 -35q-74 0 -120.5 34.5t-52.5 109.5h84q6 -29 32 -44q23 -11 58 -11q39 0 61.5 11.5t28.5 43.5zM691 0h-171v296h-276v-296h-171v708h171v-268h276v268h171v-708z" />
    <glyph glyph-name="hbrevebelow" unicode="&#x1e2b;" horiz-adv-x="617" 
d="M401 -75h84q-6 -74 -53 -109t-122 -35q-74 0 -120.5 34.5t-52.5 109.5h84q6 -29 32 -44q23 -11 58 -11q39 0 61.5 11.5t28.5 43.5zM557 0h-165v270q0 105 -73 105q-42 0 -65.5 -30t-23.5 -76v-269h-164v756h164v-321h2q19 33 56.5 55t86.5 22q94 0 138 -59.5t44 -144.5
v-308z" />
    <glyph glyph-name="Itildebelow" unicode="&#x1e2c;" horiz-adv-x="318" 
d="M274 -75h71q-7 -57 -35 -94.5t-78 -37.5q-34 0 -81 21q-36 20 -63 20q-29 0 -42 -40h-72q7 57 34.5 93.5t78.5 36.5q35 0 80 -20q43 -20 65 -20q30 0 42 41zM245 0h-172v708h172v-708z" />
    <glyph glyph-name="itildebelow" unicode="&#x1e2d;" horiz-adv-x="296" 
d="M263 -75h71q-7 -57 -35 -94.5t-78 -37.5q-34 0 -81 21q-36 20 -63 20q-29 0 -42 -40h-72q7 57 34.5 93.5t78.5 36.5q35 0 80 -20q43 -20 65 -20q30 0 42 41zM230 0h-164v498h164v-498zM242 657q0 -38 -27.5 -64t-66.5 -26t-66.5 26.5t-27.5 63.5q0 36 27.5 63t66.5 27
t66.5 -26t27.5 -64z" />
    <glyph glyph-name="Idieresisacute" unicode="&#x1e2e;" horiz-adv-x="318" 
d="M364 1165l-146 -144h-124l104 144h166zM134 865q0 -35 -24.5 -58.5t-59.5 -23.5t-59 24t-24 58q0 33 24.5 57t58.5 24q35 0 59.5 -23.5t24.5 -57.5zM351 865q0 -35 -24.5 -58.5t-58.5 -23.5q-35 0 -59 24t-24 58q0 33 24 57t59 24q34 0 58.5 -23.5t24.5 -57.5zM245 0
h-172v708h172v-708z" />
    <glyph glyph-name="idieresisacute" unicode="&#x1e2f;" horiz-adv-x="296" 
d="M353 955l-146 -144h-124l104 144h166zM123 655q0 -35 -24.5 -58.5t-59.5 -23.5t-59 24t-24 58q0 33 24.5 57t58.5 24q35 0 59.5 -23.5t24.5 -57.5zM340 655q0 -35 -24.5 -58.5t-58.5 -23.5q-35 0 -59 24t-24 58q0 33 24 57t59 24q34 0 58.5 -23.5t24.5 -57.5zM230 0h-164
v498h164v-498z" />
    <glyph glyph-name="Kacute" unicode="&#x1e30;" horiz-adv-x="711" 
d="M553 927l-146 -144h-124l104 144h166zM729 0h-223l-263 326h-2v-326h-168v708h168v-288h3l253 288h214l-305 -326z" />
    <glyph glyph-name="kacute" unicode="&#x1e31;" horiz-adv-x="595" 
d="M354 975l-146 -144h-124l104 144h166zM399 273l200 -273h-203l-163 239h-3v-239h-165v756h165v-460h3l159 202h199z" />
    <glyph glyph-name="Kdotbelow" unicode="&#x1e32;" horiz-adv-x="711" 
d="M447 -161q0 -36 -26 -60.5t-64 -24.5t-63.5 24.5t-25.5 60.5t25.5 61t63.5 25t64 -25t26 -61zM729 0h-223l-263 326h-2v-326h-168v708h168v-288h3l253 288h214l-305 -326z" />
    <glyph glyph-name="kdotbelow" unicode="&#x1e33;" horiz-adv-x="595" 
d="M393 -161q0 -36 -26 -60.5t-64 -24.5t-63.5 24.5t-25.5 60.5t25.5 61t63.5 25t64 -25t26 -61zM399 273l200 -273h-203l-163 239h-3v-239h-165v756h165v-460h3l159 202h199z" />
    <glyph glyph-name="Klinebelow" unicode="&#x1e34;" horiz-adv-x="711" 
d="M539 -161h-336v86h336v-86zM729 0h-223l-263 326h-2v-326h-168v708h168v-288h3l253 288h214l-305 -326z" />
    <glyph glyph-name="klinebelow" unicode="&#x1e35;" horiz-adv-x="595" 
d="M480 -161h-336v86h336v-86zM399 273l200 -273h-203l-163 239h-3v-239h-165v756h165v-460h3l159 202h199z" />
    <glyph glyph-name="Ldotbelow" unicode="&#x1e36;" horiz-adv-x="526" 
d="M366 -161q0 -36 -26 -60.5t-64 -24.5t-63.5 24.5t-25.5 60.5t25.5 61t63.5 25t64 -25t26 -61zM519 0h-446v708h172v-559h274v-149z" />
    <glyph glyph-name="ldotbelow" unicode="&#x1e37;" horiz-adv-x="298" 
d="M239 -161q0 -36 -26 -60.5t-64 -24.5t-63.5 24.5t-25.5 60.5t25.5 61t63.5 25t64 -25t26 -61zM232 0h-166v756h166v-756z" />
    <glyph glyph-name="Ldotbelowmacron" unicode="&#x1e38;" horiz-adv-x="526" 
d="M329 783h-336v86h336v-86zM376 -161q0 -36 -26 -60.5t-64 -24.5t-63.5 24.5t-25.5 60.5t25.5 61t63.5 25t64 -25t26 -61zM519 0h-446v708h172v-559h274v-149z" />
    <glyph glyph-name="ldotbelowmacron" unicode="&#x1e39;" horiz-adv-x="298" 
d="M317 831h-336v86h336v-86zM239 -161q0 -36 -26 -60.5t-64 -24.5t-63.5 24.5t-25.5 60.5t25.5 61t63.5 25t64 -25t26 -61zM232 0h-166v756h166v-756z" />
    <glyph glyph-name="Llinebelow" unicode="&#x1e3a;" horiz-adv-x="526" 
d="M454 -161h-336v86h336v-86zM519 0h-446v708h172v-559h274v-149z" />
    <glyph glyph-name="llinebelow" unicode="&#x1e3b;" horiz-adv-x="298" 
d="M317 -161h-336v86h336v-86zM232 0h-166v756h166v-756z" />
    <glyph glyph-name="Lcircumflexbelow" unicode="&#x1e3c;" horiz-adv-x="526" 
d="M483 -219h-130l-68 81l-68 -81h-128l124 144h148zM519 0h-446v708h172v-559h274v-149z" />
    <glyph glyph-name="lcircumflexbelow" unicode="&#x1e3d;" horiz-adv-x="298" 
d="M346 -219h-130l-68 81l-68 -81h-128l124 144h148zM232 0h-166v756h166v-756z" />
    <glyph glyph-name="Macute" unicode="&#x1e3e;" horiz-adv-x="955" 
d="M662 927l-146 -144h-124l104 144h166zM882 0h-167l4 501h-3l-184 -501h-120l-179 501h-3l4 -501h-161v708h243l161 -454h4l154 454h247v-708z" />
    <glyph glyph-name="macute" unicode="&#x1e3f;" horiz-adv-x="924" 
d="M679 731l-146 -144h-124l104 144h166zM864 0h-164v272q0 105 -71 105q-40 0 -61.5 -31.5t-21.5 -76.5v-269h-164v284q0 93 -71 93q-38 0 -60 -30.5t-22 -76.5v-270h-165v498h159v-69h2q20 35 58.5 59t90.5 24q107 0 150 -85q54 85 159 85q64 0 106.5 -32.5t58.5 -76.5
t16 -95v-308z" />
    <glyph glyph-name="Mdotaccent" unicode="&#x1e40;" horiz-adv-x="955" 
d="M567 868q0 -36 -26 -60.5t-64 -24.5t-63.5 24.5t-25.5 60.5t25.5 61t63.5 25t64 -25t26 -61zM882 0h-167l4 501h-3l-184 -501h-120l-179 501h-3l4 -501h-161v708h243l161 -454h4l154 454h247v-708z" />
    <glyph glyph-name="mdotaccent" unicode="&#x1e41;" horiz-adv-x="924" 
d="M584 672q0 -36 -26 -60.5t-64 -24.5t-63.5 24.5t-25.5 60.5t25.5 61t63.5 25t64 -25t26 -61zM864 0h-164v272q0 105 -71 105q-40 0 -61.5 -31.5t-21.5 -76.5v-269h-164v284q0 93 -71 93q-38 0 -60 -30.5t-22 -76.5v-270h-165v498h159v-69h2q20 35 58.5 59t90.5 24
q107 0 150 -85q54 85 159 85q64 0 106.5 -32.5t58.5 -76.5t16 -95v-308z" />
    <glyph glyph-name="Mdotbelow" unicode="&#x1e42;" horiz-adv-x="955" 
d="M567 -161q0 -36 -26 -60.5t-64 -24.5t-63.5 24.5t-25.5 60.5t25.5 61t63.5 25t64 -25t26 -61zM882 0h-167l4 501h-3l-184 -501h-120l-179 501h-3l4 -501h-161v708h243l161 -454h4l154 454h247v-708z" />
    <glyph glyph-name="mdotbelow" unicode="&#x1e43;" horiz-adv-x="924" 
d="M554 -161q0 -36 -26 -60.5t-64 -24.5t-63.5 24.5t-25.5 60.5t25.5 61t63.5 25t64 -25t26 -61zM864 0h-164v272q0 105 -71 105q-40 0 -61.5 -31.5t-21.5 -76.5v-269h-164v284q0 93 -71 93q-38 0 -60 -30.5t-22 -76.5v-270h-165v498h159v-69h2q20 35 58.5 59t90.5 24
q107 0 150 -85q54 85 159 85q64 0 106.5 -32.5t58.5 -76.5t16 -95v-308z" />
    <glyph glyph-name="Ndotaccent" unicode="&#x1e44;" horiz-adv-x="790" 
d="M495 868q0 -36 -26 -60.5t-64 -24.5t-63.5 24.5t-25.5 60.5t25.5 61t63.5 25t64 -25t26 -61zM717 0h-194l-285 463h-3l4 -463h-166v708h195l284 -462h3l-4 462h166v-708z" />
    <glyph glyph-name="ndotaccent" unicode="&#x1e45;" horiz-adv-x="616" 
d="M410 672q0 -36 -26 -60.5t-64 -24.5t-63.5 24.5t-25.5 60.5t25.5 61t63.5 25t64 -25t26 -61zM556 0h-165v272q0 105 -74 105q-42 0 -65 -30.5t-23 -76.5v-270h-165v498h159v-69h2q20 35 59.5 59t89.5 24q93 0 137.5 -59.5t44.5 -144.5v-308z" />
    <glyph glyph-name="Ndotbelow" unicode="&#x1e46;" horiz-adv-x="790" 
d="M465 -161q0 -36 -26 -60.5t-64 -24.5t-63.5 24.5t-25.5 60.5t25.5 61t63.5 25t64 -25t26 -61zM717 0h-194l-285 463h-3l4 -463h-166v708h195l284 -462h3l-4 462h166v-708z" />
    <glyph glyph-name="ndotbelow" unicode="&#x1e47;" horiz-adv-x="616" 
d="M400 -161q0 -36 -26 -60.5t-64 -24.5t-63.5 24.5t-25.5 60.5t25.5 61t63.5 25t64 -25t26 -61zM556 0h-165v272q0 105 -74 105q-42 0 -65 -30.5t-23 -76.5v-270h-165v498h159v-69h2q20 35 59.5 59t89.5 24q93 0 137.5 -59.5t44.5 -144.5v-308z" />
    <glyph glyph-name="Nlinebelow" unicode="&#x1e48;" horiz-adv-x="790" 
d="M553 -161h-336v86h336v-86zM717 0h-194l-285 463h-3l4 -463h-166v708h195l284 -462h3l-4 462h166v-708z" />
    <glyph glyph-name="nlinebelow" unicode="&#x1e49;" horiz-adv-x="616" 
d="M478 -161h-336v86h336v-86zM556 0h-165v272q0 105 -74 105q-42 0 -65 -30.5t-23 -76.5v-270h-165v498h159v-69h2q20 35 59.5 59t89.5 24q93 0 137.5 -59.5t44.5 -144.5v-308z" />
    <glyph glyph-name="Ncircumflexbelow" unicode="&#x1e4a;" horiz-adv-x="790" 
d="M572 -219h-130l-68 81l-68 -81h-128l124 144h148zM717 0h-194l-285 463h-3l4 -463h-166v708h195l284 -462h3l-4 462h166v-708z" />
    <glyph glyph-name="ncircumflexbelow" unicode="&#x1e4b;" horiz-adv-x="616" 
d="M507 -219h-130l-68 81l-68 -81h-128l124 144h148zM556 0h-165v272q0 105 -74 105q-42 0 -65 -30.5t-23 -76.5v-270h-165v498h159v-69h2q20 35 59.5 59t89.5 24q93 0 137.5 -59.5t44.5 -144.5v-308z" />
    <glyph glyph-name="Otildeacute" unicode="&#x1e4c;" horiz-adv-x="851" 
d="M640 1153l-146 -144h-124l104 144h166zM540 934h71q-7 -57 -35 -94.5t-78 -37.5q-34 0 -81 21q-36 20 -63 20q-29 0 -42 -40h-72q7 57 34.5 93.5t78.5 36.5q35 0 80 -20q43 -20 65 -20q30 0 42 41zM628 357q0 94 -57 155t-146 61t-145.5 -61t-56.5 -155q0 -96 56.5 -158
t145.5 -62t146 62t57 158zM811 357q0 -167 -109 -271.5t-277 -104.5q-167 0 -276 104.5t-109 271.5q0 168 108.5 269t276.5 101q169 0 277.5 -101t108.5 -269z" />
    <glyph glyph-name="otildeacute" unicode="&#x1e4d;" horiz-adv-x="632" 
d="M520 940l-146 -144h-124l104 144h166zM430 721h71q-7 -57 -35 -94.5t-78 -37.5q-34 0 -81 21q-36 20 -63 20q-29 0 -42 -40h-72q7 57 34.5 93.5t78.5 36.5q35 0 80 -20q43 -20 65 -20q30 0 42 41zM434 251q0 51 -32.5 89t-86.5 38q-55 0 -86 -37.5t-31 -89.5t31.5 -90.5
t86.5 -38.5t86.5 38.5t31.5 90.5zM592 251q0 -119 -80 -193t-197 -74q-116 0 -196 74t-80 193t79.5 191t196.5 72t197 -72t80 -191z" />
    <glyph glyph-name="Otildedieresis" unicode="&#x1e4e;" horiz-adv-x="851" 
d="M400 1091q0 -35 -24.5 -58.5t-59.5 -23.5t-59 24t-24 58q0 33 24.5 57t58.5 24q35 0 59.5 -23.5t24.5 -57.5zM617 1091q0 -35 -24.5 -58.5t-58.5 -23.5q-35 0 -59 24t-24 58q0 33 24 57t59 24q34 0 58.5 -23.5t24.5 -57.5zM540 934h71q-7 -57 -35 -94.5t-78 -37.5
q-34 0 -81 21q-36 20 -63 20q-29 0 -42 -40h-72q7 57 34.5 93.5t78.5 36.5q35 0 80 -20q43 -20 65 -20q30 0 42 41zM628 357q0 94 -57 155t-146 61t-145.5 -61t-56.5 -155q0 -96 56.5 -158t145.5 -62t146 62t57 158zM811 357q0 -167 -109 -271.5t-277 -104.5
q-167 0 -276 104.5t-109 271.5q0 168 108.5 269t276.5 101q169 0 277.5 -101t108.5 -269z" />
    <glyph glyph-name="otildedieresis" unicode="&#x1e4f;" horiz-adv-x="632" 
d="M290 878q0 -35 -24.5 -58.5t-59.5 -23.5t-59 24t-24 58q0 33 24.5 57t58.5 24q35 0 59.5 -23.5t24.5 -57.5zM507 878q0 -35 -24.5 -58.5t-58.5 -23.5q-35 0 -59 24t-24 58q0 33 24 57t59 24q34 0 58.5 -23.5t24.5 -57.5zM430 721h71q-7 -57 -35 -94.5t-78 -37.5
q-34 0 -81 21q-36 20 -63 20q-29 0 -42 -40h-72q7 57 34.5 93.5t78.5 36.5q35 0 80 -20q43 -20 65 -20q30 0 42 41zM434 251q0 51 -32.5 89t-86.5 38q-55 0 -86 -37.5t-31 -89.5t31.5 -90.5t86.5 -38.5t86.5 38.5t31.5 90.5zM592 251q0 -119 -80 -193t-197 -74
q-116 0 -196 74t-80 193t79.5 191t196.5 72t197 -72t80 -191z" />
    <glyph glyph-name="Omacrongrave" unicode="&#x1e50;" horiz-adv-x="851" 
d="M490 963h-124l-146 144h166zM593 802h-336v86h336v-86zM628 357q0 94 -57 155t-146 61t-145.5 -61t-56.5 -155q0 -96 56.5 -158t145.5 -62t146 62t57 158zM811 357q0 -167 -109 -271.5t-277 -104.5q-167 0 -276 104.5t-109 271.5q0 168 108.5 269t276.5 101
q169 0 277.5 -101t108.5 -269z" />
    <glyph glyph-name="omacrongrave" unicode="&#x1e51;" horiz-adv-x="632" 
d="M390 750h-124l-146 144h166zM483 589h-336v86h336v-86zM434 251q0 51 -32.5 89t-86.5 38q-55 0 -86 -37.5t-31 -89.5t31.5 -90.5t86.5 -38.5t86.5 38.5t31.5 90.5zM592 251q0 -119 -80 -193t-197 -74q-116 0 -196 74t-80 193t79.5 191t196.5 72t197 -72t80 -191z" />
    <glyph glyph-name="Omacronacute" unicode="&#x1e52;" horiz-adv-x="851" 
d="M620 1107l-146 -144h-124l104 144h166zM593 802h-336v86h336v-86zM628 357q0 94 -57 155t-146 61t-145.5 -61t-56.5 -155q0 -96 56.5 -158t145.5 -62t146 62t57 158zM811 357q0 -167 -109 -271.5t-277 -104.5q-167 0 -276 104.5t-109 271.5q0 168 108.5 269t276.5 101
q169 0 277.5 -101t108.5 -269z" />
    <glyph glyph-name="omacronacute" unicode="&#x1e53;" horiz-adv-x="632" 
d="M520 894l-146 -144h-124l104 144h166zM483 589h-336v86h336v-86zM434 251q0 51 -32.5 89t-86.5 38q-55 0 -86 -37.5t-31 -89.5t31.5 -90.5t86.5 -38.5t86.5 38.5t31.5 90.5zM592 251q0 -119 -80 -193t-197 -74q-116 0 -196 74t-80 193t79.5 191t196.5 72t197 -72t80 -191
z" />
    <glyph glyph-name="Pacute" unicode="&#x1e54;" horiz-adv-x="640" 
d="M484 927l-146 -144h-124l104 144h166zM439 489q0 81 -120 81h-75v-167h72q123 0 123 86zM610 490q0 -78 -40.5 -130t-101 -72.5t-139.5 -20.5h-85v-267h-171v708h260q126 0 201.5 -51.5t75.5 -166.5z" />
    <glyph glyph-name="pacute" unicode="&#x1e55;" horiz-adv-x="657" 
d="M486 731l-146 -144h-124l104 144h166zM459 251q0 52 -31 89.5t-86 37.5q-53 0 -86.5 -38.5t-33.5 -89.5t33.5 -89.5t86.5 -38.5q55 0 86 38.5t31 90.5zM618 251q0 -109 -64.5 -187t-172.5 -78q-46 0 -87 18.5t-64 50.5h-2v-295h-164v738h156v-61h3q58 75 159 75
q106 0 171 -76t65 -185z" />
    <glyph glyph-name="uni1E56" unicode="&#x1e56;" horiz-adv-x="640" 
d="M413 849q0 -36 -26 -60.5t-64 -24.5t-63.5 24.5t-25.5 60.5t25.5 61t63.5 25t64 -25t26 -61zM439 489q0 81 -120 81h-75v-167h72q123 0 123 86zM610 490q0 -78 -40.5 -130t-101 -72.5t-139.5 -20.5h-85v-267h-171v708h260q126 0 201.5 -51.5t75.5 -166.5z" />
    <glyph glyph-name="uni1E57" unicode="&#x1e57;" horiz-adv-x="657" 
d="M419 657q0 -36 -26 -60.5t-64 -24.5t-63.5 24.5t-25.5 60.5t25.5 61t63.5 25t64 -25t26 -61zM459 251q0 52 -31 89.5t-86 37.5q-53 0 -86.5 -38.5t-33.5 -89.5t33.5 -89.5t86.5 -38.5q55 0 86 38.5t31 90.5zM618 251q0 -109 -64.5 -187t-172.5 -78q-46 0 -87 18.5
t-64 50.5h-2v-295h-164v738h156v-61h3q58 75 159 75q106 0 171 -76t65 -185z" />
    <glyph glyph-name="Rdotaccent" unicode="&#x1e58;" horiz-adv-x="663" 
d="M404 868q0 -36 -26 -60.5t-64 -24.5t-63.5 24.5t-25.5 60.5t25.5 61t63.5 25t64 -25t26 -61zM445 491q0 79 -114 79h-91v-165h81q124 0 124 86zM652 0h-200l-153 281h-58v-281h-168v708h270q54 0 100 -11t86 -34.5t62.5 -66.5t22.5 -102q0 -71 -38.5 -120.5t-108.5 -70.5
z" />
    <glyph glyph-name="rdotaccent" unicode="&#x1e59;" horiz-adv-x="396" 
d="M309 672q0 -36 -26 -60.5t-64 -24.5t-63.5 24.5t-25.5 60.5t25.5 61t63.5 25t64 -25t26 -61zM394 508l-7 -144q-19 5 -42 5q-59 0 -88 -36.5t-29 -76.5v-256h-164v498h158v-72h2q19 39 54.5 62.5t80.5 23.5q24 0 35 -4z" />
    <glyph glyph-name="Rdotbelow" unicode="&#x1e5a;" horiz-adv-x="663" 
d="M442 -161q0 -36 -26 -60.5t-64 -24.5t-63.5 24.5t-25.5 60.5t25.5 61t63.5 25t64 -25t26 -61zM445 491q0 79 -114 79h-91v-165h81q124 0 124 86zM652 0h-200l-153 281h-58v-281h-168v708h270q54 0 100 -11t86 -34.5t62.5 -66.5t22.5 -102q0 -71 -38.5 -120.5
t-108.5 -70.5z" />
    <glyph glyph-name="rdotbelow" unicode="&#x1e5b;" horiz-adv-x="396" 
d="M236 -161q0 -36 -26 -60.5t-64 -24.5t-63.5 24.5t-25.5 60.5t25.5 61t63.5 25t64 -25t26 -61zM394 508l-7 -144q-19 5 -42 5q-59 0 -88 -36.5t-29 -76.5v-256h-164v498h158v-72h2q19 39 54.5 62.5t80.5 23.5q24 0 35 -4z" />
    <glyph glyph-name="Rdotbelowmacron" unicode="&#x1e5c;" horiz-adv-x="663" 
d="M432 -161q0 -36 -26 -60.5t-64 -24.5t-63.5 24.5t-25.5 60.5t25.5 61t63.5 25t64 -25t26 -61zM480 783h-336v86h336v-86zM445 491q0 79 -114 79h-91v-165h81q124 0 124 86zM652 0h-200l-153 281h-58v-281h-168v708h270q54 0 100 -11t86 -34.5t62.5 -66.5t22.5 -102
q0 -71 -38.5 -120.5t-108.5 -70.5z" />
    <glyph glyph-name="rdotbelowmacron" unicode="&#x1e5d;" horiz-adv-x="396" 
d="M235 -161q0 -36 -26 -60.5t-64 -24.5t-63.5 24.5t-25.5 60.5t25.5 61t63.5 25t64 -25t26 -61zM387 587h-336v86h336v-86zM394 508l-7 -144q-19 5 -42 5q-59 0 -88 -36.5t-29 -76.5v-256h-164v498h158v-72h2q19 39 54.5 62.5t80.5 23.5q24 0 35 -4z" />
    <glyph glyph-name="Rlinebelow" unicode="&#x1e5e;" horiz-adv-x="663" 
d="M520 -161h-336v86h336v-86zM445 491q0 79 -114 79h-91v-165h81q124 0 124 86zM652 0h-200l-153 281h-58v-281h-168v708h270q54 0 100 -11t86 -34.5t62.5 -66.5t22.5 -102q0 -71 -38.5 -120.5t-108.5 -70.5z" />
    <glyph glyph-name="rlinebelow" unicode="&#x1e5f;" horiz-adv-x="396" 
d="M315 -161h-336v86h336v-86zM394 508l-7 -144q-19 5 -42 5q-59 0 -88 -36.5t-29 -76.5v-256h-164v498h158v-72h2q19 39 54.5 62.5t80.5 23.5q24 0 35 -4z" />
    </font>
</defs>
</svg>
