<?xml version="1.0" standalone="no"?>
<!DOCTYPE svg PUBLIC "-//W3C//DTD SVG 1.1//EN" "http://www.w3.org/Graphics/SVG/1.1/DTD/svg11.dtd" >
<svg>
<metadata>
Created by FontForge 20090622 at Mon Oct  5 11:52:06 2020
 By deploy user
Copyright &#195;&#130;&#194;&#169; 2004 - 2007 Linotype GmbH, www.linotype.com. All rights reserved.
</metadata>
<defs>
<font id="AvenirNextLTPro-Demi" horiz-adv-x="610" >
  <font-face 
    font-family="Avenir Next LT Pro Demi"
    font-weight="600"
    font-stretch="normal"
    units-per-em="1000"
    panose-1="0 0 0 0 0 0 0 0 0 0"
    ascent="800"
    descent="-200"
    x-height="480"
    cap-height="708"
    bbox="-463 -458 1421 1206"
    underline-thickness="50"
    underline-position="-50"
    unicode-range="U+000D-U+FE48"
  />
<missing-glyph horiz-adv-x="512" 
d="M0 718h512v-718h-512v718zM50 50h412v617h-412v-617zM271 234h-46l-2 17q0 56 13 81q17 33 46 59q30 29 40 46.5t10 36.5q0 36 -22.5 60.5t-53.5 24.5q-71 0 -82 -95l-50 8q6 69 42 103t93 34q55 0 89.5 -36t34.5 -95q0 -34 -13 -60t-50 -60q-37 -33 -43 -52
q-6 -20 -6 -72zM278 117h-56v67h56v-67z" />
    <glyph glyph-name=".notdef" horiz-adv-x="512" 
d="M0 718h512v-718h-512v718zM50 50h412v617h-412v-617zM271 234h-46l-2 17q0 56 13 81q17 33 46 59q30 29 40 46.5t10 36.5q0 36 -22.5 60.5t-53.5 24.5q-71 0 -82 -95l-50 8q6 69 42 103t93 34q55 0 89.5 -36t34.5 -95q0 -34 -13 -60t-50 -60q-37 -33 -43 -52
q-6 -20 -6 -72zM278 117h-56v67h56v-67z" />
    <glyph glyph-name=".null" horiz-adv-x="500" 
 />
    <glyph glyph-name=".null" horiz-adv-x="500" 
 />
    <glyph glyph-name="nonmarkingreturn" horiz-adv-x="333" 
 />
    <glyph glyph-name="CR" unicode="&#xd;" horiz-adv-x="0" 
 />
    <glyph glyph-name="space" unicode=" " horiz-adv-x="250" 
 />
    <glyph glyph-name="exclam" unicode="!" horiz-adv-x="340" 
d="M90 70q0 32 23.5 55t56.5 23t56.5 -22t23.5 -54t-23.5 -55t-56.5 -23t-56.5 22t-23.5 54zM230 708v-486h-120v486h120z" />
    <glyph glyph-name="quotedbl" unicode="&#x22;" horiz-adv-x="459" 
d="M267 444v264h102v-264h-102zM90 444v264h102v-264h-102z" />
    <glyph glyph-name="numbersign" unicode="#" horiz-adv-x="592" 
d="M356 415h-103l-17 -122h103zM107 0l30 209h-90v84h101l18 122h-90v84h101l30 209h88l-30 -209h103l30 209h87l-30 -209h90v-84h-102l-17 -122h90v-84h-100l-31 -209h-87l30 209h-104l-30 -209h-87z" />
    <glyph glyph-name="dollar" unicode="$" 
d="M330 298v-206q42 2 67.5 30t25.5 73q0 41 -24 64t-69 39zM276 430v188q-38 -4 -63.5 -27t-25.5 -65q0 -70 89 -96zM330 786v-66q127 -2 208 -71l-81 -84q-47 53 -127 53v-202q46 -14 77.5 -28.5t65.5 -39t52 -61.5t18 -85q0 -99 -61.5 -155t-151.5 -58v-72h-54v72
q-143 5 -235 93l88 84q27 -32 68 -52.5t79 -21.5v222q-102 28 -155.5 73t-53.5 133q0 86 61.5 139t147.5 59v68h54z" />
    <glyph glyph-name="percent" unicode="%" horiz-adv-x="930" 
d="M215 6l416 734l83 -38l-416 -734zM316 534q0 38 -26 64t-64 26t-64 -26t-26 -64t26 -64t64 -26t64 26t26 64zM40 534q0 77 54.5 131.5t131.5 54.5t131.5 -54.5t54.5 -131.5t-54.5 -131.5t-131.5 -54.5t-131.5 54.5t-54.5 131.5zM794 174q0 38 -26 64t-64 26t-64 -26
t-26 -64t26 -64t64 -26t64 26t26 64zM518 174q0 77 54.5 131.5t131.5 54.5t131.5 -54.5t54.5 -131.5t-54.5 -131.5t-131.5 -54.5t-131.5 54.5t-54.5 131.5z" />
    <glyph glyph-name="ampersand" unicode="&#x26;" horiz-adv-x="741" 
d="M421 159l-151 157q-98 -34 -98 -119q0 -49 36.5 -80t80.5 -31q78 0 132 73zM328 629q-36 0 -59.5 -22t-23.5 -57q0 -56 63 -113q102 44 102 113q0 33 -23.5 56t-58.5 23zM712 374l-142 -205l165 -169h-160l-78 81q-81 -95 -212 -95q-100 0 -168.5 54.5t-68.5 151.5
q0 72 43.5 122t110.5 79q-76 78 -76 159q0 85 59.5 129.5t140.5 44.5q82 0 139 -45t57 -127q0 -121 -145 -188l116 -121l82 129h137z" />
    <glyph glyph-name="quotesingle" unicode="'" horiz-adv-x="282" 
d="M90 444v264h102v-264h-102z" />
    <glyph glyph-name="parenleft" unicode="(" horiz-adv-x="330" 
d="M36 288q0 242 146 444l84 -55q-127 -178 -127 -389t127 -389l-84 -55q-146 202 -146 444z" />
    <glyph glyph-name="parenright" unicode=")" horiz-adv-x="330" 
d="M294 288q0 -242 -146 -444l-84 55q127 178 127 389t-127 389l84 55q146 -202 146 -444z" />
    <glyph glyph-name="asterisk" unicode="*" horiz-adv-x="463" 
d="M274 708v-142l135 44l26 -80l-136 -44l86 -117l-69 -50l-86 118l-84 -115l-67 51l86 113l-137 47l26 80l136 -47v142h84z" />
    <glyph glyph-name="plus" unicode="+" horiz-adv-x="666" 
d="M62 354h220v220h102v-220h220v-102h-220v-220h-102v220h-220v102z" />
    <glyph glyph-name="comma" unicode="," horiz-adv-x="260" 
d="M24 -126l70 264h116l-85 -264h-101z" />
    <glyph glyph-name="hyphen" unicode="-" horiz-adv-x="320" 
d="M280 297v-102h-240v102h240z" />
    <glyph glyph-name="period" unicode="." horiz-adv-x="260" 
d="M50 70q0 32 23.5 55t56.5 23t56.5 -22t23.5 -54t-23.5 -55t-56.5 -23t-56.5 22t-23.5 54z" />
    <glyph glyph-name="slash" unicode="/" horiz-adv-x="389" 
d="M386 726l-312 -774l-83 30l312 776z" />
    <glyph glyph-name="zero" unicode="0" 
d="M432 354q0 44 -5 85.5t-17 86.5t-39 72.5t-65 27.5t-65 -27.5t-40 -72.5t-18 -86.5t-5 -85.5q0 -43 5 -85t18 -86.5t40 -71.5t65 -27t65 27t39 72t17 86t5 85zM555 354q0 -174 -65 -273t-184 -99q-120 0 -185.5 99t-65.5 273t65.5 273t185.5 99q119 0 184 -99t65 -273z
" />
    <glyph glyph-name="one" unicode="1" 
d="M279 0v562l-140 -115l-70 83l221 178h109v-708h-120z" />
    <glyph glyph-name="two" unicode="2" 
d="M69 0v110l273 268q72 70 72 139q0 49 -32 79t-81 30q-50 0 -81.5 -33.5t-38.5 -87.5l-117 18q10 88 76.5 145.5t162.5 57.5q98 0 167 -55t69 -152q0 -62 -30 -112t-84 -102l-204 -195h319v-110h-471z" />
    <glyph glyph-name="three" unicode="3" 
d="M212 321v96h32q151 0 151 107q0 46 -32.5 74t-79.5 28q-43 0 -72 -24.5t-41 -66.5l-113 29q18 71 82.5 116.5t148.5 45.5q98 0 163 -51t65 -143q0 -57 -35 -101.5t-92 -58.5v-2q66 -13 106 -59t40 -111q0 -103 -74 -160.5t-173 -57.5q-94 0 -162 41t-95 126l112 35
q13 -44 49.5 -72t91.5 -28q53 0 91.5 29.5t38.5 87.5q0 43 -28.5 71.5t-65 38.5t-78.5 10h-30z" />
    <glyph glyph-name="four" unicode="4" 
d="M348 250v317h-2l-201 -317h203zM348 0v147h-327v106l301 455h144v-458h99v-103h-99v-147h-118z" />
    <glyph glyph-name="five" unicode="5" 
d="M505 708v-108h-289l-7 -153q30 9 83 9q107 0 175.5 -59.5t68.5 -164.5q0 -114 -74 -182t-184 -68q-88 0 -149.5 41t-89.5 114l109 40q15 -43 50.5 -68t82.5 -25q56 0 94 36.5t38 98.5q0 75 -46 108t-112 33q-89 0 -165 -39l12 387h403z" />
    <glyph glyph-name="six" unicode="6" 
d="M167 222q0 -58 37.5 -98t98.5 -40t98.5 38.5t37.5 101.5q0 60 -37 99t-97 39q-61 0 -99.5 -38.5t-38.5 -101.5zM295 708h146l-181 -262l1 -1q29 12 75 12q94 0 160 -65.5t66 -161.5q0 -111 -73.5 -179.5t-184.5 -68.5t-185 70t-74 173q0 56 17.5 103t55.5 106z" />
    <glyph glyph-name="seven" unicode="7" 
d="M51 600v108h481v-110l-283 -598h-141l298 600h-355z" />
    <glyph glyph-name="eight" unicode="8" 
d="M305 322q-52 0 -87.5 -34t-35.5 -87q0 -55 34 -86.5t89 -31.5q53 0 87.5 31.5t34.5 86.5q0 52 -35.5 86.5t-86.5 34.5zM305 627q-45 0 -73.5 -27.5t-28.5 -72.5q0 -44 28 -73.5t74 -29.5q43 0 73 30t30 73q0 44 -30.5 72t-72.5 28zM305 726q96 0 160 -52t64 -140
q0 -60 -30 -102t-80 -58v-2q57 -14 95 -61t38 -111q0 -102 -70.5 -160t-176.5 -58t-176.5 58t-70.5 160q0 66 38.5 111.5t94.5 60.5v2q-110 40 -110 155q0 88 64.5 142.5t159.5 54.5z" />
    <glyph glyph-name="nine" unicode="9" 
d="M442 486q0 58 -38 99t-98 41q-61 0 -98.5 -39.5t-37.5 -102.5q0 -60 37 -99t97 -39q61 0 99.5 38.5t38.5 101.5zM314 0h-146l182 263l-1 1q-29 -13 -76 -13q-94 0 -160 65.5t-66 161.5q0 111 73.5 179.5t184.5 68.5t185 -70t74 -173q0 -56 -17.5 -103t-55.5 -106z" />
    <glyph glyph-name="colon" unicode=":" horiz-adv-x="300" 
d="M70 408q0 32 23.5 55t56.5 23t56.5 -22t23.5 -54t-23.5 -55t-56.5 -23t-56.5 22t-23.5 54zM70 70q0 32 23.5 55t56.5 23t56.5 -22t23.5 -54t-23.5 -55t-56.5 -23t-56.5 22t-23.5 54z" />
    <glyph glyph-name="semicolon" unicode=";" horiz-adv-x="300" 
d="M70 409q0 32 23.5 55t56.5 23t56.5 -22t23.5 -54t-23.5 -55t-56.5 -23t-56.5 22t-23.5 54zM40 -126l70 264h122l-85 -264h-107z" />
    <glyph glyph-name="less" unicode="&#x3c;" horiz-adv-x="666" 
d="M586 42l-506 225v72l506 225v-110l-338 -151l338 -151v-110z" />
    <glyph glyph-name="equal" unicode="=" horiz-adv-x="666" 
d="M80 264h506v-102h-506v102zM80 444h506v-102h-506v102z" />
    <glyph glyph-name="greater" unicode="&#x3e;" horiz-adv-x="666" 
d="M80 564l506 -225v-72l-506 -225v110l338 151l-338 151v110z" />
    <glyph glyph-name="question" unicode="?" horiz-adv-x="519" 
d="M190 70q0 32 23.5 55t56.5 23t56.5 -22t23.5 -54t-23.5 -55t-56.5 -23t-56.5 22t-23.5 54zM328 209h-118v38q0 47 14.5 79t51.5 67l45 43q46 42 46 89q0 40 -25 66t-69 26t-72 -30.5t-30 -73.5l-123 11q12 95 75.5 148.5t157.5 53.5q90 0 151.5 -51.5t61.5 -141.5
q0 -58 -23 -94t-77 -83q-41 -35 -53.5 -57t-12.5 -64v-26z" />
    <glyph glyph-name="at" unicode="@" horiz-adv-x="800" 
d="M670 163l55 -60q-114 -121 -311 -121q-171 0 -276.5 103.5t-105.5 267.5q0 158 111.5 265.5t270.5 107.5q70 0 132.5 -20.5t112.5 -59t79.5 -101t29.5 -140.5q0 -115 -58 -180t-140 -65q-39 0 -63.5 19t-24.5 48h-5q-17 -28 -49 -47.5t-73 -19.5q-67 0 -104.5 44.5
t-37.5 117.5q0 89 55.5 158t140.5 69q37 0 63 -15.5t35 -39.5h1l8 40h89l-39 -189q-9 -43 -9 -63q0 -40 32 -40q40 0 65 42.5t25 112.5q0 118 -73.5 183t-193.5 65q-125 0 -204 -83.5t-79 -209.5q0 -131 81.5 -209t212.5 -78q143 0 247 98zM412 467q-44 0 -71 -46.5
t-27 -100.5q0 -30 14.5 -53.5t49.5 -23.5q49 0 74.5 43.5t25.5 92.5q0 88 -66 88z" />
    <glyph glyph-name="A" unicode="A" horiz-adv-x="706" 
d="M240 270h220l-109 288zM-8 0l308 708h109l305 -708h-144l-66 162h-307l-64 -162h-141z" />
    <glyph glyph-name="B" unicode="B" horiz-adv-x="647" 
d="M204 312v-206h113q158 0 158 106q0 55 -36.5 77.5t-116.5 22.5h-118zM204 604v-184h112q63 0 96 25t33 71q0 47 -33.5 67.5t-106.5 20.5h-101zM78 0v708h276q90 0 153.5 -44t63.5 -134q0 -58 -33 -97.5t-90 -57.5v-2q69 -9 111 -53t42 -114q0 -56 -22.5 -97.5t-61.5 -64
t-85 -33.5t-99 -11h-255z" />
    <glyph glyph-name="C" unicode="C" horiz-adv-x="696" 
d="M685 618l-96 -76q-26 36 -70.5 54.5t-90.5 18.5q-109 0 -177 -74t-68 -185q0 -117 65.5 -189t174.5 -72q112 0 172 82l101 -71q-99 -124 -274 -124q-166 0 -272 104.5t-106 269.5q0 167 108.5 268.5t275.5 101.5q74 0 146 -28t111 -80z" />
    <glyph glyph-name="D" unicode="D" horiz-adv-x="764" 
d="M204 110h105q41 0 78.5 7t74.5 24.5t63.5 44t43 70t16.5 98.5q0 246 -276 246h-105v-490zM78 0v708h251q74 0 140 -18.5t124 -58t92.5 -111t34.5 -166.5q0 -89 -34.5 -159t-92 -111.5t-125 -62.5t-139.5 -21h-251z" />
    <glyph glyph-name="E" unicode="E" 
d="M78 0v708h469v-110h-343v-180h325v-106h-325v-200h361v-112h-487z" />
    <glyph glyph-name="F" unicode="F" horiz-adv-x="573" 
d="M78 0v708h457v-110h-331v-194h312v-106h-312v-298h-126z" />
    <glyph glyph-name="G" unicode="G" horiz-adv-x="773" 
d="M698 404v-367q-113 -55 -267 -55q-171 0 -279 104.5t-108 269.5q0 167 108.5 268.5t275.5 101.5q83 0 154 -24t115 -65l-87 -94q-28 31 -77 51.5t-104 20.5q-110 0 -178 -74t-68 -185q0 -115 68.5 -188t183.5 -73q82 0 141 25v180h-149v104h271z" />
    <glyph glyph-name="H" unicode="H" horiz-adv-x="739" 
d="M78 0v708h126v-286h331v286h126v-708h-126v314h-331v-314h-126z" />
    <glyph glyph-name="I" unicode="I" horiz-adv-x="282" 
d="M78 0v708h126v-708h-126z" />
    <glyph glyph-name="J" unicode="J" horiz-adv-x="498" 
d="M426 708v-479q0 -34 -5 -65.5t-19.5 -65.5t-37 -59t-61.5 -41t-90 -16q-83 0 -135.5 41.5t-72.5 114.5l116 33q9 -35 33 -55.5t57 -20.5q51 0 70 35.5t19 102.5v475h126z" />
    <glyph glyph-name="K" unicode="K" horiz-adv-x="689" 
d="M78 0v708h126v-306h3l296 306h170l-331 -327l353 -381h-177l-311 355h-3v-355h-126z" />
    <glyph glyph-name="L" unicode="L" horiz-adv-x="511" 
d="M78 0v708h126v-596h301v-112h-427z" />
    <glyph glyph-name="M" unicode="M" horiz-adv-x="920" 
d="M78 0v708h197l184 -503h3l182 503h198v-708h-125v569h-2l-215 -569h-88l-212 569h-2v-569h-120z" />
    <glyph glyph-name="N" unicode="N" horiz-adv-x="780" 
d="M78 0v708h167l329 -530h2v530h126v-708h-160l-336 547h-2v-547h-126z" />
    <glyph glyph-name="O" unicode="O" horiz-adv-x="849" 
d="M181 356q0 -114 68 -187.5t175 -73.5q108 0 176 73.5t68 187.5q0 111 -67.5 185t-176.5 74q-108 0 -175.5 -74t-67.5 -185zM44 356q0 168 106 269t273 101q168 0 275 -101t107 -269q0 -164 -108 -269t-274 -105q-165 0 -272 105t-107 269z" />
    <glyph glyph-name="P" unicode="P" 
d="M204 399h88q157 0 157 104q0 57 -42 78t-111 21h-92v-203zM78 0v708h231q267 0 267 -205q0 -75 -39 -123.5t-98 -67.5t-138 -19h-97v-293h-126z" />
    <glyph glyph-name="Q" unicode="Q" horiz-adv-x="852" 
d="M416 613q-103 0 -172 -71t-69 -179q0 -113 66.5 -183t172.5 -70t173.5 70t67.5 183q0 109 -66 179.5t-173 70.5zM841 102v-102h-427q-172 0 -274.5 96.5t-102.5 266.5q0 160 107.5 261.5t271.5 101.5t270 -101.5t106 -261.5q0 -88 -36 -154.5t-90 -104.5v-2h175z" />
    <glyph glyph-name="R" unicode="R" horiz-adv-x="629" 
d="M204 403h103q152 0 152 103q0 52 -41 74t-100 22h-114v-199zM78 0v708h246q71 0 127.5 -18.5t95 -66t38.5 -118.5q0 -76 -42.5 -124.5t-119.5 -66.5l189 -314h-152l-164 300h-92v-300h-126z" />
    <glyph glyph-name="S" unicode="S" horiz-adv-x="574" 
d="M521 650l-82 -90q-20 26 -56.5 43.5t-73.5 17.5q-49 0 -87 -24.5t-38 -72.5q0 -24 8.5 -40.5t30 -29.5t40.5 -20t56 -19q36 -11 57.5 -19t53.5 -25.5t50.5 -37.5t32 -52.5t13.5 -72.5q0 -109 -73.5 -167.5t-184.5 -58.5q-71 0 -136.5 26t-106.5 75l90 84q26 -35 69 -56.5
t86 -21.5q51 0 89.5 26t38.5 79q0 25 -10.5 44t-33.5 32t-44.5 21.5t-58.5 20.5q-11 3 -16 5q-39 13 -65 25.5t-55 35t-44 58t-15 82.5q0 68 39 116.5t96 70t124 21.5q124 0 206 -76z" />
    <glyph glyph-name="T" unicode="T" horiz-adv-x="568" 
d="M221 0v598h-217v110h560v-110h-217v-598h-126z" />
    <glyph glyph-name="U" unicode="U" horiz-adv-x="714" 
d="M642 708v-448q0 -126 -80.5 -202t-204.5 -76t-204.5 76t-80.5 202v448h126v-443q0 -71 38 -120.5t121 -49.5t121 49.5t38 120.5v443h126z" />
    <glyph glyph-name="V" unicode="V" horiz-adv-x="653" 
d="M270 0l-280 708h141l195 -545h4l197 545h136l-284 -708h-109z" />
    <glyph glyph-name="W" unicode="W" horiz-adv-x="1004" 
d="M213 0l-207 708h138l137 -520h2l156 520h130l153 -520h2l140 520h134l-207 -708h-122l-166 531h-2l-166 -531h-122z" />
    <glyph glyph-name="X" unicode="X" horiz-adv-x="658" 
d="M4 0l245 378l-220 330h152l146 -242l144 242h145l-216 -333l254 -375h-159l-173 278l-166 -278h-152z" />
    <glyph glyph-name="Y" unicode="Y" horiz-adv-x="622" 
d="M249 0v307l-266 401h154l178 -298l180 298h146l-266 -401v-307h-126z" />
    <glyph glyph-name="Z" unicode="Z" horiz-adv-x="611" 
d="M35 0v114l385 484h-379v110h529v-114l-387 -482h393v-112h-541z" />
    <glyph glyph-name="bracketleft" unicode="[" horiz-adv-x="330" 
d="M252 732v-78h-90v-732h90v-78h-192v888h192z" />
    <glyph glyph-name="backslash" unicode="\" horiz-adv-x="389" 
d="M3 726l83 32l312 -776l-83 -30z" />
    <glyph glyph-name="bracketright" unicode="]" horiz-adv-x="330" 
d="M78 -156v78h90v732h-90v78h192v-888h-192z" />
    <glyph glyph-name="asciicircum" unicode="^" horiz-adv-x="666" 
d="M187 343h-118l223 365h82l223 -365h-118l-147 239z" />
    <glyph glyph-name="underscore" unicode="_" horiz-adv-x="500" 
d="M500 -75v-75h-500v75h500z" />
    <glyph glyph-name="grave" unicode="`" horiz-adv-x="260" 
d="M78 708l99 -144h-94l-141 144h136z" />
    <glyph glyph-name="a" unicode="a" horiz-adv-x="550" 
d="M368 202v17h-27q-183 0 -183 -80q0 -31 24.5 -45.5t59.5 -14.5q61 0 93.5 32.5t32.5 90.5zM370 0v61h-3q-18 -33 -58.5 -53t-90.5 -20q-69 0 -124.5 36.5t-55.5 112.5q0 41 20.5 71.5t52 47.5t77.5 27.5t87.5 13.5t92.5 3v12q0 43 -31 65.5t-79 22.5q-76 0 -131 -55
l-62 73q82 76 203 76q61 0 105 -17.5t66.5 -48t32.5 -64t10 -72.5v-292h-112z" />
    <glyph glyph-name="b" unicode="b" horiz-adv-x="635" 
d="M469 242q0 62 -36.5 108t-101.5 46q-63 0 -102 -48t-39 -108t39 -107t102 -47q65 0 101.5 47t36.5 109zM74 756h120v-337h3q56 75 161 75q102 0 167.5 -72.5t65.5 -179.5q0 -108 -64.5 -182t-171.5 -74q-52 0 -96.5 22.5t-68.5 63.5h-2v-72h-114v756z" />
    <glyph glyph-name="c" unicode="c" horiz-adv-x="488" 
d="M482 419l-82 -72q-14 20 -42 33.5t-57 13.5q-63 0 -97.5 -46t-34.5 -108t36 -108t100 -46q66 0 101 43l75 -76q-62 -67 -177 -67q-110 0 -185 69t-75 185q0 113 74.5 183.5t182.5 70.5q54 0 103 -20t78 -55z" />
    <glyph glyph-name="d" unicode="d" horiz-adv-x="634" 
d="M165 242q0 -62 36.5 -109t101.5 -47q63 0 102 47t39 107t-39 108t-102 48q-65 0 -101.5 -46t-36.5 -108zM560 756v-756h-114v72h-2q-24 -41 -68.5 -63.5t-96.5 -22.5q-107 0 -171.5 74t-64.5 182q0 107 65.5 179.5t167.5 72.5q105 0 161 -75h3v337h120z" />
    <glyph glyph-name="e" unicode="e" horiz-adv-x="574" 
d="M530 234q0 -21 -1 -32h-365q4 -50 44 -84t93 -34q84 0 127 62l80 -64q-71 -96 -206 -96q-113 0 -185.5 68t-72.5 183t72 186t182 71q104 0 168 -67.5t64 -192.5zM164 288h246q0 49 -29 82.5t-84 33.5q-54 0 -91.5 -32.5t-41.5 -83.5z" />
    <glyph glyph-name="f" unicode="f" horiz-adv-x="324" 
d="M91 0v384h-91v96h91v71q0 97 45.5 157t148.5 60q34 0 61 -7l-8 -102q-23 7 -46 7q-81 0 -81 -108v-78h111v-96h-111v-384h-120z" />
    <glyph glyph-name="g" unicode="g" horiz-adv-x="632" 
d="M304 396q-63 0 -100.5 -43.5t-37.5 -109.5q0 -60 38 -106t99 -46q64 0 103.5 45t39.5 107q0 65 -39 109t-103 44zM446 480h114v-437q0 -134 -67.5 -208.5t-203.5 -74.5q-62 0 -127.5 21t-110.5 58l69 93q73 -68 168 -68q152 0 152 165v35h-2q-54 -72 -157 -72
q-105 0 -171 72.5t-66 177.5q0 107 64.5 179.5t170.5 72.5q114 0 165 -86h2v72z" />
    <glyph glyph-name="h" unicode="h" horiz-adv-x="584" 
d="M339 494q88 0 132.5 -56t44.5 -138v-300h-120v264q0 127 -89 127q-54 0 -83.5 -38.5t-29.5 -90.5v-262h-120v756h120v-343h2q16 33 54.5 57t88.5 24z" />
    <glyph glyph-name="i" unicode="i" horiz-adv-x="268" 
d="M57 643q0 30 21.5 51t54.5 21t55.5 -20.5t22.5 -51.5t-22.5 -51.5t-55.5 -20.5t-54.5 21t-21.5 51zM74 0v480h120v-480h-120z" />
    <glyph glyph-name="j" unicode="j" horiz-adv-x="268" 
d="M57 643q0 30 21.5 51t54.5 21t55.5 -20.5t22.5 -51.5t-22.5 -51.5t-55.5 -20.5t-54.5 21t-21.5 51zM74 480h120v-509q0 -47 -7.5 -82t-25.5 -66t-53.5 -47t-87.5 -16q-30 0 -54 6l10 102q15 -4 33 -4q39 0 52 26.5t13 75.5v514z" />
    <glyph glyph-name="k" unicode="k" horiz-adv-x="543" 
d="M74 0v756h120v-478h3l182 202h154l-208 -217l221 -263h-159l-190 246h-3v-246h-120z" />
    <glyph glyph-name="l" unicode="l" horiz-adv-x="268" 
d="M74 0v756h120v-756h-120z" />
    <glyph glyph-name="m" unicode="m" horiz-adv-x="890" 
d="M645 494q88 0 132.5 -56t44.5 -138v-300h-120v266q0 128 -90 128q-52 0 -79 -40t-27 -92v-262h-120v290q0 47 -22.5 75.5t-66.5 28.5q-51 0 -78 -38.5t-27 -91.5v-264h-120v480h114v-77h2q17 39 56 65t93 26q105 0 150 -91q49 91 158 91z" />
    <glyph glyph-name="n" unicode="n" horiz-adv-x="582" 
d="M72 0v480h114v-77h2q17 38 57 64.5t92 26.5q88 0 132.5 -56t44.5 -138v-300h-120v266q0 128 -90 128q-54 0 -83 -38.5t-29 -91.5v-264h-120z" />
    <glyph glyph-name="o" unicode="o" 
d="M166 242q0 -62 36 -109t103 -47t103 47t36 109t-36 108t-103 46t-103 -46t-36 -108zM44 242q0 112 75 182t186 70t186 -70t75 -182t-75.5 -184t-185.5 -72t-185.5 72t-75.5 184z" />
    <glyph glyph-name="p" unicode="p" horiz-adv-x="633" 
d="M467 242q0 62 -36.5 108t-101.5 46q-63 0 -102 -48t-39 -108t39 -107t102 -47q65 0 101.5 47t36.5 109zM72 480h115v-67h3q21 33 63.5 57t102.5 24q102 0 167.5 -72.5t65.5 -179.5q0 -108 -64.5 -182t-171.5 -74q-51 0 -93.5 21t-65.5 57h-2v-304h-120v720z" />
    <glyph glyph-name="q" unicode="q" horiz-adv-x="632" 
d="M165 242q0 -62 36.5 -109t101.5 -47q63 0 102 47t39 107t-39 108t-102 48q-65 0 -101.5 -46t-36.5 -108zM560 480v-720h-120v304h-2q-23 -36 -65.5 -57t-93.5 -21q-107 0 -171.5 74t-64.5 182q0 107 65.5 179.5t167.5 72.5q60 0 102.5 -24t63.5 -57h3v67h115z" />
    <glyph glyph-name="r" unicode="r" horiz-adv-x="364" 
d="M72 0v480h115v-80h2q21 43 57 68.5t83 25.5q21 0 29 -3v-110q-20 5 -37 5q-38 0 -65.5 -14.5t-40 -37t-18 -41.5t-5.5 -36v-257h-120z" />
    <glyph glyph-name="s" unicode="s" horiz-adv-x="444" 
d="M413 421l-78 -69q-17 22 -45 37t-60 15t-54.5 -13t-22.5 -39t22.5 -37.5t81.5 -25.5q155 -34 155 -143q0 -82 -56.5 -121t-143.5 -39q-57 0 -109.5 20.5t-87.5 58.5l79 74q46 -60 123 -60q31 0 54 14t23 43q0 28 -24.5 41.5t-85.5 27.5q-65 14 -103.5 44.5t-38.5 91.5
q0 75 56 114t135 39q54 0 103 -19t77 -54z" />
    <glyph glyph-name="t" unicode="t" horiz-adv-x="340" 
d="M87 384h-84v96h84v139h118v-139h120v-96h-120v-223q0 -36 13 -55t50 -19q30 0 51 10l4 -94q-34 -13 -80 -13q-88 0 -122 45.5t-34 124.5v224z" />
    <glyph glyph-name="u" unicode="u" horiz-adv-x="582" 
d="M510 480v-480h-114v77h-2q-17 -38 -57 -64.5t-92 -26.5q-88 0 -132.5 56t-44.5 138v300h120v-266q0 -128 90 -128q54 0 83 38.5t29 91.5v264h120z" />
    <glyph glyph-name="v" unicode="v" horiz-adv-x="513" 
d="M194 0l-194 480h131l126 -350h2l127 350h127l-191 -480h-128z" />
    <glyph glyph-name="w" unicode="w" horiz-adv-x="804" 
d="M171 0l-167 480h130l100 -344h2l103 344h128l104 -344h2l102 344h125l-166 -480h-122l-109 336h-2l-108 -336h-122z" />
    <glyph glyph-name="x" unicode="x" horiz-adv-x="537" 
d="M-1 0l195 255l-173 225h144l104 -149l107 149h138l-172 -225l196 -255h-146l-125 175l-126 -175h-142z" />
    <glyph glyph-name="y" unicode="y" horiz-adv-x="513" 
d="M206 0l-206 480h133l134 -349h2l119 349h125l-227 -583q-28 -71 -67 -104t-115 -33q-33 0 -62 7l10 104q22 -7 45 -7q36 0 52 16t33 59z" />
    <glyph glyph-name="z" unicode="z" horiz-adv-x="482" 
d="M34 0v106l259 278h-247v96h390v-106l-260 -276h272v-98h-414z" />
    <glyph glyph-name="braceleft" unicode="{" horiz-adv-x="330" 
d="M10 244v88q27 0 48 16t21 54v198q0 64 37 98t91 34h73v-84h-55q-44 0 -44 -60v-188q0 -51 -33 -79.5t-65 -31.5v-2q15 -1 29.5 -7t31 -18t27 -36t10.5 -56v-182q0 -60 44 -60h55v-84h-73q-54 0 -91 34t-37 98v191q0 43 -21 60t-48 17z" />
    <glyph glyph-name="bar" unicode="|" horiz-adv-x="222" 
d="M60 750h102v-1000h-102v1000z" />
    <glyph glyph-name="braceright" unicode="}" horiz-adv-x="330" 
d="M320 332v-88q-27 0 -48 -17t-21 -60v-191q0 -64 -37 -98t-91 -34h-73v84h55q44 0 44 60v182q0 32 10.5 56t27 36t31 18t29.5 7v2q-32 3 -65 31.5t-33 79.5v188q0 60 -44 60h-55v84h73q54 0 91 -34t37 -98v-198q0 -38 21 -54t48 -16z" />
    <glyph glyph-name="asciitilde" unicode="~" horiz-adv-x="666" 
d="M345 354q27 -18 43.5 -26t25 -9.5t25.5 -1.5q45 0 78 63l77 -65q-62 -102 -153 -102q-56 0 -121 40q-59 36 -93 36q-44 0 -78 -63l-77 65q62 103 153 103q59 0 120 -40z" />
    <glyph glyph-name="uni00A0" unicode="&#xa0;" horiz-adv-x="250" 
 />
    <glyph glyph-name="exclamdown" unicode="&#xa1;" horiz-adv-x="340" 
d="M90 424q0 32 23.5 54t56.5 22t56.5 -23t23.5 -55t-23.5 -54t-56.5 -22t-56.5 23t-23.5 55zM230 -214h-120v486h120v-486z" />
    <glyph glyph-name="cent" unicode="&#xa2;" 
d="M300 90v299q-54 -12 -81 -51.5t-27 -97.5q0 -55 28 -95.5t80 -54.5zM354 559v-67q117 -5 170 -69l-77 -78q-37 40 -93 45v-300q56 0 97 46l73 -79q-58 -64 -170 -69v-72h-54v72q-101 8 -161.5 79t-60.5 174q0 104 59 170.5t163 80.5v67h54z" />
    <glyph glyph-name="sterling" unicode="&#xa3;" 
d="M66 0v107h98v208h-98v84h98v83q0 41 12.5 81t39.5 78t76.5 61.5t115.5 23.5q108 0 176 -60l-71 -83q-40 43 -105 43t-93.5 -45.5t-28.5 -103.5v-78h164v-84h-164v-208h265v-107h-485z" />
    <glyph glyph-name="currency" unicode="&#xa4;" 
d="M306 428q-62 0 -100 -41.5t-38 -102.5q0 -62 38 -103.5t100 -41.5q63 0 101 41.5t38 103.5q0 61 -38 102.5t-101 41.5zM589 501l-81 -81q39 -58 39 -136q0 -76 -41 -140l83 -84l-63 -64l-86 85q-56 -39 -134 -39q-72 0 -134 40l-87 -86l-64 64l86 87q-40 64 -40 137
q0 71 37 134l-83 83l64 63l83 -81q67 41 138 41q78 0 137 -41l82 81z" />
    <glyph glyph-name="yen" unicode="&#xa5;" 
d="M245 0v155h-176v78h176v77h-176v78h145l-198 320h140l155 -288l149 288h134l-193 -320h140v-78h-176v-77h176v-78h-176v-155h-120z" />
    <glyph glyph-name="brokenbar" unicode="&#xa6;" horiz-adv-x="222" 
d="M60 175h102v-350h-102v350zM60 675h102v-350h-102v350z" />
    <glyph glyph-name="section" unicode="&#xa7;" 
d="M281 239l104 -43q43 21 43 68q0 23 -13.5 42t-28.5 28t-39 20l-89 40q-58 -24 -58 -70q0 -22 13.5 -40t28.5 -26.5t39 -18.5zM529 640l-82 -73q-20 29 -51.5 46t-63.5 17q-34 0 -62 -17.5t-28 -48.5q0 -18 8.5 -32.5t30 -28t38 -21.5t53.5 -24q38 -16 62 -29.5t52 -35
t42 -50t14 -63.5q0 -41 -23 -75.5t-58 -52.5q52 -39 52 -116q0 -85 -66 -132.5t-152 -47.5q-66 0 -129.5 29t-97.5 84l99 59q17 -34 52.5 -52t74.5 -18q35 0 65 18.5t30 52.5q0 45 -50 72q-23 13 -100 42q-34 13 -56.5 24.5t-47 30.5t-37 45t-12.5 59q0 95 96 145
q-61 39 -61 114q0 79 63 122t145 43q61 0 114 -22t86 -64z" />
    <glyph glyph-name="dieresis" unicode="&#xa8;" horiz-adv-x="260" 
d="M156 644q0 28 20.5 49t50.5 21q31 0 52 -20t21 -50t-21 -50t-52 -20q-30 0 -50.5 21t-20.5 49zM-40 644q0 28 20.5 49t50.5 21q31 0 52 -20t21 -50t-21 -50t-52 -20q-30 0 -50.5 21t-20.5 49z" />
    <glyph glyph-name="copyright" unicode="&#xa9;" horiz-adv-x="800" 
d="M80 353q0 -132 94.5 -225.5t226.5 -93.5t225.5 93.5t93.5 225.5t-93.5 226.5t-225.5 94.5t-226.5 -94.5t-94.5 -226.5zM20 353q0 157 111.5 267t269.5 110q157 0 268 -110t111 -267q0 -156 -111 -265.5t-268 -109.5q-158 0 -269.5 109t-111.5 266zM577 506l-63 -63
q-15 18 -41 30t-55 12q-58 0 -91 -39t-33 -93q0 -55 35 -95t96 -40q60 0 93 38l58 -68q-54 -60 -158 -60q-99 0 -164.5 59.5t-65.5 163.5q0 102 66 163t164 61q104 0 159 -69z" />
    <glyph glyph-name="ordfeminine" unicode="&#xaa;" horiz-adv-x="380" 
d="M238 544v13h-14q-92 0 -92 -39q0 -16 12.5 -24t30.5 -8q30 0 46.5 15.5t16.5 42.5zM244 431v30h-1q-21 -37 -89 -37q-43 0 -74 23t-31 63q0 33 16.5 54.5t48 30.5t59 12t65.5 3v6q0 42 -60 42q-43 0 -69 -31l-44 52q44 44 120 44q132 0 132 -118v-174h-73z" />
    <glyph glyph-name="guillemotleft" unicode="&#xab;" horiz-adv-x="519" 
d="M480 421l-115 -173l116 -175l-76 -51l-152 226l152 224zM257 421l-115 -173l116 -175l-76 -51l-152 226l152 224z" />
    <glyph glyph-name="logicalnot" unicode="&#xac;" horiz-adv-x="666" 
d="M502 147v195h-440v102h542v-297h-102z" />
    <glyph glyph-name="uni00AD" unicode="&#xad;" horiz-adv-x="320" 
d="M280 297v-102h-240v102h240z" />
    <glyph glyph-name="registered" unicode="&#xae;" horiz-adv-x="600" 
d="M343 545q0 12 -11 18.5t-24 6.5h-38v-54h38q15 0 25 8t10 21zM432 368h-83l-50 96h-29v-96h-71v260h112q44 0 75.5 -19.5t31.5 -62.5q0 -53 -52 -71zM492 493q0 80 -56 136.5t-135 56.5q-80 0 -136.5 -56.5t-56.5 -136.5q0 -79 56.5 -135t136.5 -56q79 0 135 56t56 135z
M528 493q0 -93 -66.5 -158.5t-160.5 -65.5q-95 0 -162 65.5t-67 158.5q0 94 67 160.5t162 66.5q94 0 160.5 -66.5t66.5 -160.5z" />
    <glyph glyph-name="macron" unicode="&#xaf;" horiz-adv-x="260" 
d="M290 673v-78h-320v78h320z" />
    <glyph glyph-name="degree" unicode="&#xb0;" horiz-adv-x="400" 
d="M118 560q0 -34 24 -58t58 -24t58 24t24 58t-24 58t-58 24t-58 -24t-24 -58zM40 560q0 66 47 113t113 47t113 -47t47 -113t-47 -113t-113 -47t-113 47t-47 113z" />
    <glyph glyph-name="plusminus" unicode="&#xb1;" horiz-adv-x="666" 
d="M80 32v102h506v-102h-506zM286 431v143h96v-143h204v-102h-204v-143h-96v143h-206v102h206z" />
    <glyph glyph-name="twosuperior" unicode="&#xb2;" horiz-adv-x="400" 
d="M278 462l-100 -97h169v-82h-291v76l162 161q36 36 36 70q0 23 -14.5 36t-38.5 13q-26 0 -42.5 -18.5t-18.5 -48.5l-88 12q6 59 47.5 97t101.5 38q61 0 103.5 -33.5t42.5 -94.5q0 -38 -17.5 -67t-51.5 -62z" />
    <glyph glyph-name="threesuperior" unicode="&#xb3;" horiz-adv-x="400" 
d="M148 469v71h28q32 0 53.5 13.5t21.5 43.5q0 20 -15.5 32.5t-37.5 12.5q-21 0 -36 -14.5t-20 -38.5l-86 21q14 49 54 79.5t91 30.5q63 0 102.5 -30t39.5 -88q0 -63 -55 -93q66 -25 66 -100q0 -64 -45.5 -98t-107.5 -34q-123 0 -161 112l85 25q19 -58 72 -58q27 0 46.5 14
t19.5 43q0 56 -88 56h-27z" />
    <glyph glyph-name="acute" unicode="&#xb4;" horiz-adv-x="260" 
d="M83 564l99 144h136l-141 -144h-94z" />
    <glyph glyph-name="mu" unicode="&#xb5;" horiz-adv-x="574" 
d="M68 480h120v-243q0 -26 2.5 -45.5t10 -44t26.5 -38t49 -13.5q56 0 83 34.5t27 87.5v262h120v-480h-114v77h-2q-39 -89 -137 -89q-45 0 -65 24v-240h-120v708z" />
    <glyph glyph-name="paragraph" unicode="&#xb6;" horiz-adv-x="600" 
d="M246 -126v464q-96 0 -155.5 51t-59.5 131q0 97 61.5 142.5t171.5 45.5h269v-834h-90v762h-107v-762h-90z" />
    <glyph glyph-name="periodcentered" unicode="&#xb7;" horiz-adv-x="260" 
d="M50 291q0 32 23.5 55t56.5 23t56.5 -22t23.5 -54t-23.5 -55t-56.5 -23t-56.5 22t-23.5 54z" />
    <glyph glyph-name="cedilla" unicode="&#xb8;" horiz-adv-x="260" 
d="M178 0l-45 -64q8 1 19 1q105 0 105 -83q0 -50 -41 -72t-95 -22q-61 0 -110 26l23 48q38 -20 82 -20q57 0 57 41q0 19 -16.5 27.5t-36.5 8.5q-21 0 -39 -6l-23 25l62 90h58z" />
    <glyph glyph-name="onesuperior" unicode="&#xb9;" horiz-adv-x="400" 
d="M95 535l-53 62l137 111h83v-429h-94v317z" />
    <glyph glyph-name="ordmasculine" unicode="&#xba;" horiz-adv-x="380" 
d="M260 574q0 32 -18 53.5t-52 21.5t-51.5 -21.5t-17.5 -53.5t18 -53.5t51 -21.5t51.5 22t18.5 53zM342 574q0 -64 -43 -106t-109 -42t-109 42t-43 106q0 65 43 106.5t109 41.5t109 -41.5t43 -106.5z" />
    <glyph glyph-name="guillemotright" unicode="&#xbb;" horiz-adv-x="519" 
d="M39 73l115 173l-116 175l76 51l152 -226l-152 -224zM262 73l115 173l-116 175l76 51l152 -226l-152 -224z" />
    <glyph glyph-name="onequarter" unicode="&#xbc;" horiz-adv-x="900" 
d="M95 535l-53 62l137 111h83v-429h-94v317zM186 6l416 734l78 -38l-416 -734zM682 164v149h-1l-96 -149h97zM682 0v85h-190v74l179 270h97v-265h58v-79h-58v-85h-86z" />
    <glyph glyph-name="onehalf" unicode="&#xbd;" horiz-adv-x="900" 
d="M95 535l-53 62l137 111h83v-429h-94v317zM771 179l-100 -97h169v-82h-291v76l162 161q36 36 36 70q0 23 -14.5 36t-38.5 13q-26 0 -42.5 -18.5t-18.5 -48.5l-88 12q6 59 47.5 97t101.5 38q61 0 103.5 -33.5t42.5 -94.5q0 -38 -17.5 -67t-51.5 -62zM186 6l416 734l78 -38
l-416 -734z" />
    <glyph glyph-name="threequarters" unicode="&#xbe;" horiz-adv-x="900" 
d="M148 469v71h28q32 0 53.5 13.5t21.5 43.5q0 20 -15.5 32.5t-37.5 12.5q-21 0 -36 -14.5t-20 -38.5l-86 21q14 49 54 79.5t91 30.5q63 0 102.5 -30t39.5 -88q0 -63 -55 -93q66 -25 66 -100q0 -64 -45.5 -98t-107.5 -34q-123 0 -161 112l85 25q19 -58 72 -58q27 0 46.5 14
t19.5 43q0 56 -88 56h-27zM186 6l416 734l78 -38l-416 -734zM682 164v149h-1l-96 -149h97zM682 0v85h-190v74l179 270h97v-265h58v-79h-58v-85h-86z" />
    <glyph glyph-name="questiondown" unicode="&#xbf;" horiz-adv-x="519" 
d="M333 424q0 -32 -23.5 -55t-56.5 -23t-56.5 22t-23.5 54t23.5 55t56.5 23t56.5 -22t23.5 -54zM195 285h118v-38q0 -47 -14.5 -79t-51.5 -67l-45 -43q-46 -42 -46 -89q0 -40 25 -66t69 -26t72 30.5t30 73.5l123 -11q-12 -95 -75.5 -148.5t-157.5 -53.5q-90 0 -151.5 51.5
t-61.5 141.5q0 58 23 94t77 83q41 36 53.5 57.5t12.5 63.5v26z" />
    <glyph glyph-name="Agrave" unicode="&#xc0;" horiz-adv-x="706" 
d="M304 908l99 -144h-94l-141 144h136zM240 270h220l-109 288zM-8 0l308 708h109l305 -708h-144l-66 162h-307l-64 -162h-141z" />
    <glyph glyph-name="Aacute" unicode="&#xc1;" horiz-adv-x="706" 
d="M301 764l99 144h136l-141 -144h-94zM240 270h220l-109 288zM-8 0l308 708h109l305 -708h-144l-66 162h-307l-64 -162h-141z" />
    <glyph glyph-name="Acircumflex" unicode="&#xc2;" horiz-adv-x="706" 
d="M537 764h-114l-69 90l-69 -90h-112l115 144h135zM240 270h220l-109 288zM-8 0l308 708h109l305 -708h-144l-66 162h-307l-64 -162h-141z" />
    <glyph glyph-name="Atilde" unicode="&#xc3;" horiz-adv-x="706" 
d="M236 768h-66q22 127 112 127q36 0 79 -18q43 -19 65 -19q33 0 46 42h66q-22 -127 -112 -127q-37 0 -82 20q-39 18 -62 18q-33 0 -46 -43zM240 270h220l-109 288zM-8 0l308 708h109l305 -708h-144l-66 162h-307l-64 -162h-141z" />
    <glyph glyph-name="Adieresis" unicode="&#xc4;" horiz-adv-x="706" 
d="M382 844q0 28 20.5 49t50.5 21q31 0 52 -20t21 -50t-21 -50t-52 -20q-30 0 -50.5 21t-20.5 49zM186 844q0 28 20.5 49t50.5 21q31 0 52 -20t21 -50t-21 -50t-52 -20q-30 0 -50.5 21t-20.5 49zM240 270h220l-109 288zM-8 0l308 708h109l305 -708h-144l-66 162h-307
l-64 -162h-141z" />
    <glyph glyph-name="Aring" unicode="&#xc5;" horiz-adv-x="706" 
d="M412 855q0 25 -17 41t-42 16q-26 0 -42.5 -16.5t-16.5 -41.5q0 -24 17 -40t42 -16t42 16t17 41zM458 855q0 -45 -30 -73.5t-75 -28.5t-75 28.5t-30 72.5t30 73.5t75 29.5t75 -28.5t30 -73.5zM240 270h220l-109 288zM-8 0l308 708h109l305 -708h-144l-66 162h-307
l-64 -162h-141z" />
    <glyph glyph-name="AE" unicode="&#xc6;" horiz-adv-x="1046" 
d="M327 294h202v304h-15zM529 0v186h-268l-114 -186h-153l453 708h536v-110h-328v-180h310v-106h-310v-200h346v-112h-472z" />
    <glyph glyph-name="Ccedilla" unicode="&#xc7;" horiz-adv-x="696" 
d="M685 618l-96 -76q-26 36 -70.5 54.5t-90.5 18.5q-109 0 -177 -74t-68 -185q0 -117 65.5 -189t174.5 -72q112 0 172 82l101 -71q-92 -117 -258 -123l-32 -47q8 1 19 1q105 0 105 -83q0 -50 -41 -72t-95 -22q-61 0 -110 26l23 48q38 -20 82 -20q57 0 57 41q0 19 -16.5 27.5
t-36.5 8.5q-21 0 -39 -6l-23 25l51 74q-151 12 -244.5 114.5t-93.5 257.5q0 167 108.5 268.5t275.5 101.5q74 0 146 -28t111 -80z" />
    <glyph glyph-name="Egrave" unicode="&#xc8;" 
d="M296 908l99 -144h-94l-141 144h136zM78 0v708h469v-110h-343v-180h325v-106h-325v-200h361v-112h-487z" />
    <glyph glyph-name="Eacute" unicode="&#xc9;" 
d="M253 764l99 144h136l-141 -144h-94zM78 0v708h469v-110h-343v-180h325v-106h-325v-200h361v-112h-487z" />
    <glyph glyph-name="Ecircumflex" unicode="&#xca;" 
d="M499 764h-114l-69 90l-69 -90h-112l115 144h135zM78 0v708h469v-110h-343v-180h325v-106h-325v-200h361v-112h-487z" />
    <glyph glyph-name="Edieresis" unicode="&#xcb;" 
d="M344 844q0 28 20.5 49t50.5 21q31 0 52 -20t21 -50t-21 -50t-52 -20q-30 0 -50.5 21t-20.5 49zM148 844q0 28 20.5 49t50.5 21q31 0 52 -20t21 -50t-21 -50t-52 -20q-30 0 -50.5 21t-20.5 49zM78 0v708h469v-110h-343v-180h325v-106h-325v-200h361v-112h-487z" />
    <glyph glyph-name="Igrave" unicode="&#xcc;" horiz-adv-x="282" 
d="M104 908l99 -144h-94l-141 144h136zM78 0v708h126v-708h-126z" />
    <glyph glyph-name="Iacute" unicode="&#xcd;" horiz-adv-x="282" 
d="M78 764l99 144h136l-141 -144h-94zM78 0v708h126v-708h-126z" />
    <glyph glyph-name="Icircumflex" unicode="&#xce;" horiz-adv-x="282" 
d="M322 764h-114l-69 90l-69 -90h-112l115 144h135zM78 0v708h126v-708h-126z" />
    <glyph glyph-name="Idieresis" unicode="&#xcf;" horiz-adv-x="282" 
d="M167 844q0 28 20.5 49t50.5 21q31 0 52 -20t21 -50t-21 -50t-52 -20q-30 0 -50.5 21t-20.5 49zM-29 844q0 28 20.5 49t50.5 21q31 0 52 -20t21 -50t-21 -50t-52 -20q-30 0 -50.5 21t-20.5 49zM78 0v708h126v-708h-126z" />
    <glyph glyph-name="Eth" unicode="&#xd0;" horiz-adv-x="764" 
d="M205 114h94q128 0 207.5 59t79.5 181q0 123 -71.5 181.5t-194.5 58.5h-115v-186h216v-84h-216v-210zM79 0v324h-66v84h66v300h279q72 0 135.5 -22t114.5 -64.5t80.5 -111.5t29.5 -156q0 -70 -22.5 -129.5t-60 -100t-86.5 -69t-101 -42t-105 -13.5h-264z" />
    <glyph glyph-name="Ntilde" unicode="&#xd1;" horiz-adv-x="780" 
d="M271 768h-66q22 127 112 127q36 0 79 -18q43 -19 65 -19q33 0 46 42h66q-22 -127 -112 -127q-37 0 -82 20q-39 18 -62 18q-33 0 -46 -43zM78 0v708h167l329 -530h2v530h126v-708h-160l-336 547h-2v-547h-126z" />
    <glyph glyph-name="Ograve" unicode="&#xd2;" horiz-adv-x="849" 
d="M395 908l99 -144h-94l-141 144h136zM181 356q0 -114 68 -187.5t175 -73.5q108 0 176 73.5t68 187.5q0 111 -67.5 185t-176.5 74q-108 0 -175.5 -74t-67.5 -185zM44 356q0 168 106 269t273 101q168 0 275 -101t107 -269q0 -164 -108 -269t-274 -105q-165 0 -272 105
t-107 269z" />
    <glyph glyph-name="Oacute" unicode="&#xd3;" horiz-adv-x="849" 
d="M361 764l99 144h136l-141 -144h-94zM181 356q0 -114 68 -187.5t175 -73.5q108 0 176 73.5t68 187.5q0 111 -67.5 185t-176.5 74q-108 0 -175.5 -74t-67.5 -185zM44 356q0 168 106 269t273 101q168 0 275 -101t107 -269q0 -164 -108 -269t-274 -105q-165 0 -272 105
t-107 269z" />
    <glyph glyph-name="Ocircumflex" unicode="&#xd4;" horiz-adv-x="849" 
d="M611 764h-114l-69 90l-69 -90h-112l115 144h135zM181 356q0 -114 68 -187.5t175 -73.5q108 0 176 73.5t68 187.5q0 111 -67.5 185t-176.5 74q-108 0 -175.5 -74t-67.5 -185zM44 356q0 168 106 269t273 101q168 0 275 -101t107 -269q0 -164 -108 -269t-274 -105
q-165 0 -272 105t-107 269z" />
    <glyph glyph-name="Otilde" unicode="&#xd5;" horiz-adv-x="849" 
d="M310 768h-66q22 127 112 127q36 0 79 -18q43 -19 65 -19q33 0 46 42h66q-22 -127 -112 -127q-37 0 -82 20q-39 18 -62 18q-33 0 -46 -43zM181 356q0 -114 68 -187.5t175 -73.5q108 0 176 73.5t68 187.5q0 111 -67.5 185t-176.5 74q-108 0 -175.5 -74t-67.5 -185zM44 356
q0 168 106 269t273 101q168 0 275 -101t107 -269q0 -164 -108 -269t-274 -105q-165 0 -272 105t-107 269z" />
    <glyph glyph-name="Odieresis" unicode="&#xd6;" horiz-adv-x="849" 
d="M453 844q0 28 20.5 49t50.5 21q31 0 52 -20t21 -50t-21 -50t-52 -20q-30 0 -50.5 21t-20.5 49zM257 844q0 28 20.5 49t50.5 21q31 0 52 -20t21 -50t-21 -50t-52 -20q-30 0 -50.5 21t-20.5 49zM181 356q0 -114 68 -187.5t175 -73.5q108 0 176 73.5t68 187.5
q0 111 -67.5 185t-176.5 74q-108 0 -175.5 -74t-67.5 -185zM44 356q0 168 106 269t273 101q168 0 275 -101t107 -269q0 -164 -108 -269t-274 -105q-165 0 -272 105t-107 269z" />
    <glyph glyph-name="multiply" unicode="&#xd7;" horiz-adv-x="666" 
d="M150 557l183 -183l182 182l70 -70l-181 -181l185 -186l-74 -74l-183 181l-181 -181l-74 73l185 182l-184 186z" />
    <glyph glyph-name="Oslash" unicode="&#xd8;" horiz-adv-x="849" 
d="M175 356q0 -97 45 -159l349 378q-56 43 -145 43q-112 0 -180.5 -74t-68.5 -188zM674 356q0 105 -57 174l-352 -383q59 -55 159 -55q110 0 180 74t70 190zM44 356q0 168 106 269t273 101q130 0 225 -62l85 93l49 -43l-83 -91q106 -101 106 -267q0 -163 -107.5 -267.5
t-274.5 -106.5q-142 -1 -240 77l-85 -92l-50 43l87 94q-91 94 -91 252z" />
    <glyph glyph-name="Ugrave" unicode="&#xd9;" horiz-adv-x="714" 
d="M338 908l99 -144h-94l-141 144h136zM642 708v-448q0 -126 -80.5 -202t-204.5 -76t-204.5 76t-80.5 202v448h126v-443q0 -71 38 -120.5t121 -49.5t121 49.5t38 120.5v443h126z" />
    <glyph glyph-name="Uacute" unicode="&#xda;" horiz-adv-x="714" 
d="M291 764l99 144h136l-141 -144h-94zM642 708v-448q0 -126 -80.5 -202t-204.5 -76t-204.5 76t-80.5 202v448h126v-443q0 -71 38 -120.5t121 -49.5t121 49.5t38 120.5v443h126z" />
    <glyph glyph-name="Ucircumflex" unicode="&#xdb;" horiz-adv-x="714" 
d="M541 764h-114l-69 90l-69 -90h-112l115 144h135zM642 708v-448q0 -126 -80.5 -202t-204.5 -76t-204.5 76t-80.5 202v448h126v-443q0 -71 38 -120.5t121 -49.5t121 49.5t38 120.5v443h126z" />
    <glyph glyph-name="Udieresis" unicode="&#xdc;" horiz-adv-x="714" 
d="M385 844q0 28 20.5 49t50.5 21q31 0 52 -20t21 -50t-21 -50t-52 -20q-30 0 -50.5 21t-20.5 49zM189 844q0 28 20.5 49t50.5 21q31 0 52 -20t21 -50t-21 -50t-52 -20q-30 0 -50.5 21t-20.5 49zM642 708v-448q0 -126 -80.5 -202t-204.5 -76t-204.5 76t-80.5 202v448h126
v-443q0 -71 38 -120.5t121 -49.5t121 49.5t38 120.5v443h126z" />
    <glyph glyph-name="Yacute" unicode="&#xdd;" horiz-adv-x="622" 
d="M266 764l99 144h136l-141 -144h-94zM249 0v307l-266 401h154l178 -298l180 298h146l-266 -401v-307h-126z" />
    <glyph glyph-name="Thorn" unicode="&#xde;" 
d="M204 265h88q157 0 157 104q0 57 -42 78t-111 21h-92v-203zM78 0v708h126v-134h105q267 0 267 -205q0 -75 -39 -123.5t-98 -67.5t-138 -19h-97v-159h-126z" />
    <glyph glyph-name="germandbls" unicode="&#xdf;" horiz-adv-x="627" 
d="M72 0v507q0 113 60.5 187t183.5 74q93 0 153.5 -56t60.5 -139q0 -51 -30.5 -94t-76.5 -55v-2q75 -12 119.5 -67t44.5 -133q0 -103 -67 -168.5t-180 -65.5q-44 0 -87 11v101q27 -10 70 -10q64 0 102.5 37.5t38.5 100.5q0 67 -43.5 101.5t-110.5 34.5h-13v102h15
q45 0 72 26t27 70q0 41 -25.5 71t-74.5 30q-65 0 -92 -48t-27 -114v-501h-120z" />
    <glyph glyph-name="agrave" unicode="&#xe0;" horiz-adv-x="550" 
d="M236 708l99 -144h-94l-141 144h136zM368 202v17h-27q-183 0 -183 -80q0 -31 24.5 -45.5t59.5 -14.5q61 0 93.5 32.5t32.5 90.5zM370 0v61h-3q-18 -33 -58.5 -53t-90.5 -20q-69 0 -124.5 36.5t-55.5 112.5q0 41 20.5 71.5t52 47.5t77.5 27.5t87.5 13.5t92.5 3v12
q0 43 -31 65.5t-79 22.5q-76 0 -131 -55l-62 73q82 76 203 76q61 0 105 -17.5t66.5 -48t32.5 -64t10 -72.5v-292h-112z" />
    <glyph glyph-name="aacute" unicode="&#xe1;" horiz-adv-x="550" 
d="M195 564l99 144h136l-141 -144h-94zM368 202v17h-27q-183 0 -183 -80q0 -31 24.5 -45.5t59.5 -14.5q61 0 93.5 32.5t32.5 90.5zM370 0v61h-3q-18 -33 -58.5 -53t-90.5 -20q-69 0 -124.5 36.5t-55.5 112.5q0 41 20.5 71.5t52 47.5t77.5 27.5t87.5 13.5t92.5 3v12
q0 43 -31 65.5t-79 22.5q-76 0 -131 -55l-62 73q82 76 203 76q61 0 105 -17.5t66.5 -48t32.5 -64t10 -72.5v-292h-112z" />
    <glyph glyph-name="acircumflex" unicode="&#xe2;" horiz-adv-x="550" 
d="M456 564h-114l-69 90l-69 -90h-112l115 144h135zM368 202v17h-27q-183 0 -183 -80q0 -31 24.5 -45.5t59.5 -14.5q61 0 93.5 32.5t32.5 90.5zM370 0v61h-3q-18 -33 -58.5 -53t-90.5 -20q-69 0 -124.5 36.5t-55.5 112.5q0 41 20.5 71.5t52 47.5t77.5 27.5t87.5 13.5t92.5 3
v12q0 43 -31 65.5t-79 22.5q-76 0 -131 -55l-62 73q82 76 203 76q61 0 105 -17.5t66.5 -48t32.5 -64t10 -72.5v-292h-112z" />
    <glyph glyph-name="atilde" unicode="&#xe3;" horiz-adv-x="550" 
d="M153 568h-66q22 127 112 127q36 0 79 -18q43 -19 65 -19q33 0 46 42h66q-22 -127 -112 -127q-37 0 -82 20q-39 18 -62 18q-33 0 -46 -43zM368 202v17h-27q-183 0 -183 -80q0 -31 24.5 -45.5t59.5 -14.5q61 0 93.5 32.5t32.5 90.5zM370 0v61h-3q-18 -33 -58.5 -53
t-90.5 -20q-69 0 -124.5 36.5t-55.5 112.5q0 41 20.5 71.5t52 47.5t77.5 27.5t87.5 13.5t92.5 3v12q0 43 -31 65.5t-79 22.5q-76 0 -131 -55l-62 73q82 76 203 76q61 0 105 -17.5t66.5 -48t32.5 -64t10 -72.5v-292h-112z" />
    <glyph glyph-name="adieresis" unicode="&#xe4;" horiz-adv-x="550" 
d="M299 644q0 28 20.5 49t50.5 21q31 0 52 -20t21 -50t-21 -50t-52 -20q-30 0 -50.5 21t-20.5 49zM103 644q0 28 20.5 49t50.5 21q31 0 52 -20t21 -50t-21 -50t-52 -20q-30 0 -50.5 21t-20.5 49zM368 202v17h-27q-183 0 -183 -80q0 -31 24.5 -45.5t59.5 -14.5
q61 0 93.5 32.5t32.5 90.5zM370 0v61h-3q-18 -33 -58.5 -53t-90.5 -20q-69 0 -124.5 36.5t-55.5 112.5q0 41 20.5 71.5t52 47.5t77.5 27.5t87.5 13.5t92.5 3v12q0 43 -31 65.5t-79 22.5q-76 0 -131 -55l-62 73q82 76 203 76q61 0 105 -17.5t66.5 -48t32.5 -64t10 -72.5v-292
h-112z" />
    <glyph glyph-name="aring" unicode="&#xe5;" horiz-adv-x="550" 
d="M328 655q0 25 -17 41t-42 16q-26 0 -42.5 -16.5t-16.5 -41.5q0 -24 17 -40t42 -16t42 16t17 41zM374 655q0 -45 -30 -73.5t-75 -28.5t-75 28.5t-30 72.5t30 73.5t75 29.5t75 -28.5t30 -73.5zM368 202v17h-27q-183 0 -183 -80q0 -31 24.5 -45.5t59.5 -14.5q61 0 93.5 32.5
t32.5 90.5zM370 0v61h-3q-18 -33 -58.5 -53t-90.5 -20q-69 0 -124.5 36.5t-55.5 112.5q0 41 20.5 71.5t52 47.5t77.5 27.5t87.5 13.5t92.5 3v12q0 43 -31 65.5t-79 22.5q-76 0 -131 -55l-62 73q82 76 203 76q61 0 105 -17.5t66.5 -48t32.5 -64t10 -72.5v-292h-112z" />
    <glyph glyph-name="ae" unicode="&#xe6;" horiz-adv-x="887" 
d="M477 288h246q0 49 -29 82.5t-84 33.5q-54 0 -91.5 -32.5t-41.5 -83.5zM368 186v16h-27q-94 0 -138.5 -13t-44.5 -50q0 -31 24.5 -45.5t59.5 -14.5q62 0 94 28t32 79zM611 494q104 0 168 -67.5t64 -192.5q0 -21 -1 -32h-365q6 -52 45 -85t92 -33q83 0 127 63l79 -65
q-70 -96 -206 -96q-129 0 -190 96q-51 -94 -201 -94q-71 0 -128 37.5t-57 111.5q0 39 18 67t46.5 44t73.5 25t89 12t103 3v10q0 102 -109 102q-35 0 -71.5 -15.5t-60.5 -39.5l-61 73q79 76 202 76q112 0 163 -82q60 82 180 82z" />
    <glyph glyph-name="ccedilla" unicode="&#xe7;" horiz-adv-x="488" 
d="M482 419l-82 -72q-14 20 -42 33.5t-57 13.5q-63 0 -97.5 -46t-34.5 -108t36 -108t100 -46q66 0 101 43l75 -76q-59 -62 -165 -67l-35 -50q8 1 19 1q105 0 105 -83q0 -50 -41 -72t-95 -22q-61 0 -110 26l23 48q38 -20 82 -20q57 0 57 41q0 19 -16.5 27.5t-36.5 8.5
q-21 0 -39 -6l-23 25l54 79q-95 12 -155.5 79.5t-60.5 171.5q0 113 74.5 183.5t182.5 70.5q54 0 103 -20t78 -55z" />
    <glyph glyph-name="egrave" unicode="&#xe8;" horiz-adv-x="574" 
d="M260 708l99 -144h-94l-141 144h136zM530 234q0 -21 -1 -32h-365q4 -50 44 -84t93 -34q84 0 127 62l80 -64q-71 -96 -206 -96q-113 0 -185.5 68t-72.5 183t72 186t182 71q104 0 168 -67.5t64 -192.5zM164 288h246q0 49 -29 82.5t-84 33.5q-54 0 -91.5 -32.5t-41.5 -83.5z
" />
    <glyph glyph-name="eacute" unicode="&#xe9;" horiz-adv-x="574" 
d="M231 564l99 144h136l-141 -144h-94zM530 234q0 -21 -1 -32h-365q4 -50 44 -84t93 -34q84 0 127 62l80 -64q-71 -96 -206 -96q-113 0 -185.5 68t-72.5 183t72 186t182 71q104 0 168 -67.5t64 -192.5zM164 288h246q0 49 -29 82.5t-84 33.5q-54 0 -91.5 -32.5t-41.5 -83.5z
" />
    <glyph glyph-name="ecircumflex" unicode="&#xea;" horiz-adv-x="574" 
d="M484 564h-114l-69 90l-69 -90h-112l115 144h135zM530 234q0 -21 -1 -32h-365q4 -50 44 -84t93 -34q84 0 127 62l80 -64q-71 -96 -206 -96q-113 0 -185.5 68t-72.5 183t72 186t182 71q104 0 168 -67.5t64 -192.5zM164 288h246q0 49 -29 82.5t-84 33.5q-54 0 -91.5 -32.5
t-41.5 -83.5z" />
    <glyph glyph-name="edieresis" unicode="&#xeb;" horiz-adv-x="574" 
d="M326 644q0 28 20.5 49t50.5 21q31 0 52 -20t21 -50t-21 -50t-52 -20q-30 0 -50.5 21t-20.5 49zM130 644q0 28 20.5 49t50.5 21q31 0 52 -20t21 -50t-21 -50t-52 -20q-30 0 -50.5 21t-20.5 49zM530 234q0 -21 -1 -32h-365q4 -50 44 -84t93 -34q84 0 127 62l80 -64
q-71 -96 -206 -96q-113 0 -185.5 68t-72.5 183t72 186t182 71q104 0 168 -67.5t64 -192.5zM164 288h246q0 49 -29 82.5t-84 33.5q-54 0 -91.5 -32.5t-41.5 -83.5z" />
    <glyph glyph-name="igrave" unicode="&#xec;" horiz-adv-x="268" 
d="M94 708l99 -144h-94l-141 144h136zM74 0v480h120v-480h-120z" />
    <glyph glyph-name="iacute" unicode="&#xed;" horiz-adv-x="268" 
d="M75 564l99 144h136l-141 -144h-94zM74 0v480h120v-480h-120z" />
    <glyph glyph-name="icircumflex" unicode="&#xee;" horiz-adv-x="268" 
d="M317 564h-114l-69 90l-69 -90h-112l115 144h135zM74 0v480h120v-480h-120z" />
    <glyph glyph-name="idieresis" unicode="&#xef;" horiz-adv-x="268" 
d="M161 644q0 28 20.5 49t50.5 21q31 0 52 -20t21 -50t-21 -50t-52 -20q-30 0 -50.5 21t-20.5 49zM-35 644q0 28 20.5 49t50.5 21q31 0 52 -20t21 -50t-21 -50t-52 -20q-30 0 -50.5 21t-20.5 49zM74 0v480h120v-480h-120z" />
    <glyph glyph-name="eth" unicode="&#xf0;" 
d="M305 86q67 0 104 46t37 108t-37 108t-104 46t-104 -46t-37 -108t37 -108t104 -46zM442 768l64 -56l-117 -54q178 -193 178 -386q0 -127 -69 -206.5t-193 -79.5q-112 0 -186.5 71t-74.5 183q0 111 73.5 182.5t179.5 71.5q71 0 112 -40l2 2q-66 106 -127 156l-108 -50
l-60 57l110 50q-21 23 -78 65l94 55q58 -46 87 -74z" />
    <glyph glyph-name="ntilde" unicode="&#xf1;" horiz-adv-x="582" 
d="M175 568h-66q22 127 112 127q36 0 79 -18q43 -19 65 -19q33 0 46 42h66q-22 -127 -112 -127q-37 0 -82 20q-39 18 -62 18q-33 0 -46 -43zM72 0v480h114v-77h2q17 38 57 64.5t92 26.5q88 0 132.5 -56t44.5 -138v-300h-120v266q0 128 -90 128q-54 0 -83 -38.5t-29 -91.5
v-264h-120z" />
    <glyph glyph-name="ograve" unicode="&#xf2;" 
d="M280 708l99 -144h-94l-141 144h136zM166 242q0 -62 36 -109t103 -47t103 47t36 109t-36 108t-103 46t-103 -46t-36 -108zM44 242q0 112 75 182t186 70t186 -70t75 -182t-75.5 -184t-185.5 -72t-185.5 72t-75.5 184z" />
    <glyph glyph-name="oacute" unicode="&#xf3;" 
d="M233 564l99 144h136l-141 -144h-94zM166 242q0 -62 36 -109t103 -47t103 47t36 109t-36 108t-103 46t-103 -46t-36 -108zM44 242q0 112 75 182t186 70t186 -70t75 -182t-75.5 -184t-185.5 -72t-185.5 72t-75.5 184z" />
    <glyph glyph-name="ocircumflex" unicode="&#xf4;" 
d="M489 564h-114l-69 90l-69 -90h-112l115 144h135zM166 242q0 -62 36 -109t103 -47t103 47t36 109t-36 108t-103 46t-103 -46t-36 -108zM44 242q0 112 75 182t186 70t186 -70t75 -182t-75.5 -184t-185.5 -72t-185.5 72t-75.5 184z" />
    <glyph glyph-name="otilde" unicode="&#xf5;" 
d="M189 568h-66q22 127 112 127q36 0 79 -18q43 -19 65 -19q33 0 46 42h66q-22 -127 -112 -127q-37 0 -82 20q-39 18 -62 18q-33 0 -46 -43zM166 242q0 -62 36 -109t103 -47t103 47t36 109t-36 108t-103 46t-103 -46t-36 -108zM44 242q0 112 75 182t186 70t186 -70t75 -182
t-75.5 -184t-185.5 -72t-185.5 72t-75.5 184z" />
    <glyph glyph-name="odieresis" unicode="&#xf6;" 
d="M333 644q0 28 20.5 49t50.5 21q31 0 52 -20t21 -50t-21 -50t-52 -20q-30 0 -50.5 21t-20.5 49zM137 644q0 28 20.5 49t50.5 21q31 0 52 -20t21 -50t-21 -50t-52 -20q-30 0 -50.5 21t-20.5 49zM166 242q0 -62 36 -109t103 -47t103 47t36 109t-36 108t-103 46t-103 -46
t-36 -108zM44 242q0 112 75 182t186 70t186 -70t75 -182t-75.5 -184t-185.5 -72t-185.5 72t-75.5 184z" />
    <glyph glyph-name="divide" unicode="&#xf7;" horiz-adv-x="666" 
d="M586 250h-506v107h506v-107zM258 123q0 31 22 53t53 22t53 -22t22 -53t-22 -53t-53 -22t-53 22t-22 53zM258 483q0 31 22 53t53 22t53 -22t22 -53t-22 -53t-53 -22t-53 22t-22 53z" />
    <glyph glyph-name="oslash" unicode="&#xf8;" 
d="M533 516l42 -40l-69 -71q60 -68 60 -165q0 -112 -75 -183t-186 -71q-95 0 -159 51l-70 -71l-40 41l67 68q-59 69 -59 165q0 112 75 183t186 71q94 0 158 -50zM427 326l-209 -212q34 -31 87 -31q70 0 106.5 48t36.5 111q0 52 -21 84zM184 156l207 213q-34 31 -86 31
q-69 0 -106 -49t-37 -112q0 -54 22 -83z" />
    <glyph glyph-name="ugrave" unicode="&#xf9;" horiz-adv-x="582" 
d="M264 708l99 -144h-94l-141 144h136zM510 480v-480h-114v77h-2q-17 -38 -57 -64.5t-92 -26.5q-88 0 -132.5 56t-44.5 138v300h120v-266q0 -128 90 -128q54 0 83 38.5t29 91.5v264h120z" />
    <glyph glyph-name="uacute" unicode="&#xfa;" horiz-adv-x="582" 
d="M225 564l99 144h136l-141 -144h-94zM510 480v-480h-114v77h-2q-17 -38 -57 -64.5t-92 -26.5q-88 0 -132.5 56t-44.5 138v300h120v-266q0 -128 90 -128q54 0 83 38.5t29 91.5v264h120z" />
    <glyph glyph-name="ucircumflex" unicode="&#xfb;" horiz-adv-x="582" 
d="M475 564h-114l-69 90l-69 -90h-112l115 144h135zM510 480v-480h-114v77h-2q-17 -38 -57 -64.5t-92 -26.5q-88 0 -132.5 56t-44.5 138v300h120v-266q0 -128 90 -128q54 0 83 38.5t29 91.5v264h120z" />
    <glyph glyph-name="udieresis" unicode="&#xfc;" horiz-adv-x="582" 
d="M318 644q0 28 20.5 49t50.5 21q31 0 52 -20t21 -50t-21 -50t-52 -20q-30 0 -50.5 21t-20.5 49zM122 644q0 28 20.5 49t50.5 21q31 0 52 -20t21 -50t-21 -50t-52 -20q-30 0 -50.5 21t-20.5 49zM510 480v-480h-114v77h-2q-17 -38 -57 -64.5t-92 -26.5q-88 0 -132.5 56
t-44.5 138v300h120v-266q0 -128 90 -128q54 0 83 38.5t29 91.5v264h120z" />
    <glyph glyph-name="yacute" unicode="&#xfd;" horiz-adv-x="513" 
d="M205 564l99 144h136l-141 -144h-94zM206 0l-206 480h133l134 -349h2l119 349h125l-227 -583q-28 -71 -67 -104t-115 -33q-33 0 -62 7l10 104q22 -7 45 -7q36 0 52 16t33 59z" />
    <glyph glyph-name="thorn" unicode="&#xfe;" horiz-adv-x="635" 
d="M469 242q0 62 -36.5 108t-101.5 46q-63 0 -102 -48t-39 -108t39 -107t102 -47q65 0 101.5 47t36.5 109zM74 756h120v-337h3q56 75 161 75q102 0 167.5 -72.5t65.5 -179.5q0 -108 -64.5 -182t-171.5 -74q-51 0 -95 22t-64 58h-2v-294h-120v984z" />
    <glyph glyph-name="ydieresis" unicode="&#xff;" horiz-adv-x="513" 
d="M294 644q0 28 20.5 49t50.5 21q31 0 52 -20t21 -50t-21 -50t-52 -20q-30 0 -50.5 21t-20.5 49zM98 644q0 28 20.5 49t50.5 21q31 0 52 -20t21 -50t-21 -50t-52 -20q-30 0 -50.5 21t-20.5 49zM206 0l-206 480h133l134 -349h2l119 349h125l-227 -583q-28 -71 -67 -104
t-115 -33q-33 0 -62 7l10 104q22 -7 45 -7q36 0 52 16t33 59z" />
    <glyph glyph-name="Amacron" unicode="&#x100;" horiz-adv-x="706" 
d="M515 873v-78h-320v78h320zM240 270h220l-109 288zM-8 0l308 708h109l305 -708h-144l-66 162h-307l-64 -162h-141z" />
    <glyph glyph-name="amacron" unicode="&#x101;" horiz-adv-x="550" 
d="M444 673v-78h-320v78h320zM368 202v17h-27q-183 0 -183 -80q0 -31 24.5 -45.5t59.5 -14.5q61 0 93.5 32.5t32.5 90.5zM370 0v61h-3q-18 -33 -58.5 -53t-90.5 -20q-69 0 -124.5 36.5t-55.5 112.5q0 41 20.5 71.5t52 47.5t77.5 27.5t87.5 13.5t92.5 3v12q0 43 -31 65.5
t-79 22.5q-76 0 -131 -55l-62 73q82 76 203 76q61 0 105 -17.5t66.5 -48t32.5 -64t10 -72.5v-292h-112z" />
    <glyph glyph-name="Abreve" unicode="&#x102;" horiz-adv-x="706" 
d="M184 908h67q12 -66 103 -66q46 0 69.5 13t34.5 53h66q-16 -144 -171 -144q-75 0 -119.5 35.5t-49.5 108.5zM240 270h220l-109 288zM-8 0l308 708h109l305 -708h-144l-66 162h-307l-64 -162h-141z" />
    <glyph glyph-name="abreve" unicode="&#x103;" horiz-adv-x="550" 
d="M109 708h67q12 -66 103 -66q46 0 69.5 13t34.5 53h66q-16 -144 -171 -144q-75 0 -119.5 35.5t-49.5 108.5zM368 202v17h-27q-183 0 -183 -80q0 -31 24.5 -45.5t59.5 -14.5q61 0 93.5 32.5t32.5 90.5zM370 0v61h-3q-18 -33 -58.5 -53t-90.5 -20q-69 0 -124.5 36.5
t-55.5 112.5q0 41 20.5 71.5t52 47.5t77.5 27.5t87.5 13.5t92.5 3v12q0 43 -31 65.5t-79 22.5q-76 0 -131 -55l-62 73q82 76 203 76q61 0 105 -17.5t66.5 -48t32.5 -64t10 -72.5v-292h-112z" />
    <glyph glyph-name="Aogonek" unicode="&#x104;" horiz-adv-x="706" 
d="M240 270h220l-109 288zM653 -147l25 -49q-46 -38 -100 -38q-43 0 -73 23.5t-30 65.5q0 37 28.5 77.5t65.5 68.5l-65 161h-307l-64 -162h-141l308 708h109l305 -708h-85q-28 -26 -52 -60.5t-24 -61.5q0 -19 13.5 -32.5t32.5 -13.5q28 0 54 21z" />
    <glyph glyph-name="aogonek" unicode="&#x105;" horiz-adv-x="550" 
d="M368 202v17h-27q-183 0 -183 -80q0 -31 24.5 -45.5t59.5 -14.5q61 0 93.5 32.5t32.5 90.5zM447 -147l25 -49q-46 -38 -100 -38q-43 0 -73 23.5t-30 65.5q0 38 31 80.5t69 70.5h1v55h-3q-18 -33 -58.5 -53t-90.5 -20q-69 0 -124.5 36.5t-55.5 112.5q0 41 20.5 71.5
t52 47.5t77.5 27.5t87.5 13.5t92.5 3v12q0 43 -31 65.5t-79 22.5q-76 0 -131 -55l-62 73q82 76 203 76q61 0 105 -17.5t66.5 -48t32.5 -64t10 -72.5v-292h-59q-28 -26 -52 -60.5t-24 -61.5q0 -19 13.5 -32.5t32.5 -13.5q28 0 54 21z" />
    <glyph glyph-name="Cacute" unicode="&#x106;" horiz-adv-x="696" 
d="M330 764l99 144h136l-141 -144h-94zM685 618l-96 -76q-26 36 -70.5 54.5t-90.5 18.5q-109 0 -177 -74t-68 -185q0 -117 65.5 -189t174.5 -72q112 0 172 82l101 -71q-99 -124 -274 -124q-166 0 -272 104.5t-106 269.5q0 167 108.5 268.5t275.5 101.5q74 0 146 -28t111 -80
z" />
    <glyph glyph-name="cacute" unicode="&#x107;" horiz-adv-x="488" 
d="M229 564l99 144h136l-141 -144h-94zM482 419l-82 -72q-14 20 -42 33.5t-57 13.5q-63 0 -97.5 -46t-34.5 -108t36 -108t100 -46q66 0 101 43l75 -76q-62 -67 -177 -67q-110 0 -185 69t-75 185q0 113 74.5 183.5t182.5 70.5q54 0 103 -20t78 -55z" />
    <glyph glyph-name="Ccircumflex" unicode="&#x108;" horiz-adv-x="696" 
d="M611 764h-114l-69 90l-69 -90h-112l115 144h135zM685 618l-96 -76q-26 36 -70.5 54.5t-90.5 18.5q-109 0 -177 -74t-68 -185q0 -117 65.5 -189t174.5 -72q112 0 172 82l101 -71q-99 -124 -274 -124q-166 0 -272 104.5t-106 269.5q0 167 108.5 268.5t275.5 101.5
q74 0 146 -28t111 -80z" />
    <glyph glyph-name="ccircumflex" unicode="&#x109;" horiz-adv-x="488" 
d="M483 564h-114l-69 90l-69 -90h-112l115 144h135zM482 419l-82 -72q-14 20 -42 33.5t-57 13.5q-63 0 -97.5 -46t-34.5 -108t36 -108t100 -46q66 0 101 43l75 -76q-62 -67 -177 -67q-110 0 -185 69t-75 185q0 113 74.5 183.5t182.5 70.5q54 0 103 -20t78 -55z" />
    <glyph glyph-name="Cdotaccent" unicode="&#x10a;" horiz-adv-x="696" 
d="M349 843q0 30 21.5 51t54.5 21t55.5 -20.5t22.5 -51.5t-22.5 -51.5t-55.5 -20.5t-54.5 21t-21.5 51zM685 618l-96 -76q-26 36 -70.5 54.5t-90.5 18.5q-109 0 -177 -74t-68 -185q0 -117 65.5 -189t174.5 -72q112 0 172 82l101 -71q-99 -124 -274 -124q-166 0 -272 104.5
t-106 269.5q0 167 108.5 268.5t275.5 101.5q74 0 146 -28t111 -80z" />
    <glyph glyph-name="cdotaccent" unicode="&#x10b;" horiz-adv-x="488" 
d="M222 643q0 30 21.5 51t54.5 21t55.5 -20.5t22.5 -51.5t-22.5 -51.5t-55.5 -20.5t-54.5 21t-21.5 51zM482 419l-82 -72q-14 20 -42 33.5t-57 13.5q-63 0 -97.5 -46t-34.5 -108t36 -108t100 -46q66 0 101 43l75 -76q-62 -67 -177 -67q-110 0 -185 69t-75 185
q0 113 74.5 183.5t182.5 70.5q54 0 103 -20t78 -55z" />
    <glyph glyph-name="Ccaron" unicode="&#x10c;" horiz-adv-x="696" 
d="M243 908h114l69 -90l69 90h110l-115 -144h-133zM685 618l-96 -76q-26 36 -70.5 54.5t-90.5 18.5q-109 0 -177 -74t-68 -185q0 -117 65.5 -189t174.5 -72q112 0 172 82l101 -71q-99 -124 -274 -124q-166 0 -272 104.5t-106 269.5q0 167 108.5 268.5t275.5 101.5
q74 0 146 -28t111 -80z" />
    <glyph glyph-name="ccaron" unicode="&#x10d;" horiz-adv-x="488" 
d="M121 708h114l69 -90l69 90h110l-115 -144h-133zM482 419l-82 -72q-14 20 -42 33.5t-57 13.5q-63 0 -97.5 -46t-34.5 -108t36 -108t100 -46q66 0 101 43l75 -76q-62 -67 -177 -67q-110 0 -185 69t-75 185q0 113 74.5 183.5t182.5 70.5q54 0 103 -20t78 -55z" />
    <glyph glyph-name="Dcaron" unicode="&#x10e;" horiz-adv-x="764" 
d="M163 908h114l69 -90l69 90h110l-115 -144h-133zM204 110h105q41 0 78.5 7t74.5 24.5t63.5 44t43 70t16.5 98.5q0 246 -276 246h-105v-490zM78 0v708h251q74 0 140 -18.5t124 -58t92.5 -111t34.5 -166.5q0 -89 -34.5 -159t-92 -111.5t-125 -62.5t-139.5 -21h-251z" />
    <glyph glyph-name="dcaron" unicode="&#x10f;" horiz-adv-x="634" 
d="M587 513l65 195h106l-80 -195h-91zM165 242q0 -62 36.5 -109t101.5 -47q63 0 102 47t39 107t-39 108t-102 48q-65 0 -101.5 -46t-36.5 -108zM560 756v-756h-114v72h-2q-24 -41 -68.5 -63.5t-96.5 -22.5q-107 0 -171.5 74t-64.5 182q0 107 65.5 179.5t167.5 72.5
q105 0 161 -75h3v337h120z" />
    <glyph glyph-name="Dcroat" unicode="&#x110;" horiz-adv-x="764" 
d="M205 114h94q128 0 207.5 59t79.5 181q0 123 -71.5 181.5t-194.5 58.5h-115v-186h216v-84h-216v-210zM79 0v324h-66v84h66v300h279q72 0 135.5 -22t114.5 -64.5t80.5 -111.5t29.5 -156q0 -70 -22.5 -129.5t-60 -100t-86.5 -69t-101 -42t-105 -13.5h-264z" />
    <glyph glyph-name="dcroat" unicode="&#x111;" horiz-adv-x="634" 
d="M165 242q0 -62 36.5 -109t101.5 -47q63 0 102 47t39 107t-39 108t-102 48q-65 0 -101.5 -46t-36.5 -108zM614 645v-75h-54v-570h-114v72h-2q-24 -41 -68.5 -63.5t-96.5 -22.5q-107 0 -171.5 74t-64.5 182q0 107 65.5 179.5t167.5 72.5q105 0 161 -75h3v151h-170v75h170
v111h120v-111h54z" />
    <glyph glyph-name="Emacron" unicode="&#x112;" 
d="M477 873v-78h-320v78h320zM78 0v708h469v-110h-343v-180h325v-106h-325v-200h361v-112h-487z" />
    <glyph glyph-name="emacron" unicode="&#x113;" horiz-adv-x="574" 
d="M459 673v-78h-320v78h320zM530 234q0 -21 -1 -32h-365q4 -50 44 -84t93 -34q84 0 127 62l80 -64q-71 -96 -206 -96q-113 0 -185.5 68t-72.5 183t72 186t182 71q104 0 168 -67.5t64 -192.5zM164 288h246q0 49 -29 82.5t-84 33.5q-54 0 -91.5 -32.5t-41.5 -83.5z" />
    <glyph glyph-name="Ebreve" unicode="&#x114;" 
d="M146 908h67q12 -66 103 -66q46 0 69.5 13t34.5 53h66q-16 -144 -171 -144q-75 0 -119.5 35.5t-49.5 108.5zM78 0v708h469v-110h-343v-180h325v-106h-325v-200h361v-112h-487z" />
    <glyph glyph-name="ebreve" unicode="&#x115;" horiz-adv-x="574" 
d="M131 708h67q12 -66 103 -66q46 0 69.5 13t34.5 53h66q-16 -144 -171 -144q-75 0 -119.5 35.5t-49.5 108.5zM530 234q0 -21 -1 -32h-365q4 -50 44 -84t93 -34q84 0 127 62l80 -64q-71 -96 -206 -96q-113 0 -185.5 68t-72.5 183t72 186t182 71q104 0 168 -67.5t64 -192.5z
M164 288h246q0 49 -29 82.5t-84 33.5q-54 0 -91.5 -32.5t-41.5 -83.5z" />
    <glyph glyph-name="Edotaccent" unicode="&#x116;" 
d="M244 843q0 30 21.5 51t54.5 21t55.5 -20.5t22.5 -51.5t-22.5 -51.5t-55.5 -20.5t-54.5 21t-21.5 51zM78 0v708h469v-110h-343v-180h325v-106h-325v-200h361v-112h-487z" />
    <glyph glyph-name="edotaccent" unicode="&#x117;" horiz-adv-x="574" 
d="M222 643q0 30 21.5 51t54.5 21t55.5 -20.5t22.5 -51.5t-22.5 -51.5t-55.5 -20.5t-54.5 21t-21.5 51zM530 234q0 -21 -1 -32h-365q4 -50 44 -84t93 -34q84 0 127 62l80 -64q-71 -96 -206 -96q-113 0 -185.5 68t-72.5 183t72 186t182 71q104 0 168 -67.5t64 -192.5z
M164 288h246q0 49 -29 82.5t-84 33.5q-54 0 -91.5 -32.5t-41.5 -83.5z" />
    <glyph glyph-name="Eogonek" unicode="&#x118;" 
d="M78 0v708h469v-110h-343v-180h325v-106h-325v-200h361v-112h-26q-28 -26 -52 -60.5t-24 -61.5q0 -19 13.5 -32.5t32.5 -13.5q28 0 54 21l25 -49q-46 -38 -100 -38q-43 0 -73 23.5t-30 65.5q0 37 27.5 76t64.5 69h-399z" />
    <glyph glyph-name="eogonek" unicode="&#x119;" horiz-adv-x="574" 
d="M164 288h246q0 49 -29 82.5t-84 33.5q-54 0 -91.5 -32.5t-41.5 -83.5zM395 -147l25 -49q-46 -38 -100 -38q-43 0 -73 23.5t-30 65.5q0 61 76 131q-110 2 -179.5 70.5t-69.5 180.5q0 115 72 186t182 71q104 0 168 -67.5t64 -192.5q0 -21 -1 -32h-365q4 -50 44 -84t93 -34
q84 0 127 62l80 -64q-54 -73 -146 -90q-67 -67 -67 -114q0 -19 13.5 -32.5t32.5 -13.5q28 0 54 21z" />
    <glyph glyph-name="Ecaron" unicode="&#x11a;" 
d="M135 908h114l69 -90l69 90h110l-115 -144h-133zM78 0v708h469v-110h-343v-180h325v-106h-325v-200h361v-112h-487z" />
    <glyph glyph-name="ecaron" unicode="&#x11b;" horiz-adv-x="574" 
d="M120 708h114l69 -90l69 90h110l-115 -144h-133zM530 234q0 -21 -1 -32h-365q4 -50 44 -84t93 -34q84 0 127 62l80 -64q-71 -96 -206 -96q-113 0 -185.5 68t-72.5 183t72 186t182 71q104 0 168 -67.5t64 -192.5zM164 288h246q0 49 -29 82.5t-84 33.5q-54 0 -91.5 -32.5
t-41.5 -83.5z" />
    <glyph glyph-name="Gcircumflex" unicode="&#x11c;" horiz-adv-x="773" 
d="M613 764h-114l-69 90l-69 -90h-112l115 144h135zM698 404v-367q-113 -55 -267 -55q-171 0 -279 104.5t-108 269.5q0 167 108.5 268.5t275.5 101.5q83 0 154 -24t115 -65l-87 -94q-28 31 -77 51.5t-104 20.5q-110 0 -178 -74t-68 -185q0 -115 68.5 -188t183.5 -73
q82 0 141 25v180h-149v104h271z" />
    <glyph glyph-name="gcircumflex" unicode="&#x11d;" horiz-adv-x="632" 
d="M507 564h-114l-69 90l-69 -90h-112l115 144h135zM304 396q-63 0 -100.5 -43.5t-37.5 -109.5q0 -60 38 -106t99 -46q64 0 103.5 45t39.5 107q0 65 -39 109t-103 44zM446 480h114v-437q0 -134 -67.5 -208.5t-203.5 -74.5q-62 0 -127.5 21t-110.5 58l69 93q73 -68 168 -68
q152 0 152 165v35h-2q-54 -72 -157 -72q-105 0 -171 72.5t-66 177.5q0 107 64.5 179.5t170.5 72.5q114 0 165 -86h2v72z" />
    <glyph glyph-name="Gbreve" unicode="&#x11e;" horiz-adv-x="773" 
d="M260 908h67q12 -66 103 -66q46 0 69.5 13t34.5 53h66q-16 -144 -171 -144q-75 0 -119.5 35.5t-49.5 108.5zM698 404v-367q-113 -55 -267 -55q-171 0 -279 104.5t-108 269.5q0 167 108.5 268.5t275.5 101.5q83 0 154 -24t115 -65l-87 -94q-28 31 -77 51.5t-104 20.5
q-110 0 -178 -74t-68 -185q0 -115 68.5 -188t183.5 -73q82 0 141 25v180h-149v104h271z" />
    <glyph glyph-name="gbreve" unicode="&#x11f;" horiz-adv-x="632" 
d="M143 708h67q12 -66 103 -66q46 0 69.5 13t34.5 53h66q-16 -144 -171 -144q-75 0 -119.5 35.5t-49.5 108.5zM304 396q-63 0 -100.5 -43.5t-37.5 -109.5q0 -60 38 -106t99 -46q64 0 103.5 45t39.5 107q0 65 -39 109t-103 44zM446 480h114v-437q0 -134 -67.5 -208.5
t-203.5 -74.5q-62 0 -127.5 21t-110.5 58l69 93q73 -68 168 -68q152 0 152 165v35h-2q-54 -72 -157 -72q-105 0 -171 72.5t-66 177.5q0 107 64.5 179.5t170.5 72.5q114 0 165 -86h2v72z" />
    <glyph glyph-name="Gdotaccent" unicode="&#x120;" horiz-adv-x="773" 
d="M354 843q0 30 21.5 51t54.5 21t55.5 -20.5t22.5 -51.5t-22.5 -51.5t-55.5 -20.5t-54.5 21t-21.5 51zM698 404v-367q-113 -55 -267 -55q-171 0 -279 104.5t-108 269.5q0 167 108.5 268.5t275.5 101.5q83 0 154 -24t115 -65l-87 -94q-28 31 -77 51.5t-104 20.5
q-110 0 -178 -74t-68 -185q0 -115 68.5 -188t183.5 -73q82 0 141 25v180h-149v104h271z" />
    <glyph glyph-name="gdotaccent" unicode="&#x121;" horiz-adv-x="632" 
d="M239 643q0 30 21.5 51t54.5 21t55.5 -20.5t22.5 -51.5t-22.5 -51.5t-55.5 -20.5t-54.5 21t-21.5 51zM304 396q-63 0 -100.5 -43.5t-37.5 -109.5q0 -60 38 -106t99 -46q64 0 103.5 45t39.5 107q0 65 -39 109t-103 44zM446 480h114v-437q0 -134 -67.5 -208.5t-203.5 -74.5
q-62 0 -127.5 21t-110.5 58l69 93q73 -68 168 -68q152 0 152 165v35h-2q-54 -72 -157 -72q-105 0 -171 72.5t-66 177.5q0 107 64.5 179.5t170.5 72.5q114 0 165 -86h2v72z" />
    <glyph glyph-name="Gcommaaccent" unicode="&#x122;" horiz-adv-x="773" 
d="M321 -240l65 195h106l-80 -195h-91zM698 404v-367q-113 -55 -267 -55q-171 0 -279 104.5t-108 269.5q0 167 108.5 268.5t275.5 101.5q83 0 154 -24t115 -65l-87 -94q-28 31 -77 51.5t-104 20.5q-110 0 -178 -74t-68 -185q0 -115 68.5 -188t183.5 -73q82 0 141 25v180
h-149v104h271z" />
    <glyph glyph-name="gcommaaccent" unicode="&#x123;" horiz-adv-x="632" 
d="M400 759l-65 -195h-106l80 195h91zM304 396q-63 0 -100.5 -43.5t-37.5 -109.5q0 -60 38 -106t99 -46q64 0 103.5 45t39.5 107q0 65 -39 109t-103 44zM446 480h114v-437q0 -134 -67.5 -208.5t-203.5 -74.5q-62 0 -127.5 21t-110.5 58l69 93q73 -68 168 -68q152 0 152 165
v35h-2q-54 -72 -157 -72q-105 0 -171 72.5t-66 177.5q0 107 64.5 179.5t170.5 72.5q114 0 165 -86h2v72z" />
    <glyph glyph-name="Hcircumflex" unicode="&#x124;" horiz-adv-x="739" 
d="M553 764h-114l-69 90l-69 -90h-112l115 144h135zM78 0v708h126v-286h331v286h126v-708h-126v314h-331v-314h-126z" />
    <glyph glyph-name="hcircumflex" unicode="&#x125;" horiz-adv-x="584" 
d="M476 796h-114l-69 90l-69 -90h-112l115 144h135zM339 494q88 0 132.5 -56t44.5 -138v-300h-120v264q0 127 -89 127q-54 0 -83.5 -38.5t-29.5 -90.5v-262h-120v756h120v-343h2q16 33 54.5 57t88.5 24z" />
    <glyph glyph-name="Hbar" unicode="&#x126;" horiz-adv-x="739" 
d="M204 422h331v78h-331v-78zM78 0v708h126v-133h331v133h126v-708h-126v314h-331v-314h-126z" />
    <glyph glyph-name="hbar" unicode="&#x127;" horiz-adv-x="584" 
d="M364 645v-75h-170v-157h2q16 33 54.5 57t88.5 24q88 0 132.5 -56t44.5 -138v-300h-120v264q0 127 -89 127q-54 0 -83.5 -38.5t-29.5 -90.5v-262h-120v570h-54v75h54v111h120v-111h170z" />
    <glyph glyph-name="Itilde" unicode="&#x128;" horiz-adv-x="282" 
d="M23 768h-66q22 127 112 127q36 0 79 -18q43 -19 65 -19q33 0 46 42h66q-22 -127 -112 -127q-37 0 -82 20q-39 18 -62 18q-33 0 -46 -43zM78 0v708h126v-708h-126z" />
    <glyph glyph-name="itilde" unicode="&#x129;" horiz-adv-x="268" 
d="M18 568h-66q22 127 112 127q36 0 79 -18q43 -19 65 -19q33 0 46 42h66q-22 -127 -112 -127q-37 0 -82 20q-39 18 -62 18q-33 0 -46 -43zM74 0v480h120v-480h-120z" />
    <glyph glyph-name="Imacron" unicode="&#x12a;" horiz-adv-x="282" 
d="M301 873v-78h-320v78h320zM78 0v708h126v-708h-126z" />
    <glyph glyph-name="imacron" unicode="&#x12b;" horiz-adv-x="268" 
d="M296 673v-78h-320v78h320zM74 0v480h120v-480h-120z" />
    <glyph glyph-name="Ibreve" unicode="&#x12c;" horiz-adv-x="282" 
d="M78 0v708h126v-708h-126zM-29 927h67q12 -66 103 -66q46 0 69.5 13t34.5 53h66q-16 -144 -171 -144q-75 0 -119.5 35.5t-49.5 108.5z" />
    <glyph glyph-name="ibreve" unicode="&#x12d;" horiz-adv-x="268" 
d="M74 0v480h120v-480h-120zM-36 700h67q12 -66 103 -66q46 0 69.5 13t34.5 53h66q-16 -144 -171 -144q-75 0 -119.5 35.5t-49.5 108.5z" />
    <glyph glyph-name="Iogonek" unicode="&#x12e;" horiz-adv-x="282" 
d="M78 0v708h126v-708h-13q-28 -26 -52 -60.5t-24 -61.5q0 -19 13.5 -32.5t32.5 -13.5q28 0 54 21l25 -49q-46 -38 -100 -38q-43 0 -73 23.5t-30 65.5q0 37 27.5 76t64.5 69h-51z" />
    <glyph glyph-name="iogonek" unicode="&#x12f;" horiz-adv-x="268" 
d="M57 643q0 30 21.5 51t54.5 21t55.5 -20.5t22.5 -51.5t-22.5 -51.5t-55.5 -20.5t-54.5 21t-21.5 51zM74 0v480h120v-480h-19q-28 -26 -52 -60.5t-24 -61.5q0 -19 13.5 -32.5t32.5 -13.5q28 0 54 21l25 -49q-46 -38 -100 -38q-43 0 -73 23.5t-30 65.5q0 37 27.5 76t64.5 69
h-39z" />
    <glyph glyph-name="Idotaccent" unicode="&#x130;" horiz-adv-x="282" 
d="M63 843q0 30 21.5 51t54.5 21t55.5 -20.5t22.5 -51.5t-22.5 -51.5t-55.5 -20.5t-54.5 21t-21.5 51zM78 0v708h126v-708h-126z" />
    <glyph glyph-name="dotlessi" unicode="&#x131;" horiz-adv-x="268" 
d="M74 0v480h120v-480h-120z" />
    <glyph glyph-name="IJ" unicode="&#x132;" horiz-adv-x="770" 
d="M698 708v-479q0 -34 -5 -65.5t-19.5 -65.5t-37 -59t-61.5 -41t-90 -16q-83 0 -135.5 41.5t-72.5 114.5l116 33q9 -35 33 -55.5t57 -20.5q51 0 70 35.5t19 102.5v475h126zM78 0v708h126v-708h-126z" />
    <glyph glyph-name="ij" unicode="&#x133;" horiz-adv-x="536" 
d="M325 643q0 30 21.5 51t54.5 21t55.5 -20.5t22.5 -51.5t-22.5 -51.5t-55.5 -20.5t-54.5 21t-21.5 51zM342 480h120v-509q0 -47 -7.5 -82t-25.5 -66t-53.5 -47t-87.5 -16q-30 0 -54 6l10 102q15 -4 33 -4q39 0 52 26.5t13 75.5v514zM57 643q0 30 21.5 51t54.5 21
t55.5 -20.5t22.5 -51.5t-22.5 -51.5t-55.5 -20.5t-54.5 21t-21.5 51zM74 0v480h120v-480h-120z" />
    <glyph glyph-name="Jcircumflex" unicode="&#x134;" horiz-adv-x="498" 
d="M544 764h-114l-69 90l-69 -90h-112l115 144h135zM426 708v-479q0 -34 -5 -65.5t-19.5 -65.5t-37 -59t-61.5 -41t-90 -16q-83 0 -135.5 41.5t-72.5 114.5l116 33q9 -35 33 -55.5t57 -20.5q51 0 70 35.5t19 102.5v475h126z" />
    <glyph glyph-name="jcircumflex" unicode="&#x135;" horiz-adv-x="268" 
d="M316 564h-114l-69 90l-69 -90h-112l115 144h135zM74 480h120v-509q0 -47 -7.5 -82t-25.5 -66t-53.5 -47t-87.5 -16q-30 0 -54 6l10 102q15 -4 33 -4q39 0 52 26.5t13 75.5v514z" />
    <glyph glyph-name="Kcommaaccent" unicode="&#x136;" horiz-adv-x="689" 
d="M249 -240l65 195h106l-80 -195h-91zM78 0v708h126v-306h3l296 306h170l-331 -327l353 -381h-177l-311 355h-3v-355h-126z" />
    <glyph glyph-name="kcommaaccent" unicode="&#x137;" horiz-adv-x="543" 
d="M181 -240l65 195h106l-80 -195h-91zM74 0v756h120v-478h3l182 202h154l-208 -217l221 -263h-159l-190 246h-3v-246h-120z" />
    <glyph glyph-name="Lacute" unicode="&#x139;" horiz-adv-x="511" 
d="M93 764l99 144h136l-141 -144h-94zM78 0v708h126v-596h301v-112h-427z" />
    <glyph glyph-name="lacute" unicode="&#x13a;" horiz-adv-x="268" 
d="M74 792l99 144h136l-141 -144h-94zM74 0v756h120v-756h-120z" />
    <glyph glyph-name="Lcommaaccent" unicode="&#x13b;" horiz-adv-x="511" 
d="M187 -240l65 195h106l-80 -195h-91zM78 0v708h126v-596h301v-112h-427z" />
    <glyph glyph-name="lcommaaccent" unicode="&#x13c;" horiz-adv-x="268" 
d="M29 -240l65 195h106l-80 -195h-91zM74 0v756h120v-756h-120z" />
    <glyph glyph-name="Lcaron" unicode="&#x13d;" horiz-adv-x="511" 
d="M266 513l65 195h106l-80 -195h-91zM78 0v708h126v-596h301v-112h-427z" />
    <glyph glyph-name="lcaron" unicode="&#x13e;" horiz-adv-x="268" 
d="M219 513l65 195h106l-80 -195h-91zM74 0v756h120v-756h-120z" />
    <glyph glyph-name="Ldot" unicode="&#x13f;" horiz-adv-x="511" 
d="M317 343q0 30 21.5 51t54.5 21t55.5 -20.5t22.5 -51.5t-22.5 -51.5t-55.5 -20.5t-54.5 21t-21.5 51zM78 0v708h126v-596h301v-112h-427z" />
    <glyph glyph-name="ldot" unicode="&#x140;" horiz-adv-x="391" 
d="M251 343q0 30 21.5 51t54.5 21t55.5 -20.5t22.5 -51.5t-22.5 -51.5t-55.5 -20.5t-54.5 21t-21.5 51zM74 0v756h120v-756h-120z" />
    <glyph glyph-name="Lslash" unicode="&#x141;" horiz-adv-x="511" 
d="M78 0v201l-70 -62v110l70 62v397h126v-300l206 181v-109l-206 -182v-186h301v-112h-427z" />
    <glyph glyph-name="lslash" unicode="&#x142;" horiz-adv-x="268" 
d="M74 0v298l-69 -69v109l69 69v349h120v-255l69 69v-107l-69 -68v-395h-120z" />
    <glyph glyph-name="Nacute" unicode="&#x143;" horiz-adv-x="780" 
d="M309 764l99 144h136l-141 -144h-94zM78 0v708h167l329 -530h2v530h126v-708h-160l-336 547h-2v-547h-126z" />
    <glyph glyph-name="nacute" unicode="&#x144;" horiz-adv-x="582" 
d="M217 564l99 144h136l-141 -144h-94zM72 0v480h114v-77h2q17 38 57 64.5t92 26.5q88 0 132.5 -56t44.5 -138v-300h-120v266q0 128 -90 128q-54 0 -83 -38.5t-29 -91.5v-264h-120z" />
    <glyph glyph-name="Ncommaaccent" unicode="&#x145;" horiz-adv-x="780" 
d="M289 -240l65 195h106l-80 -195h-91zM78 0v708h167l329 -530h2v530h126v-708h-160l-336 547h-2v-547h-126z" />
    <glyph glyph-name="ncommaaccent" unicode="&#x146;" horiz-adv-x="582" 
d="M189 -240l65 195h106l-80 -195h-91zM72 0v480h114v-77h2q17 38 57 64.5t92 26.5q88 0 132.5 -56t44.5 -138v-300h-120v266q0 128 -90 128q-54 0 -83 -38.5t-29 -91.5v-264h-120z" />
    <glyph glyph-name="Ncaron" unicode="&#x147;" horiz-adv-x="780" 
d="M208 908h114l69 -90l69 90h110l-115 -144h-133zM78 0v708h167l329 -530h2v530h126v-708h-160l-336 547h-2v-547h-126z" />
    <glyph glyph-name="ncaron" unicode="&#x148;" horiz-adv-x="582" 
d="M107 708h114l69 -90l69 90h110l-115 -144h-133zM72 0v480h114v-77h2q17 38 57 64.5t92 26.5q88 0 132.5 -56t44.5 -138v-300h-120v266q0 128 -90 128q-54 0 -83 -38.5t-29 -91.5v-264h-120z" />
    <glyph glyph-name="napostrophe" unicode="&#x149;" horiz-adv-x="622" 
d="M-23 513l65 195h106l-80 -195h-91zM112 0v480h114v-77h2q17 38 57 64.5t92 26.5q88 0 132.5 -56t44.5 -138v-300h-120v266q0 128 -90 128q-54 0 -83 -38.5t-29 -91.5v-264h-120z" />
    <glyph glyph-name="Omacron" unicode="&#x14c;" horiz-adv-x="849" 
d="M585 873v-78h-320v78h320zM181 356q0 -114 68 -187.5t175 -73.5q108 0 176 73.5t68 187.5q0 111 -67.5 185t-176.5 74q-108 0 -175.5 -74t-67.5 -185zM44 356q0 168 106 269t273 101q168 0 275 -101t107 -269q0 -164 -108 -269t-274 -105q-165 0 -272 105t-107 269z" />
    <glyph glyph-name="omacron" unicode="&#x14d;" 
d="M465 673v-78h-320v78h320zM166 242q0 -62 36 -109t103 -47t103 47t36 109t-36 108t-103 46t-103 -46t-36 -108zM44 242q0 112 75 182t186 70t186 -70t75 -182t-75.5 -184t-185.5 -72t-185.5 72t-75.5 184z" />
    <glyph glyph-name="Obreve" unicode="&#x14e;" horiz-adv-x="849" 
d="M255 908h67q12 -66 103 -66q46 0 69.5 13t34.5 53h66q-16 -144 -171 -144q-75 0 -119.5 35.5t-49.5 108.5zM181 356q0 -114 68 -187.5t175 -73.5q108 0 176 73.5t68 187.5q0 111 -67.5 185t-176.5 74q-108 0 -175.5 -74t-67.5 -185zM44 356q0 168 106 269t273 101
q168 0 275 -101t107 -269q0 -164 -108 -269t-274 -105q-165 0 -272 105t-107 269z" />
    <glyph glyph-name="obreve" unicode="&#x14f;" 
d="M135 708h67q12 -66 103 -66q46 0 69.5 13t34.5 53h66q-16 -144 -171 -144q-75 0 -119.5 35.5t-49.5 108.5zM166 242q0 -62 36 -109t103 -47t103 47t36 109t-36 108t-103 46t-103 -46t-36 -108zM44 242q0 112 75 182t186 70t186 -70t75 -182t-75.5 -184t-185.5 -72
t-185.5 72t-75.5 184z" />
    <glyph glyph-name="Ohungarumlaut" unicode="&#x150;" horiz-adv-x="849" 
d="M477 764l99 144h136l-141 -144h-94zM272 764l99 144h136l-141 -144h-94zM181 356q0 -114 68 -187.5t175 -73.5q108 0 176 73.5t68 187.5q0 111 -67.5 185t-176.5 74q-108 0 -175.5 -74t-67.5 -185zM44 356q0 168 106 269t273 101q168 0 275 -101t107 -269
q0 -164 -108 -269t-274 -105q-165 0 -272 105t-107 269z" />
    <glyph glyph-name="ohungarumlaut" unicode="&#x151;" 
d="M364 564l99 144h136l-141 -144h-94zM159 564l99 144h136l-141 -144h-94zM166 242q0 -62 36 -109t103 -47t103 47t36 109t-36 108t-103 46t-103 -46t-36 -108zM44 242q0 112 75 182t186 70t186 -70t75 -182t-75.5 -184t-185.5 -72t-185.5 72t-75.5 184z" />
    <glyph glyph-name="OE" unicode="&#x152;" horiz-adv-x="1027" 
d="M435 708h529v-110h-328v-180h310v-106h-310v-200h346v-112h-547q-72 0 -139.5 21t-125 62.5t-92 111.5t-34.5 159q0 95 34.5 166.5t92.5 111t124 58t140 18.5zM455 112h55v486h-55q-276 0 -276 -244q0 -68 24 -117.5t66 -75.5t87.5 -37.5t98.5 -11.5z" />
    <glyph glyph-name="oe" unicode="&#x153;" horiz-adv-x="959" 
d="M549 288h246q0 49 -29 82.5t-84 33.5q-54 0 -91.5 -32.5t-41.5 -83.5zM166 242q0 -62 36 -109t103 -47t103 47t36 109t-36 108t-103 46t-103 -46t-36 -108zM683 494q104 0 168 -67.5t64 -192.5q0 -21 -1 -32h-365q6 -52 45 -85t92 -33q83 0 127 63l79 -65
q-70 -96 -206 -96q-130 0 -195 91q-31 -42 -80.5 -66.5t-109.5 -24.5q-109 0 -183 72t-74 184t73.5 182t183.5 70q60 0 111.5 -25t81.5 -68q72 93 189 93z" />
    <glyph glyph-name="Racute" unicode="&#x154;" horiz-adv-x="629" 
d="M224 764l99 144h136l-141 -144h-94zM204 403h103q152 0 152 103q0 52 -41 74t-100 22h-114v-199zM78 0v708h246q71 0 127.5 -18.5t95 -66t38.5 -118.5q0 -76 -42.5 -124.5t-119.5 -66.5l189 -314h-152l-164 300h-92v-300h-126z" />
    <glyph glyph-name="racute" unicode="&#x155;" horiz-adv-x="364" 
d="M103 564l99 144h136l-141 -144h-94zM72 0v480h115v-80h2q21 43 57 68.5t83 25.5q21 0 29 -3v-110q-20 5 -37 5q-38 0 -65.5 -14.5t-40 -37t-18 -41.5t-5.5 -36v-257h-120z" />
    <glyph glyph-name="Rcommaaccent" unicode="&#x156;" horiz-adv-x="629" 
d="M212 -240l65 195h106l-80 -195h-91zM204 403h103q152 0 152 103q0 52 -41 74t-100 22h-114v-199zM78 0v708h246q71 0 127.5 -18.5t95 -66t38.5 -118.5q0 -76 -42.5 -124.5t-119.5 -66.5l189 -314h-152l-164 300h-92v-300h-126z" />
    <glyph glyph-name="rcommaaccent" unicode="&#x157;" horiz-adv-x="364" 
d="M28 -240l65 195h106l-80 -195h-91zM72 0v480h115v-80h2q21 43 57 68.5t83 25.5q21 0 29 -3v-110q-20 5 -37 5q-38 0 -65.5 -14.5t-40 -37t-18 -41.5t-5.5 -36v-257h-120z" />
    <glyph glyph-name="Rcaron" unicode="&#x158;" horiz-adv-x="629" 
d="M124 908h114l69 -90l69 90h110l-115 -144h-133zM204 403h103q152 0 152 103q0 52 -41 74t-100 22h-114v-199zM78 0v708h246q71 0 127.5 -18.5t95 -66t38.5 -118.5q0 -76 -42.5 -124.5t-119.5 -66.5l189 -314h-152l-164 300h-92v-300h-126z" />
    <glyph glyph-name="rcaron" unicode="&#x159;" horiz-adv-x="364" 
d="M29 708h114l69 -90l69 90h110l-115 -144h-133zM72 0v480h115v-80h2q21 43 57 68.5t83 25.5q21 0 29 -3v-110q-20 5 -37 5q-38 0 -65.5 -14.5t-40 -37t-18 -41.5t-5.5 -36v-257h-120z" />
    <glyph glyph-name="Sacute" unicode="&#x15a;" horiz-adv-x="574" 
d="M233 764l99 144h136l-141 -144h-94zM521 650l-82 -90q-20 26 -56.5 43.5t-73.5 17.5q-49 0 -87 -24.5t-38 -72.5q0 -24 8.5 -40.5t30 -29.5t40.5 -20t56 -19q36 -11 57.5 -19t53.5 -25.5t50.5 -37.5t32 -52.5t13.5 -72.5q0 -109 -73.5 -167.5t-184.5 -58.5
q-71 0 -136.5 26t-106.5 75l90 84q26 -35 69 -56.5t86 -21.5q51 0 89.5 26t38.5 79q0 25 -10.5 44t-33.5 32t-44.5 21.5t-58.5 20.5q-11 3 -16 5q-39 13 -65 25.5t-55 35t-44 58t-15 82.5q0 68 39 116.5t96 70t124 21.5q124 0 206 -76z" />
    <glyph glyph-name="sacute" unicode="&#x15b;" horiz-adv-x="444" 
d="M158 564l99 144h136l-141 -144h-94zM413 421l-78 -69q-17 22 -45 37t-60 15t-54.5 -13t-22.5 -39t22.5 -37.5t81.5 -25.5q155 -34 155 -143q0 -82 -56.5 -121t-143.5 -39q-57 0 -109.5 20.5t-87.5 58.5l79 74q46 -60 123 -60q31 0 54 14t23 43q0 28 -24.5 41.5
t-85.5 27.5q-65 14 -103.5 44.5t-38.5 91.5q0 75 56 114t135 39q54 0 103 -19t77 -54z" />
    <glyph glyph-name="Scircumflex" unicode="&#x15c;" horiz-adv-x="574" 
d="M494 764h-114l-69 90l-69 -90h-112l115 144h135zM521 650l-82 -90q-20 26 -56.5 43.5t-73.5 17.5q-49 0 -87 -24.5t-38 -72.5q0 -24 8.5 -40.5t30 -29.5t40.5 -20t56 -19q36 -11 57.5 -19t53.5 -25.5t50.5 -37.5t32 -52.5t13.5 -72.5q0 -109 -73.5 -167.5t-184.5 -58.5
q-71 0 -136.5 26t-106.5 75l90 84q26 -35 69 -56.5t86 -21.5q51 0 89.5 26t38.5 79q0 25 -10.5 44t-33.5 32t-44.5 21.5t-58.5 20.5q-11 3 -16 5q-39 13 -65 25.5t-55 35t-44 58t-15 82.5q0 68 39 116.5t96 70t124 21.5q124 0 206 -76z" />
    <glyph glyph-name="scircumflex" unicode="&#x15d;" horiz-adv-x="444" 
d="M418 564h-114l-69 90l-69 -90h-112l115 144h135zM413 421l-78 -69q-17 22 -45 37t-60 15t-54.5 -13t-22.5 -39t22.5 -37.5t81.5 -25.5q155 -34 155 -143q0 -82 -56.5 -121t-143.5 -39q-57 0 -109.5 20.5t-87.5 58.5l79 74q46 -60 123 -60q31 0 54 14t23 43
q0 28 -24.5 41.5t-85.5 27.5q-65 14 -103.5 44.5t-38.5 91.5q0 75 56 114t135 39q54 0 103 -19t77 -54z" />
    <glyph glyph-name="Scedilla" unicode="&#x15e;" horiz-adv-x="574" 
d="M521 650l-82 -90q-20 26 -56.5 43.5t-73.5 17.5q-49 0 -87 -24.5t-38 -72.5q0 -24 8.5 -40.5t30 -29.5t40.5 -20t56 -19q36 -11 57.5 -19t53.5 -25.5t50.5 -37.5t32 -52.5t13.5 -72.5q0 -100 -63.5 -157.5t-162.5 -66.5l-33 -48q8 1 19 1q105 0 105 -83q0 -50 -41 -72
t-95 -22q-61 0 -110 26l23 48q38 -20 82 -20q57 0 57 41q0 19 -16.5 27.5t-36.5 8.5q-21 0 -39 -6l-23 25l50 73q-142 12 -217 100l90 84q26 -35 69 -56.5t86 -21.5q51 0 89.5 26t38.5 79q0 25 -10.5 44t-33.5 32t-44.5 21.5t-58.5 20.5q-11 3 -16 5q-39 13 -65 25.5t-55 35
t-44 58t-15 82.5q0 68 39 116.5t96 70t124 21.5q124 0 206 -76z" />
    <glyph glyph-name="scedilla" unicode="&#x15f;" horiz-adv-x="444" 
d="M413 421l-78 -69q-17 22 -45 37t-60 15t-54.5 -13t-22.5 -39t22.5 -37.5t81.5 -25.5q155 -34 155 -143q0 -75 -47.5 -113.5t-123.5 -45.5l-36 -51q8 1 19 1q105 0 105 -83q0 -50 -41 -72t-95 -22q-61 0 -110 26l23 48q38 -20 82 -20q57 0 57 41q0 19 -16.5 27.5
t-36.5 8.5q-21 0 -39 -6l-23 25l53 78q-110 12 -168 77l79 74q46 -60 123 -60q31 0 54 14t23 43q0 28 -24.5 41.5t-85.5 27.5q-65 14 -103.5 44.5t-38.5 91.5q0 75 56 114t135 39q54 0 103 -19t77 -54z" />
    <glyph glyph-name="Scaron" unicode="&#x160;" horiz-adv-x="574" 
d="M128 908h114l69 -90l69 90h110l-115 -144h-133zM521 650l-82 -90q-20 26 -56.5 43.5t-73.5 17.5q-49 0 -87 -24.5t-38 -72.5q0 -24 8.5 -40.5t30 -29.5t40.5 -20t56 -19q36 -11 57.5 -19t53.5 -25.5t50.5 -37.5t32 -52.5t13.5 -72.5q0 -109 -73.5 -167.5t-184.5 -58.5
q-71 0 -136.5 26t-106.5 75l90 84q26 -35 69 -56.5t86 -21.5q51 0 89.5 26t38.5 79q0 25 -10.5 44t-33.5 32t-44.5 21.5t-58.5 20.5q-11 3 -16 5q-39 13 -65 25.5t-55 35t-44 58t-15 82.5q0 68 39 116.5t96 70t124 21.5q124 0 206 -76z" />
    <glyph glyph-name="scaron" unicode="&#x161;" horiz-adv-x="444" 
d="M47 708h114l69 -90l69 90h110l-115 -144h-133zM413 421l-78 -69q-17 22 -45 37t-60 15t-54.5 -13t-22.5 -39t22.5 -37.5t81.5 -25.5q155 -34 155 -143q0 -82 -56.5 -121t-143.5 -39q-57 0 -109.5 20.5t-87.5 58.5l79 74q46 -60 123 -60q31 0 54 14t23 43q0 28 -24.5 41.5
t-85.5 27.5q-65 14 -103.5 44.5t-38.5 91.5q0 75 56 114t135 39q54 0 103 -19t77 -54z" />
    <glyph glyph-name="Tcommaaccent" unicode="&#x162;" horiz-adv-x="568" 
d="M321 0l-45 -64q8 1 19 1q105 0 105 -83q0 -50 -41 -72t-95 -22q-61 0 -110 26l23 48q38 -20 82 -20q57 0 57 41q0 19 -16.5 27.5t-36.5 8.5q-21 0 -39 -6l-23 25l62 90h58zM221 0v598h-217v110h560v-110h-217v-598h-126z" />
    <glyph glyph-name="tcommaaccent" unicode="&#x163;" horiz-adv-x="340" 
d="M264 0l-45 -64q8 1 19 1q105 0 105 -83q0 -50 -41 -72t-95 -22q-61 0 -110 26l23 48q38 -20 82 -20q57 0 57 41q0 19 -16.5 27.5t-36.5 8.5q-21 0 -39 -6l-23 25l62 90h58zM87 384h-84v96h84v139h118v-139h120v-96h-120v-223q0 -36 13 -55t50 -19q30 0 51 10l4 -94
q-34 -13 -80 -13q-88 0 -122 45.5t-34 124.5v224z" />
    <glyph glyph-name="Tcaron" unicode="&#x164;" horiz-adv-x="568" 
d="M105 908h114l69 -90l69 90h110l-115 -144h-133zM221 0v598h-217v110h560v-110h-217v-598h-126z" />
    <glyph glyph-name="tcaron" unicode="&#x165;" horiz-adv-x="340" 
d="M232 536l65 195h106l-80 -195h-91zM87 384h-84v96h84v139h118v-139h120v-96h-120v-223q0 -36 13 -55t50 -19q30 0 51 10l4 -94q-34 -13 -80 -13q-88 0 -122 45.5t-34 124.5v224z" />
    <glyph glyph-name="Tbar" unicode="&#x166;" horiz-adv-x="568" 
d="M506 507v-75h-159v-432h-126v432h-149v75h149v91h-217v110h560v-110h-217v-91h159z" />
    <glyph glyph-name="tbar" unicode="&#x167;" horiz-adv-x="340" 
d="M305 294v-75h-100v-58q0 -36 13 -55t50 -19q30 0 51 10l4 -94q-34 -13 -80 -13q-88 0 -122 45.5t-34 124.5v59h-75v75h75v90h-84v96h84v139h118v-139h120v-96h-120v-90h100z" />
    <glyph glyph-name="Utilde" unicode="&#x168;" horiz-adv-x="714" 
d="M243 768h-66q22 127 112 127q36 0 79 -18q43 -19 65 -19q33 0 46 42h66q-22 -127 -112 -127q-37 0 -82 20q-39 18 -62 18q-33 0 -46 -43zM642 708v-448q0 -126 -80.5 -202t-204.5 -76t-204.5 76t-80.5 202v448h126v-443q0 -71 38 -120.5t121 -49.5t121 49.5t38 120.5v443
h126z" />
    <glyph glyph-name="utilde" unicode="&#x169;" horiz-adv-x="582" 
d="M173 568h-66q22 127 112 127q36 0 79 -18q43 -19 65 -19q33 0 46 42h66q-22 -127 -112 -127q-37 0 -82 20q-39 18 -62 18q-33 0 -46 -43zM510 480v-480h-114v77h-2q-17 -38 -57 -64.5t-92 -26.5q-88 0 -132.5 56t-44.5 138v300h120v-266q0 -128 90 -128q54 0 83 38.5
t29 91.5v264h120z" />
    <glyph glyph-name="Umacron" unicode="&#x16a;" horiz-adv-x="714" 
d="M521 873v-78h-320v78h320zM642 708v-448q0 -126 -80.5 -202t-204.5 -76t-204.5 76t-80.5 202v448h126v-443q0 -71 38 -120.5t121 -49.5t121 49.5t38 120.5v443h126z" />
    <glyph glyph-name="umacron" unicode="&#x16b;" horiz-adv-x="582" 
d="M450 673v-78h-320v78h320zM510 480v-480h-114v77h-2q-17 -38 -57 -64.5t-92 -26.5q-88 0 -132.5 56t-44.5 138v300h120v-266q0 -128 90 -128q54 0 83 38.5t29 91.5v264h120z" />
    <glyph glyph-name="Ubreve" unicode="&#x16c;" horiz-adv-x="714" 
d="M186 908h67q12 -66 103 -66q46 0 69.5 13t34.5 53h66q-16 -144 -171 -144q-75 0 -119.5 35.5t-49.5 108.5zM642 708v-448q0 -126 -80.5 -202t-204.5 -76t-204.5 76t-80.5 202v448h126v-443q0 -71 38 -120.5t121 -49.5t121 49.5t38 120.5v443h126z" />
    <glyph glyph-name="ubreve" unicode="&#x16d;" horiz-adv-x="582" 
d="M119 708h67q12 -66 103 -66q46 0 69.5 13t34.5 53h66q-16 -144 -171 -144q-75 0 -119.5 35.5t-49.5 108.5zM510 480v-480h-114v77h-2q-17 -38 -57 -64.5t-92 -26.5q-88 0 -132.5 56t-44.5 138v300h120v-266q0 -128 90 -128q54 0 83 38.5t29 91.5v264h120z" />
    <glyph glyph-name="Uring" unicode="&#x16e;" horiz-adv-x="714" 
d="M420 855q0 25 -17 41t-42 16q-26 0 -42.5 -16.5t-16.5 -41.5q0 -24 17 -40t42 -16t42 16t17 41zM466 855q0 -45 -30 -73.5t-75 -28.5t-75 28.5t-30 72.5t30 73.5t75 29.5t75 -28.5t30 -73.5zM642 708v-448q0 -126 -80.5 -202t-204.5 -76t-204.5 76t-80.5 202v448h126
v-443q0 -71 38 -120.5t121 -49.5t121 49.5t38 120.5v443h126z" />
    <glyph glyph-name="uring" unicode="&#x16f;" horiz-adv-x="582" 
d="M347 655q0 25 -17 41t-42 16q-26 0 -42.5 -16.5t-16.5 -41.5q0 -24 17 -40t42 -16t42 16t17 41zM393 655q0 -45 -30 -73.5t-75 -28.5t-75 28.5t-30 72.5t30 73.5t75 29.5t75 -28.5t30 -73.5zM510 480v-480h-114v77h-2q-17 -38 -57 -64.5t-92 -26.5q-88 0 -132.5 56
t-44.5 138v300h120v-266q0 -128 90 -128q54 0 83 38.5t29 91.5v264h120z" />
    <glyph glyph-name="Uhungarumlaut" unicode="&#x170;" horiz-adv-x="714" 
d="M408 764l99 144h136l-141 -144h-94zM203 764l99 144h136l-141 -144h-94zM642 708v-448q0 -126 -80.5 -202t-204.5 -76t-204.5 76t-80.5 202v448h126v-443q0 -71 38 -120.5t121 -49.5t121 49.5t38 120.5v443h126z" />
    <glyph glyph-name="uhungarumlaut" unicode="&#x171;" horiz-adv-x="582" 
d="M339 564l99 144h136l-141 -144h-94zM134 564l99 144h136l-141 -144h-94zM510 480v-480h-114v77h-2q-17 -38 -57 -64.5t-92 -26.5q-88 0 -132.5 56t-44.5 138v300h120v-266q0 -128 90 -128q54 0 83 38.5t29 91.5v264h120z" />
    <glyph glyph-name="Uogonek" unicode="&#x172;" horiz-adv-x="714" 
d="M447 -147l25 -49q-46 -38 -100 -38q-43 0 -73 23.5t-30 65.5q0 60 72 128q-118 6 -193.5 80.5t-75.5 196.5v448h126v-443q0 -71 38 -120.5t121 -49.5t121 49.5t38 120.5v443h126v-448q0 -112 -65 -185.5t-169 -88.5q-61 -61 -61 -108q0 -19 13.5 -32.5t32.5 -13.5
q28 0 54 21z" />
    <glyph glyph-name="uogonek" unicode="&#x173;" horiz-adv-x="582" 
d="M477 -147l25 -49q-46 -38 -100 -38q-43 0 -73 23.5t-30 65.5q0 38 29.5 79.5t67.5 69.5v73h-2q-17 -38 -57 -64.5t-92 -26.5q-88 0 -132.5 56t-44.5 138v300h120v-266q0 -128 90 -128q54 0 83 38.5t29 91.5v264h120v-480h-57q-28 -26 -52 -60.5t-24 -61.5
q0 -19 13.5 -32.5t32.5 -13.5q28 0 54 21z" />
    <glyph glyph-name="Wcircumflex" unicode="&#x174;" horiz-adv-x="1004" 
d="M685 764h-114l-69 90l-69 -90h-112l115 144h135zM213 0l-207 708h138l137 -520h2l156 520h130l153 -520h2l140 520h134l-207 -708h-122l-166 531h-2l-166 -531h-122z" />
    <glyph glyph-name="wcircumflex" unicode="&#x175;" horiz-adv-x="804" 
d="M586 564h-114l-69 90l-69 -90h-112l115 144h135zM171 0l-167 480h130l100 -344h2l103 344h128l104 -344h2l102 344h125l-166 -480h-122l-109 336h-2l-108 -336h-122z" />
    <glyph glyph-name="Ycircumflex" unicode="&#x176;" horiz-adv-x="622" 
d="M497 764h-114l-69 90l-69 -90h-112l115 144h135zM249 0v307l-266 401h154l178 -298l180 298h146l-266 -401v-307h-126z" />
    <glyph glyph-name="ycircumflex" unicode="&#x177;" horiz-adv-x="513" 
d="M448 564h-114l-69 90l-69 -90h-112l115 144h135zM206 0l-206 480h133l134 -349h2l119 349h125l-227 -583q-28 -71 -67 -104t-115 -33q-33 0 -62 7l10 104q22 -7 45 -7q36 0 52 16t33 59z" />
    <glyph glyph-name="Ydieresis" unicode="&#x178;" horiz-adv-x="622" 
d="M341 844q0 28 20.5 49t50.5 21q31 0 52 -20t21 -50t-21 -50t-52 -20q-30 0 -50.5 21t-20.5 49zM145 844q0 28 20.5 49t50.5 21q31 0 52 -20t21 -50t-21 -50t-52 -20q-30 0 -50.5 21t-20.5 49zM249 0v307l-266 401h154l178 -298l180 298h146l-266 -401v-307h-126z" />
    <glyph glyph-name="Zacute" unicode="&#x179;" horiz-adv-x="611" 
d="M234 764l99 144h136l-141 -144h-94zM35 0v114l385 484h-379v110h529v-114l-387 -482h393v-112h-541z" />
    <glyph glyph-name="zacute" unicode="&#x17a;" horiz-adv-x="482" 
d="M174 564l99 144h136l-141 -144h-94zM34 0v106l259 278h-247v96h390v-106l-260 -276h272v-98h-414z" />
    <glyph glyph-name="Zdotaccent" unicode="&#x17b;" horiz-adv-x="611" 
d="M232 843q0 30 21.5 51t54.5 21t55.5 -20.5t22.5 -51.5t-22.5 -51.5t-55.5 -20.5t-54.5 21t-21.5 51zM35 0v114l385 484h-379v110h529v-114l-387 -482h393v-112h-541z" />
    <glyph glyph-name="zdotaccent" unicode="&#x17c;" horiz-adv-x="482" 
d="M166 643q0 30 21.5 51t54.5 21t55.5 -20.5t22.5 -51.5t-22.5 -51.5t-55.5 -20.5t-54.5 21t-21.5 51zM34 0v106l259 278h-247v96h390v-106l-260 -276h272v-98h-414z" />
    <glyph glyph-name="Zcaron" unicode="&#x17d;" horiz-adv-x="611" 
d="M126 908h114l69 -90l69 90h110l-115 -144h-133zM35 0v114l385 484h-379v110h529v-114l-387 -482h393v-112h-541z" />
    <glyph glyph-name="zcaron" unicode="&#x17e;" horiz-adv-x="482" 
d="M65 708h114l69 -90l69 90h110l-115 -144h-133zM34 0v106l259 278h-247v96h390v-106l-260 -276h272v-98h-414z" />
    <glyph glyph-name="florin" unicode="&#x192;" 
d="M480 426v-90h-138l-57 -288q-19 -96 -64 -141.5t-123 -45.5q-56 0 -102 24l45 92q20 -14 47 -14q36 0 53 26t27 78l53 269h-113v90h131l22 111q17 85 58 134t122 49q60 0 117 -31l-46 -93q-26 16 -55 16q-21 0 -35.5 -8.5t-23.5 -26t-13 -30.5t-9 -37l-18 -84h122z" />
    <glyph glyph-name="Ohorn" unicode="&#x1a0;" horiz-adv-x="849" 
d="M181 356q0 -114 68 -187.5t175 -73.5q108 0 176 73.5t68 187.5q0 111 -67.5 185t-176.5 74q-108 0 -175.5 -74t-67.5 -185zM846 750q0 -68 -34 -104t-98 -38q91 -102 91 -252q0 -164 -108 -269t-274 -105q-165 0 -272 105t-107 269q0 168 106 269t273 101q61 0 109.5 -13
t80.5 -26t53 -13q41 0 58.5 19t17.5 57q0 36 -17 61l103 26q18 -37 18 -87z" />
    <glyph glyph-name="ohorn" unicode="&#x1a1;" horiz-adv-x="624" 
d="M166 242q0 -62 36 -109t103 -47t103 47t36 109t-36 108t-103 46t-103 -46t-36 -108zM641 542q0 -134 -129 -142q54 -66 54 -158q0 -112 -75.5 -184t-185.5 -72t-185.5 72t-75.5 184t75 182t186 70q47 0 93.5 -15t58.5 -15q43 0 61.5 19.5t18.5 58.5q0 36 -17 61l103 26
q18 -37 18 -87z" />
    <glyph glyph-name="Uhorn" unicode="&#x1af;" horiz-adv-x="724" 
d="M642 644v-384q0 -126 -80.5 -202t-204.5 -76t-204.5 76t-80.5 202v448h126v-443q0 -71 38 -120.5t121 -49.5t121 49.5t38 120.5v443h71q43 0 61.5 19.5t18.5 58.5q0 36 -17 61l103 26q18 -37 18 -87q0 -68 -34 -104t-95 -38z" />
    <glyph glyph-name="uhorn" unicode="&#x1b0;" horiz-adv-x="602" 
d="M510 416v-416h-114v77h-2q-17 -38 -57 -64.5t-92 -26.5q-88 0 -132.5 56t-44.5 138v300h120v-266q0 -128 90 -128q54 0 83 38.5t29 91.5v264h65q43 0 61.5 19.5t18.5 58.5q0 36 -17 61l103 26q18 -37 18 -87q0 -68 -34 -104t-95 -38z" />
    <glyph glyph-name="clickdental" unicode="&#x1c0;" horiz-adv-x="222" 
d="M60 750h102v-1000h-102v1000z" />
    <glyph glyph-name="clicklateral" unicode="&#x1c1;" horiz-adv-x="444" 
d="M60 750h102v-1000h-102v1000zM282 750h102v-1000h-102v1000z" />
    <glyph glyph-name="clickretroflex" unicode="&#x1c3;" horiz-adv-x="340" 
d="M90 70q0 32 23.5 55t56.5 23t56.5 -22t23.5 -54t-23.5 -55t-56.5 -23t-56.5 22t-23.5 54zM230 708v-486h-120v486h120z" />
    <glyph glyph-name="DZcaron" unicode="&#x1c4;" horiz-adv-x="1406" 
d="M204 110h105q41 0 78.5 7t74.5 24.5t63.5 44t43 70t16.5 98.5q0 246 -276 246h-105v-490zM78 0v708h251q74 0 140 -18.5t124 -58t92.5 -111t34.5 -166.5q0 -89 -34.5 -159t-92 -111.5t-125 -62.5t-139.5 -21h-251zM799 0v114l385 484h-379v110h529v-114l-387 -482h393
v-112h-541zM888 927h114l69 -90l69 90h110l-115 -144h-133z" />
    <glyph glyph-name="Dzcaron" unicode="&#x1c5;" horiz-adv-x="1264" 
d="M204 110h105q41 0 78.5 7t74.5 24.5t63.5 44t43 70t16.5 98.5q0 246 -276 246h-105v-490zM78 0v708h251q74 0 140 -18.5t124 -58t92.5 -111t34.5 -166.5q0 -89 -34.5 -159t-92 -111.5t-125 -62.5t-139.5 -21h-251zM798 0v106l259 278h-247v96h390v-106l-260 -276h272v-98
h-414zM824 700h114l69 -90l69 90h110l-115 -144h-133z" />
    <glyph glyph-name="dzcaron" unicode="&#x1c6;" horiz-adv-x="1126" 
d="M165 242q0 -62 36.5 -109t101.5 -47q63 0 102 47t39 107t-39 108t-102 48q-65 0 -101.5 -46t-36.5 -108zM560 756v-756h-114v72h-2q-24 -41 -68.5 -63.5t-96.5 -22.5q-107 0 -171.5 74t-64.5 182q0 107 65.5 179.5t167.5 72.5q105 0 161 -75h3v337h120zM668 0v106
l259 278h-247v96h390v-106l-260 -276h272v-98h-414zM694 700h114l69 -90l69 90h110l-115 -144h-133z" />
    <glyph glyph-name="LJ" unicode="&#x1c7;" horiz-adv-x="1009" 
d="M78 0v708h126v-596h301v-112h-427zM937 708v-479q0 -34 -5 -65.5t-19.5 -65.5t-37 -59t-61.5 -41t-90 -16q-83 0 -135.5 41.5t-72.5 114.5l116 33q9 -35 33 -55.5t57 -20.5q51 0 70 35.5t19 102.5v475h126z" />
    <glyph glyph-name="Lj" unicode="&#x1c8;" horiz-adv-x="779" 
d="M78 0v708h126v-596h301v-112h-427zM568 643q0 30 21.5 51t54.5 21t55.5 -20.5t22.5 -51.5t-22.5 -51.5t-55.5 -20.5t-54.5 21t-21.5 51zM585 480h120v-509q0 -47 -7.5 -82t-25.5 -66t-53.5 -47t-87.5 -16q-30 0 -54 6l10 102q15 -4 33 -4q39 0 52 26.5t13 75.5v514z" />
    <glyph glyph-name="lj" unicode="&#x1c9;" horiz-adv-x="536" 
d="M74 0v756h120v-756h-120zM325 643q0 30 21.5 51t54.5 21t55.5 -20.5t22.5 -51.5t-22.5 -51.5t-55.5 -20.5t-54.5 21t-21.5 51zM342 480h120v-509q0 -47 -7.5 -82t-25.5 -66t-53.5 -47t-87.5 -16q-30 0 -54 6l10 102q15 -4 33 -4q39 0 52 26.5t13 75.5v514z" />
    <glyph glyph-name="NJ" unicode="&#x1ca;" horiz-adv-x="1278" 
d="M78 0v708h167l329 -530h2v530h126v-708h-160l-336 547h-2v-547h-126zM1206 708v-479q0 -34 -5 -65.5t-19.5 -65.5t-37 -59t-61.5 -41t-90 -16q-83 0 -135.5 41.5t-72.5 114.5l116 33q9 -35 33 -55.5t57 -20.5q51 0 70 35.5t19 102.5v475h126z" />
    <glyph glyph-name="Nj" unicode="&#x1cb;" horiz-adv-x="1048" 
d="M78 0v708h167l329 -530h2v530h126v-708h-160l-336 547h-2v-547h-126zM837 643q0 30 21.5 51t54.5 21t55.5 -20.5t22.5 -51.5t-22.5 -51.5t-55.5 -20.5t-54.5 21t-21.5 51zM854 480h120v-509q0 -47 -7.5 -82t-25.5 -66t-53.5 -47t-87.5 -16q-30 0 -54 6l10 102
q15 -4 33 -4q39 0 52 26.5t13 75.5v514z" />
    <glyph glyph-name="nj" unicode="&#x1cc;" horiz-adv-x="850" 
d="M72 0v480h114v-77h2q17 38 57 64.5t92 26.5q88 0 132.5 -56t44.5 -138v-300h-120v266q0 128 -90 128q-54 0 -83 -38.5t-29 -91.5v-264h-120zM639 643q0 30 21.5 51t54.5 21t55.5 -20.5t22.5 -51.5t-22.5 -51.5t-55.5 -20.5t-54.5 21t-21.5 51zM656 480h120v-509
q0 -47 -7.5 -82t-25.5 -66t-53.5 -47t-87.5 -16q-30 0 -54 6l10 102q15 -4 33 -4q39 0 52 26.5t13 75.5v514z" />
    <glyph glyph-name="Acaron" unicode="&#x1cd;" horiz-adv-x="706" 
d="M240 270h220l-109 288zM-8 0l308 708h109l305 -708h-144l-66 162h-307l-64 -162h-141zM172 927h114l69 -90l69 90h110l-115 -144h-133z" />
    <glyph glyph-name="acaron" unicode="&#x1ce;" horiz-adv-x="550" 
d="M368 202v17h-27q-183 0 -183 -80q0 -31 24.5 -45.5t59.5 -14.5q61 0 93.5 32.5t32.5 90.5zM370 0v61h-3q-18 -33 -58.5 -53t-90.5 -20q-69 0 -124.5 36.5t-55.5 112.5q0 41 20.5 71.5t52 47.5t77.5 27.5t87.5 13.5t92.5 3v12q0 43 -31 65.5t-79 22.5q-76 0 -131 -55
l-62 73q82 76 203 76q61 0 105 -17.5t66.5 -48t32.5 -64t10 -72.5v-292h-112zM79 713h114l69 -90l69 90h110l-115 -144h-133z" />
    <glyph glyph-name="Icaron" unicode="&#x1cf;" horiz-adv-x="282" 
d="M78 0v708h126v-708h-126zM-40 927h114l69 -90l69 90h110l-115 -144h-133z" />
    <glyph glyph-name="icaron" unicode="&#x1d0;" horiz-adv-x="268" 
d="M74 0v480h120v-480h-120zM-47 700h114l69 -90l69 90h110l-115 -144h-133z" />
    <glyph glyph-name="Ocaron" unicode="&#x1d1;" horiz-adv-x="849" 
d="M181 356q0 -114 68 -187.5t175 -73.5q108 0 176 73.5t68 187.5q0 111 -67.5 185t-176.5 74q-108 0 -175.5 -74t-67.5 -185zM44 356q0 168 106 269t273 101q168 0 275 -101t107 -269q0 -164 -108 -269t-274 -105q-165 0 -272 105t-107 269zM243 945h114l69 -90l69 90h110
l-115 -144h-133z" />
    <glyph glyph-name="ocaron" unicode="&#x1d2;" 
d="M166 242q0 -62 36 -109t103 -47t103 47t36 109t-36 108t-103 46t-103 -46t-36 -108zM44 242q0 112 75 182t186 70t186 -70t75 -182t-75.5 -184t-185.5 -72t-185.5 72t-75.5 184zM124 713h114l69 -90l69 90h110l-115 -144h-133z" />
    <glyph glyph-name="Ucaron" unicode="&#x1d3;" horiz-adv-x="714" 
d="M642 708v-448q0 -126 -80.5 -202t-204.5 -76t-204.5 76t-80.5 202v448h126v-443q0 -71 38 -120.5t121 -49.5t121 49.5t38 120.5v443h126zM176 927h114l69 -90l69 90h110l-115 -144h-133z" />
    <glyph glyph-name="ucaron" unicode="&#x1d4;" horiz-adv-x="582" 
d="M510 480v-480h-114v77h-2q-17 -38 -57 -64.5t-92 -26.5q-88 0 -132.5 56t-44.5 138v300h120v-266q0 -128 90 -128q54 0 83 38.5t29 91.5v264h120zM108 700h114l69 -90l69 90h110l-115 -144h-133z" />
    <glyph glyph-name="Udieresismacron" unicode="&#x1d5;" horiz-adv-x="714" 
d="M642 708v-448q0 -126 -80.5 -202t-204.5 -76t-204.5 76t-80.5 202v448h126v-443q0 -71 38 -120.5t121 -49.5t121 49.5t38 120.5v443h126zM383 853q0 28 20.5 49t50.5 21q31 0 52 -20t21 -50t-21 -50t-52 -20q-30 0 -50.5 21t-20.5 49zM187 853q0 28 20.5 49t50.5 21
q31 0 52 -20t21 -50t-21 -50t-52 -20q-30 0 -50.5 21t-20.5 49zM517 1076v-78h-320v78h320z" />
    <glyph glyph-name="udieresismacron" unicode="&#x1d6;" horiz-adv-x="582" 
d="M510 480v-480h-114v77h-2q-17 -38 -57 -64.5t-92 -26.5q-88 0 -132.5 56t-44.5 138v300h120v-266q0 -128 90 -128q54 0 83 38.5t29 91.5v264h120zM315 626q0 28 20.5 49t50.5 21q31 0 52 -20t21 -50t-21 -50t-52 -20q-30 0 -50.5 21t-20.5 49zM119 626q0 28 20.5 49
t50.5 21q31 0 52 -20t21 -50t-21 -50t-52 -20q-30 0 -50.5 21t-20.5 49zM449 848v-78h-320v78h320z" />
    <glyph glyph-name="Udieresisacute" unicode="&#x1d7;" horiz-adv-x="714" 
d="M642 708v-448q0 -126 -80.5 -202t-204.5 -76t-204.5 76t-80.5 202v448h126v-443q0 -71 38 -120.5t121 -49.5t121 49.5t38 120.5v443h126zM383 853q0 28 20.5 49t50.5 21q31 0 52 -20t21 -50t-21 -50t-52 -20q-30 0 -50.5 21t-20.5 49zM187 853q0 28 20.5 49t50.5 21
q31 0 52 -20t21 -50t-21 -50t-52 -20q-30 0 -50.5 21t-20.5 49zM240 998l99 144h136l-141 -144h-94z" />
    <glyph glyph-name="udieresisacute" unicode="&#x1d8;" horiz-adv-x="582" 
d="M510 480v-480h-114v77h-2q-17 -38 -57 -64.5t-92 -26.5q-88 0 -132.5 56t-44.5 138v300h120v-266q0 -128 90 -128q54 0 83 38.5t29 91.5v264h120zM315 626q0 28 20.5 49t50.5 21q31 0 52 -20t21 -50t-21 -50t-52 -20q-30 0 -50.5 21t-20.5 49zM119 626q0 28 20.5 49
t50.5 21q31 0 52 -20t21 -50t-21 -50t-52 -20q-30 0 -50.5 21t-20.5 49zM172 770l99 144h136l-141 -144h-94z" />
    <glyph glyph-name="Udieresiscaron" unicode="&#x1d9;" horiz-adv-x="714" 
d="M642 708v-448q0 -126 -80.5 -202t-204.5 -76t-204.5 76t-80.5 202v448h126v-443q0 -71 38 -120.5t121 -49.5t121 49.5t38 120.5v443h126zM383 853q0 28 20.5 49t50.5 21q31 0 52 -20t21 -50t-21 -50t-52 -20q-30 0 -50.5 21t-20.5 49zM187 853q0 28 20.5 49t50.5 21
q31 0 52 -20t21 -50t-21 -50t-52 -20q-30 0 -50.5 21t-20.5 49zM176 1142h114l69 -90l69 90h110l-115 -144h-133z" />
    <glyph glyph-name="udieresiscaron" unicode="&#x1da;" horiz-adv-x="582" 
d="M510 480v-480h-114v77h-2q-17 -38 -57 -64.5t-92 -26.5q-88 0 -132.5 56t-44.5 138v300h120v-266q0 -128 90 -128q54 0 83 38.5t29 91.5v264h120zM315 626q0 28 20.5 49t50.5 21q31 0 52 -20t21 -50t-21 -50t-52 -20q-30 0 -50.5 21t-20.5 49zM119 626q0 28 20.5 49
t50.5 21q31 0 52 -20t21 -50t-21 -50t-52 -20q-30 0 -50.5 21t-20.5 49zM108 914h114l69 -90l69 90h110l-115 -144h-133z" />
    <glyph glyph-name="Udieresisgrave" unicode="&#x1db;" horiz-adv-x="714" 
d="M642 708v-448q0 -126 -80.5 -202t-204.5 -76t-204.5 76t-80.5 202v448h126v-443q0 -71 38 -120.5t121 -49.5t121 49.5t38 120.5v443h126zM383 853q0 28 20.5 49t50.5 21q31 0 52 -20t21 -50t-21 -50t-52 -20q-30 0 -50.5 21t-20.5 49zM187 853q0 28 20.5 49t50.5 21
q31 0 52 -20t21 -50t-21 -50t-52 -20q-30 0 -50.5 21t-20.5 49zM376 1142l99 -144h-94l-141 144h136z" />
    <glyph glyph-name="udieresisgrave" unicode="&#x1dc;" horiz-adv-x="582" 
d="M510 480v-480h-114v77h-2q-17 -38 -57 -64.5t-92 -26.5q-88 0 -132.5 56t-44.5 138v300h120v-266q0 -128 90 -128q54 0 83 38.5t29 91.5v264h120zM315 626q0 28 20.5 49t50.5 21q31 0 52 -20t21 -50t-21 -50t-52 -20q-30 0 -50.5 21t-20.5 49zM119 626q0 28 20.5 49
t50.5 21q31 0 52 -20t21 -50t-21 -50t-52 -20q-30 0 -50.5 21t-20.5 49zM308 914l99 -144h-94l-141 144h136z" />
    <glyph glyph-name="Adieresismacron" unicode="&#x1de;" horiz-adv-x="706" 
d="M240 270h220l-109 288zM-8 0l308 708h109l305 -708h-144l-66 162h-307l-64 -162h-141zM379 853q0 28 20.5 49t50.5 21q31 0 52 -20t21 -50t-21 -50t-52 -20q-30 0 -50.5 21t-20.5 49zM183 853q0 28 20.5 49t50.5 21q31 0 52 -20t21 -50t-21 -50t-52 -20q-30 0 -50.5 21
t-20.5 49zM513 1076v-78h-320v78h320z" />
    <glyph glyph-name="adieresismacron" unicode="&#x1df;" horiz-adv-x="550" 
d="M368 202v17h-27q-183 0 -183 -80q0 -31 24.5 -45.5t59.5 -14.5q61 0 93.5 32.5t32.5 90.5zM370 0v61h-3q-18 -33 -58.5 -53t-90.5 -20q-69 0 -124.5 36.5t-55.5 112.5q0 41 20.5 71.5t52 47.5t77.5 27.5t87.5 13.5t92.5 3v12q0 43 -31 65.5t-79 22.5q-76 0 -131 -55
l-62 73q82 76 203 76q61 0 105 -17.5t66.5 -48t32.5 -64t10 -72.5v-292h-112zM286 640q0 28 20.5 49t50.5 21q31 0 52 -20t21 -50t-21 -50t-52 -20q-30 0 -50.5 21t-20.5 49zM90 640q0 28 20.5 49t50.5 21q31 0 52 -20t21 -50t-21 -50t-52 -20q-30 0 -50.5 21t-20.5 49z
M420 862v-78h-320v78h320z" />
    <glyph glyph-name="Adotmacron" unicode="&#x1e0;" horiz-adv-x="706" 
d="M240 270h220l-109 288zM-8 0l308 708h109l305 -708h-144l-66 162h-307l-64 -162h-141zM276 855q0 30 21.5 51t54.5 21t55.5 -20.5t22.5 -51.5t-22.5 -51.5t-55.5 -20.5t-54.5 21t-21.5 51zM513 1080v-78h-320v78h320z" />
    <glyph glyph-name="adotmacron" unicode="&#x1e1;" horiz-adv-x="550" 
d="M368 202v17h-27q-183 0 -183 -80q0 -31 24.5 -45.5t59.5 -14.5q61 0 93.5 32.5t32.5 90.5zM370 0v61h-3q-18 -33 -58.5 -53t-90.5 -20q-69 0 -124.5 36.5t-55.5 112.5q0 41 20.5 71.5t52 47.5t77.5 27.5t87.5 13.5t92.5 3v12q0 43 -31 65.5t-79 22.5q-76 0 -131 -55
l-62 73q82 76 203 76q61 0 105 -17.5t66.5 -48t32.5 -64t10 -72.5v-292h-112zM183 642q0 30 21.5 51t54.5 21t55.5 -20.5t22.5 -51.5t-22.5 -51.5t-55.5 -20.5t-54.5 21t-21.5 51zM420 866v-78h-320v78h320z" />
    <glyph glyph-name="AEmacron" unicode="&#x1e2;" horiz-adv-x="1046" 
d="M327 294h202v304h-15zM529 0v186h-268l-114 -186h-153l453 708h536v-110h-328v-180h310v-106h-310v-200h346v-112h-472zM657 861v-78h-320v78h320z" />
    <glyph glyph-name="aemacron" unicode="&#x1e3;" horiz-adv-x="887" 
d="M477 288h246q0 49 -29 82.5t-84 33.5q-54 0 -91.5 -32.5t-41.5 -83.5zM368 186v16h-27q-94 0 -138.5 -13t-44.5 -50q0 -31 24.5 -45.5t59.5 -14.5q62 0 94 28t32 79zM611 494q104 0 168 -67.5t64 -192.5q0 -21 -1 -32h-365q6 -52 45 -85t92 -33q83 0 127 63l79 -65
q-70 -96 -206 -96q-129 0 -190 96q-51 -94 -201 -94q-71 0 -128 37.5t-57 111.5q0 39 18 67t46.5 44t73.5 25t89 12t103 3v10q0 102 -109 102q-35 0 -71.5 -15.5t-60.5 -39.5l-61 73q79 76 202 76q112 0 163 -82q60 82 180 82zM600 648v-78h-320v78h320z" />
    <glyph glyph-name="Gcaron" unicode="&#x1e6;" horiz-adv-x="773" 
d="M698 404v-367q-113 -55 -267 -55q-171 0 -279 104.5t-108 269.5q0 167 108.5 268.5t275.5 101.5q83 0 154 -24t115 -65l-87 -94q-28 31 -77 51.5t-104 20.5q-110 0 -178 -74t-68 -185q0 -115 68.5 -188t183.5 -73q82 0 141 25v180h-149v104h271zM190 945h114l69 -90
l69 90h110l-115 -144h-133z" />
    <glyph glyph-name="gcaron" unicode="&#x1e7;" horiz-adv-x="632" 
d="M304 396q-63 0 -100.5 -43.5t-37.5 -109.5q0 -60 38 -106t99 -46q64 0 103.5 45t39.5 107q0 65 -39 109t-103 44zM446 480h114v-437q0 -134 -67.5 -208.5t-203.5 -74.5q-62 0 -127.5 21t-110.5 58l69 93q73 -68 168 -68q152 0 152 165v35h-2q-54 -72 -157 -72
q-105 0 -171 72.5t-66 177.5q0 107 64.5 179.5t170.5 72.5q114 0 165 -86h2v72zM121 713h114l69 -90l69 90h110l-115 -144h-133z" />
    <glyph glyph-name="Kcaron" unicode="&#x1e8;" horiz-adv-x="689" 
d="M78 0v708h126v-306h3l296 306h170l-331 -327l353 -381h-177l-311 355h-3v-355h-126zM205 927h114l69 -90l69 90h110l-115 -144h-133z" />
    <glyph glyph-name="kcaron" unicode="&#x1e9;" horiz-adv-x="543" 
d="M74 0v756h120v-478h3l182 202h154l-208 -217l221 -263h-159l-190 246h-3v-246h-120zM129 975h114l69 -90l69 90h110l-115 -144h-133z" />
    <glyph glyph-name="Oogonek" unicode="&#x1ea;" horiz-adv-x="849" 
d="M181 356q0 -114 68 -187.5t175 -73.5q108 0 176 73.5t68 187.5q0 111 -67.5 185t-176.5 74q-108 0 -175.5 -74t-67.5 -185zM44 356q0 168 106 269t273 101q168 0 275 -101t107 -269q0 -164 -108 -269t-274 -105q-165 0 -272 105t-107 269zM501 -170l25 -49
q-46 -38 -100 -38q-43 0 -73 23.5t-30 65.5q0 38 31 80.5t69 70.5h61q-29 -24 -56 -61.5t-27 -66.5q0 -19 13.5 -32.5t32.5 -13.5q28 0 54 21z" />
    <glyph glyph-name="oogonek" unicode="&#x1eb;" 
d="M166 242q0 -62 36 -109t103 -47t103 47t36 109t-36 108t-103 46t-103 -46t-36 -108zM44 242q0 112 75 182t186 70t186 -70t75 -182t-75.5 -184t-185.5 -72t-185.5 72t-75.5 184zM382 -166l25 -49q-46 -38 -100 -38q-43 0 -73 23.5t-30 65.5q0 38 31 80.5t69 70.5h61
q-29 -24 -56 -61.5t-27 -66.5q0 -19 13.5 -32.5t32.5 -13.5q28 0 54 21z" />
    <glyph glyph-name="Oogonekmacron" unicode="&#x1ec;" horiz-adv-x="849" 
d="M181 356q0 -114 68 -187.5t175 -73.5q108 0 176 73.5t68 187.5q0 111 -67.5 185t-176.5 74q-108 0 -175.5 -74t-67.5 -185zM44 356q0 168 106 269t273 101q168 0 275 -101t107 -269q0 -164 -108 -269t-274 -105q-165 0 -272 105t-107 269zM501 -170l25 -49
q-46 -38 -100 -38q-43 0 -73 23.5t-30 65.5q0 38 31 80.5t69 70.5h61q-29 -24 -56 -61.5t-27 -66.5q0 -19 13.5 -32.5t32.5 -13.5q28 0 54 21zM584 879v-78h-320v78h320z" />
    <glyph glyph-name="oogonekmacron" unicode="&#x1ed;" 
d="M166 242q0 -62 36 -109t103 -47t103 47t36 109t-36 108t-103 46t-103 -46t-36 -108zM44 242q0 112 75 182t186 70t186 -70t75 -182t-75.5 -184t-185.5 -72t-185.5 72t-75.5 184zM382 -166l25 -49q-46 -38 -100 -38q-43 0 -73 23.5t-30 65.5q0 38 31 80.5t69 70.5h61
q-29 -24 -56 -61.5t-27 -66.5q0 -19 13.5 -32.5t32.5 -13.5q28 0 54 21zM465 648v-78h-320v78h320z" />
    <glyph glyph-name="DZ" unicode="&#x1f1;" horiz-adv-x="1375" 
d="M204 110h105q41 0 78.5 7t74.5 24.5t63.5 44t43 70t16.5 98.5q0 246 -276 246h-105v-490zM78 0v708h251q74 0 140 -18.5t124 -58t92.5 -111t34.5 -166.5q0 -89 -34.5 -159t-92 -111.5t-125 -62.5t-139.5 -21h-251zM799 0v114l385 484h-379v110h529v-114l-387 -482h393
v-112h-541z" />
    <glyph glyph-name="Dz" unicode="&#x1f2;" horiz-adv-x="1246" 
d="M204 110h105q41 0 78.5 7t74.5 24.5t63.5 44t43 70t16.5 98.5q0 246 -276 246h-105v-490zM78 0v708h251q74 0 140 -18.5t124 -58t92.5 -111t34.5 -166.5q0 -89 -34.5 -159t-92 -111.5t-125 -62.5t-139.5 -21h-251zM798 0v106l259 278h-247v96h390v-106l-260 -276h272v-98
h-414z" />
    <glyph glyph-name="dz" unicode="&#x1f3;" horiz-adv-x="1116" 
d="M165 242q0 -62 36.5 -109t101.5 -47q63 0 102 47t39 107t-39 108t-102 48q-65 0 -101.5 -46t-36.5 -108zM560 756v-756h-114v72h-2q-24 -41 -68.5 -63.5t-96.5 -22.5q-107 0 -171.5 74t-64.5 182q0 107 65.5 179.5t167.5 72.5q105 0 161 -75h3v337h120zM668 0v106
l259 278h-247v96h390v-106l-260 -276h272v-98h-414z" />
    <glyph glyph-name="Gacute" unicode="&#x1f4;" horiz-adv-x="773" 
d="M698 404v-367q-113 -55 -267 -55q-171 0 -279 104.5t-108 269.5q0 167 108.5 268.5t275.5 101.5q83 0 154 -24t115 -65l-87 -94q-28 31 -77 51.5t-104 20.5q-110 0 -178 -74t-68 -185q0 -115 68.5 -188t183.5 -73q82 0 141 25v180h-149v104h271zM254 801l99 144h136
l-141 -144h-94z" />
    <glyph glyph-name="gacute" unicode="&#x1f5;" horiz-adv-x="632" 
d="M304 396q-63 0 -100.5 -43.5t-37.5 -109.5q0 -60 38 -106t99 -46q64 0 103.5 45t39.5 107q0 65 -39 109t-103 44zM446 480h114v-437q0 -134 -67.5 -208.5t-203.5 -74.5q-62 0 -127.5 21t-110.5 58l69 93q73 -68 168 -68q152 0 152 165v35h-2q-54 -72 -157 -72
q-105 0 -171 72.5t-66 177.5q0 107 64.5 179.5t170.5 72.5q114 0 165 -86h2v72zM185 569l99 144h136l-141 -144h-94z" />
    <glyph glyph-name="Ngrave" unicode="&#x1f8;" horiz-adv-x="780" 
d="M78 0v708h167l329 -530h2v530h126v-708h-160l-336 547h-2v-547h-126zM409 927l99 -144h-94l-141 144h136z" />
    <glyph glyph-name="ngrave" unicode="&#x1f9;" horiz-adv-x="582" 
d="M72 0v480h114v-77h2q17 38 57 64.5t92 26.5q88 0 132.5 -56t44.5 -138v-300h-120v266q0 128 -90 128q-54 0 -83 -38.5t-29 -91.5v-264h-120zM312 713l99 -144h-94l-141 144h136z" />
    <glyph glyph-name="Aringacute" unicode="&#x1fa;" horiz-adv-x="706" 
d="M240 270h220l-109 288zM-8 0l308 708h109l305 -708h-144l-66 162h-307l-64 -162h-141zM412 885q0 25 -17 41t-42 16q-26 0 -42.5 -16.5t-16.5 -41.5q0 -24 17 -40t42 -16t42 16t17 41zM458 885q0 -45 -30 -73.5t-75 -28.5t-75 28.5t-30 72.5t30 73.5t75 29.5t75 -28.5
t30 -73.5zM236 1062l99 144h136l-141 -144h-94z" />
    <glyph glyph-name="aringacute" unicode="&#x1fb;" horiz-adv-x="550" 
d="M368 202v17h-27q-183 0 -183 -80q0 -31 24.5 -45.5t59.5 -14.5q61 0 93.5 32.5t32.5 90.5zM370 0v61h-3q-18 -33 -58.5 -53t-90.5 -20q-69 0 -124.5 36.5t-55.5 112.5q0 41 20.5 71.5t52 47.5t77.5 27.5t87.5 13.5t92.5 3v12q0 43 -31 65.5t-79 22.5q-76 0 -131 -55
l-62 73q82 76 203 76q61 0 105 -17.5t66.5 -48t32.5 -64t10 -72.5v-292h-112zM319 671q0 25 -17 41t-42 16q-26 0 -42.5 -16.5t-16.5 -41.5q0 -24 17 -40t42 -16t42 16t17 41zM365 671q0 -45 -30 -73.5t-75 -28.5t-75 28.5t-30 72.5t30 73.5t75 29.5t75 -28.5t30 -73.5z
M143 848l99 144h136l-141 -144h-94z" />
    <glyph glyph-name="AEacute" unicode="&#x1fc;" horiz-adv-x="1046" 
d="M327 294h202v304h-15zM529 0v186h-268l-114 -186h-153l453 708h536v-110h-328v-180h310v-106h-310v-200h346v-112h-472zM380 783l99 144h136l-141 -144h-94z" />
    <glyph glyph-name="aeacute" unicode="&#x1fd;" horiz-adv-x="887" 
d="M477 288h246q0 49 -29 82.5t-84 33.5q-54 0 -91.5 -32.5t-41.5 -83.5zM368 186v16h-27q-94 0 -138.5 -13t-44.5 -50q0 -31 24.5 -45.5t59.5 -14.5q62 0 94 28t32 79zM611 494q104 0 168 -67.5t64 -192.5q0 -21 -1 -32h-365q6 -52 45 -85t92 -33q83 0 127 63l79 -65
q-70 -96 -206 -96q-129 0 -190 96q-51 -94 -201 -94q-71 0 -128 37.5t-57 111.5q0 39 18 67t46.5 44t73.5 25t89 12t103 3v10q0 102 -109 102q-35 0 -71.5 -15.5t-60.5 -39.5l-61 73q79 76 202 76q112 0 163 -82q60 82 180 82zM323 569l99 144h136l-141 -144h-94z" />
    <glyph glyph-name="Oslashacute" unicode="&#x1fe;" horiz-adv-x="849" 
d="M175 356q0 -97 45 -159l349 378q-56 43 -145 43q-112 0 -180.5 -74t-68.5 -188zM674 356q0 105 -57 174l-352 -383q59 -55 159 -55q110 0 180 74t70 190zM44 356q0 168 106 269t273 101q130 0 225 -62l85 93l49 -43l-83 -91q106 -101 106 -267q0 -163 -107.5 -267.5
t-274.5 -106.5q-142 -1 -240 77l-85 -92l-50 43l87 94q-91 94 -91 252zM307 832l99 144h136l-141 -144h-94z" />
    <glyph glyph-name="oslashacute" unicode="&#x1ff;" 
d="M533 516l42 -40l-69 -71q60 -68 60 -165q0 -112 -75 -183t-186 -71q-95 0 -159 51l-70 -71l-40 41l67 68q-59 69 -59 165q0 112 75 183t186 71q94 0 158 -50zM427 326l-209 -212q34 -31 87 -31q70 0 106.5 48t36.5 111q0 52 -21 84zM184 156l207 213q-34 31 -86 31
q-69 0 -106 -49t-37 -112q0 -54 22 -83zM188 591l99 144h136l-141 -144h-94z" />
    <glyph glyph-name="Adblgrave" unicode="&#x200;" horiz-adv-x="706" 
d="M240 270h220l-109 288zM-8 0l308 708h109l305 -708h-144l-66 162h-307l-64 -162h-141zM270 927l99 -144h-94l-141 144h136zM473 927l99 -144h-94l-141 144h136z" />
    <glyph glyph-name="adblgrave" unicode="&#x201;" horiz-adv-x="550" 
d="M368 202v17h-27q-183 0 -183 -80q0 -31 24.5 -45.5t59.5 -14.5q61 0 93.5 32.5t32.5 90.5zM370 0v61h-3q-18 -33 -58.5 -53t-90.5 -20q-69 0 -124.5 36.5t-55.5 112.5q0 41 20.5 71.5t52 47.5t77.5 27.5t87.5 13.5t92.5 3v12q0 43 -31 65.5t-79 22.5q-76 0 -131 -55
l-62 73q82 76 203 76q61 0 105 -17.5t66.5 -48t32.5 -64t10 -72.5v-292h-112zM177 713l99 -144h-94l-141 144h136zM380 713l99 -144h-94l-141 144h136z" />
    <glyph glyph-name="Ainvertedbreve" unicode="&#x202;" horiz-adv-x="706" 
d="M240 270h220l-109 288zM-8 0l308 708h109l305 -708h-144l-66 162h-307l-64 -162h-141zM183 927h67q12 -66 103 -66q46 0 69.5 13t34.5 53h66q-16 -144 -171 -144q-75 0 -119.5 35.5t-49.5 108.5z" />
    <glyph glyph-name="ainvertedbreve" unicode="&#x203;" horiz-adv-x="550" 
d="M368 202v17h-27q-183 0 -183 -80q0 -31 24.5 -45.5t59.5 -14.5q61 0 93.5 32.5t32.5 90.5zM370 0v61h-3q-18 -33 -58.5 -53t-90.5 -20q-69 0 -124.5 36.5t-55.5 112.5q0 41 20.5 71.5t52 47.5t77.5 27.5t87.5 13.5t92.5 3v12q0 43 -31 65.5t-79 22.5q-76 0 -131 -55
l-62 73q82 76 203 76q61 0 105 -17.5t66.5 -48t32.5 -64t10 -72.5v-292h-112zM90 713h67q12 -66 103 -66q46 0 69.5 13t34.5 53h66q-16 -144 -171 -144q-75 0 -119.5 35.5t-49.5 108.5z" />
    <glyph glyph-name="Edblgrave" unicode="&#x204;" 
d="M78 0v708h469v-110h-343v-180h325v-106h-325v-200h361v-112h-487zM238 927l99 -144h-94l-141 144h136zM441 927l99 -144h-94l-141 144h136z" />
    <glyph glyph-name="edblgrave" unicode="&#x205;" horiz-adv-x="574" 
d="M530 234q0 -21 -1 -32h-365q4 -50 44 -84t93 -34q84 0 127 62l80 -64q-71 -96 -206 -96q-113 0 -185.5 68t-72.5 183t72 186t182 71q104 0 168 -67.5t64 -192.5zM164 288h246q0 49 -29 82.5t-84 33.5q-54 0 -91.5 -32.5t-41.5 -83.5zM204 713l99 -144h-94l-141 144h136z
M407 713l99 -144h-94l-141 144h136z" />
    <glyph glyph-name="Einvertedbreve" unicode="&#x206;" 
d="M78 0v708h469v-110h-343v-180h325v-106h-325v-200h361v-112h-487zM151 927h67q12 -66 103 -66q46 0 69.5 13t34.5 53h66q-16 -144 -171 -144q-75 0 -119.5 35.5t-49.5 108.5z" />
    <glyph glyph-name="einvertedbreve" unicode="&#x207;" horiz-adv-x="574" 
d="M530 234q0 -21 -1 -32h-365q4 -50 44 -84t93 -34q84 0 127 62l80 -64q-71 -96 -206 -96q-113 0 -185.5 68t-72.5 183t72 186t182 71q104 0 168 -67.5t64 -192.5zM164 288h246q0 49 -29 82.5t-84 33.5q-54 0 -91.5 -32.5t-41.5 -83.5zM117 713h67q12 -66 103 -66
q46 0 69.5 13t34.5 53h66q-16 -144 -171 -144q-75 0 -119.5 35.5t-49.5 108.5z" />
    <glyph glyph-name="Idblgrave" unicode="&#x208;" horiz-adv-x="282" 
d="M78 0v708h126v-708h-126zM58 927l99 -144h-94l-141 144h136zM261 927l99 -144h-94l-141 144h136z" />
    <glyph glyph-name="idblgrave" unicode="&#x209;" horiz-adv-x="268" 
d="M74 0v480h120v-480h-120zM51 700l99 -144h-94l-141 144h136zM254 700l99 -144h-94l-141 144h136z" />
    <glyph glyph-name="Iinvertedbreve" unicode="&#x20a;" horiz-adv-x="282" 
d="M78 0v708h126v-708h-126zM-29 927h67q12 -66 103 -66q46 0 69.5 13t34.5 53h66q-16 -144 -171 -144q-75 0 -119.5 35.5t-49.5 108.5z" />
    <glyph glyph-name="iinvertedbreve" unicode="&#x20b;" horiz-adv-x="268" 
d="M74 0v480h120v-480h-120zM-36 700h67q12 -66 103 -66q46 0 69.5 13t34.5 53h66q-16 -144 -171 -144q-75 0 -119.5 35.5t-49.5 108.5z" />
    <glyph glyph-name="Odblgrave" unicode="&#x20c;" horiz-adv-x="849" 
d="M181 356q0 -114 68 -187.5t175 -73.5q108 0 176 73.5t68 187.5q0 111 -67.5 185t-176.5 74q-108 0 -175.5 -74t-67.5 -185zM44 356q0 168 106 269t273 101q168 0 275 -101t107 -269q0 -164 -108 -269t-274 -105q-165 0 -272 105t-107 269zM341 945l99 -144h-94l-141 144
h136zM544 945l99 -144h-94l-141 144h136z" />
    <glyph glyph-name="odblgrave" unicode="&#x20d;" 
d="M166 242q0 -62 36 -109t103 -47t103 47t36 109t-36 108t-103 46t-103 -46t-36 -108zM44 242q0 112 75 182t186 70t186 -70t75 -182t-75.5 -184t-185.5 -72t-185.5 72t-75.5 184zM222 713l99 -144h-94l-141 144h136zM425 713l99 -144h-94l-141 144h136z" />
    <glyph glyph-name="Oinvertedbreve" unicode="&#x20e;" horiz-adv-x="849" 
d="M181 356q0 -114 68 -187.5t175 -73.5q108 0 176 73.5t68 187.5q0 111 -67.5 185t-176.5 74q-108 0 -175.5 -74t-67.5 -185zM44 356q0 168 106 269t273 101q168 0 275 -101t107 -269q0 -164 -108 -269t-274 -105q-165 0 -272 105t-107 269zM254 945h67q12 -66 103 -66
q46 0 69.5 13t34.5 53h66q-16 -144 -171 -144q-75 0 -119.5 35.5t-49.5 108.5z" />
    <glyph glyph-name="oinvertedbreve" unicode="&#x20f;" 
d="M166 242q0 -62 36 -109t103 -47t103 47t36 109t-36 108t-103 46t-103 -46t-36 -108zM44 242q0 112 75 182t186 70t186 -70t75 -182t-75.5 -184t-185.5 -72t-185.5 72t-75.5 184zM135 713h67q12 -66 103 -66q46 0 69.5 13t34.5 53h66q-16 -144 -171 -144
q-75 0 -119.5 35.5t-49.5 108.5z" />
    <glyph glyph-name="Rdblgrave" unicode="&#x210;" horiz-adv-x="629" 
d="M204 403h103q152 0 152 103q0 52 -41 74t-100 22h-114v-199zM78 0v708h246q71 0 127.5 -18.5t95 -66t38.5 -118.5q0 -76 -42.5 -124.5t-119.5 -66.5l189 -314h-152l-164 300h-92v-300h-126zM262 927l99 -144h-94l-141 144h136zM465 927l99 -144h-94l-141 144h136z" />
    <glyph glyph-name="rdblgrave" unicode="&#x211;" horiz-adv-x="364" 
d="M72 0v480h115v-80h2q21 43 57 68.5t83 25.5q21 0 29 -3v-110q-20 5 -37 5q-38 0 -65.5 -14.5t-40 -37t-18 -41.5t-5.5 -36v-257h-120zM132 713l99 -144h-94l-141 144h136zM335 713l99 -144h-94l-141 144h136z" />
    <glyph glyph-name="Rinvertedbreve" unicode="&#x212;" horiz-adv-x="629" 
d="M204 403h103q152 0 152 103q0 52 -41 74t-100 22h-114v-199zM78 0v708h246q71 0 127.5 -18.5t95 -66t38.5 -118.5q0 -76 -42.5 -124.5t-119.5 -66.5l189 -314h-152l-164 300h-92v-300h-126zM175 927h67q12 -66 103 -66q46 0 69.5 13t34.5 53h66q-16 -144 -171 -144
q-75 0 -119.5 35.5t-49.5 108.5z" />
    <glyph glyph-name="rinvertedbreve" unicode="&#x213;" horiz-adv-x="364" 
d="M72 0v480h115v-80h2q21 43 57 68.5t83 25.5q21 0 29 -3v-110q-20 5 -37 5q-38 0 -65.5 -14.5t-40 -37t-18 -41.5t-5.5 -36v-257h-120zM45 713h67q12 -66 103 -66q46 0 69.5 13t34.5 53h66q-16 -144 -171 -144q-75 0 -119.5 35.5t-49.5 108.5z" />
    <glyph glyph-name="Udblgrave" unicode="&#x214;" horiz-adv-x="714" 
d="M642 708v-448q0 -126 -80.5 -202t-204.5 -76t-204.5 76t-80.5 202v448h126v-443q0 -71 38 -120.5t121 -49.5t121 49.5t38 120.5v443h126zM274 927l99 -144h-94l-141 144h136zM477 927l99 -144h-94l-141 144h136z" />
    <glyph glyph-name="udblgrave" unicode="&#x215;" horiz-adv-x="582" 
d="M510 480v-480h-114v77h-2q-17 -38 -57 -64.5t-92 -26.5q-88 0 -132.5 56t-44.5 138v300h120v-266q0 -128 90 -128q54 0 83 38.5t29 91.5v264h120zM206 700l99 -144h-94l-141 144h136zM409 700l99 -144h-94l-141 144h136z" />
    <glyph glyph-name="Uinvertedbreve" unicode="&#x216;" horiz-adv-x="714" 
d="M642 708v-448q0 -126 -80.5 -202t-204.5 -76t-204.5 76t-80.5 202v448h126v-443q0 -71 38 -120.5t121 -49.5t121 49.5t38 120.5v443h126zM187 927h67q12 -66 103 -66q46 0 69.5 13t34.5 53h66q-16 -144 -171 -144q-75 0 -119.5 35.5t-49.5 108.5z" />
    <glyph glyph-name="uinvertedbreve" unicode="&#x217;" horiz-adv-x="582" 
d="M510 480v-480h-114v77h-2q-17 -38 -57 -64.5t-92 -26.5q-88 0 -132.5 56t-44.5 138v300h120v-266q0 -128 90 -128q54 0 83 38.5t29 91.5v264h120zM119 700h67q12 -66 103 -66q46 0 69.5 13t34.5 53h66q-16 -144 -171 -144q-75 0 -119.5 35.5t-49.5 108.5z" />
    <glyph glyph-name="Scommaaccent" unicode="&#x218;" horiz-adv-x="574" 
d="M177 -240l65 195h106l-80 -195h-91zM521 650l-82 -90q-20 26 -56.5 43.5t-73.5 17.5q-49 0 -87 -24.5t-38 -72.5q0 -24 8.5 -40.5t30 -29.5t40.5 -20t56 -19q36 -11 57.5 -19t53.5 -25.5t50.5 -37.5t32 -52.5t13.5 -72.5q0 -109 -73.5 -167.5t-184.5 -58.5
q-71 0 -136.5 26t-106.5 75l90 84q26 -35 69 -56.5t86 -21.5q51 0 89.5 26t38.5 79q0 25 -10.5 44t-33.5 32t-44.5 21.5t-58.5 20.5q-11 3 -16 5q-39 13 -65 25.5t-55 35t-44 58t-15 82.5q0 68 39 116.5t96 70t124 21.5q124 0 206 -76z" />
    <glyph glyph-name="scommaaccent" unicode="&#x219;" horiz-adv-x="444" 
d="M117 -240l65 195h106l-80 -195h-91zM413 421l-78 -69q-17 22 -45 37t-60 15t-54.5 -13t-22.5 -39t22.5 -37.5t81.5 -25.5q155 -34 155 -143q0 -82 -56.5 -121t-143.5 -39q-57 0 -109.5 20.5t-87.5 58.5l79 74q46 -60 123 -60q31 0 54 14t23 43q0 28 -24.5 41.5
t-85.5 27.5q-65 14 -103.5 44.5t-38.5 91.5q0 75 56 114t135 39q54 0 103 -19t77 -54z" />
    <glyph glyph-name="uni021A" unicode="&#x21a;" horiz-adv-x="568" 
d="M179 -240l65 195h106l-80 -195h-91zM221 0v598h-217v110h560v-110h-217v-598h-126z" />
    <glyph glyph-name="uni021B" unicode="&#x21b;" horiz-adv-x="340" 
d="M98 -240l65 195h106l-80 -195h-91zM87 384h-84v96h84v139h118v-139h120v-96h-120v-223q0 -36 13 -55t50 -19q30 0 51 10l4 -94q-34 -13 -80 -13q-88 0 -122 45.5t-34 124.5v224z" />
    <glyph glyph-name="Hcaron" unicode="&#x21e;" horiz-adv-x="739" 
d="M78 0v708h126v-286h331v286h126v-708h-126v314h-331v-314h-126zM188 927h114l69 -90l69 90h110l-115 -144h-133z" />
    <glyph glyph-name="hcaron" unicode="&#x21f;" horiz-adv-x="584" 
d="M339 494q88 0 132.5 -56t44.5 -138v-300h-120v264q0 127 -89 127q-54 0 -83.5 -38.5t-29.5 -90.5v-262h-120v756h120v-343h2q16 33 54.5 57t88.5 24zM114 975h114l69 -90l69 90h110l-115 -144h-133z" />
    <glyph glyph-name="Adotaccent" unicode="&#x226;" horiz-adv-x="706" 
d="M240 270h220l-109 288zM-8 0l308 708h109l305 -708h-144l-66 162h-307l-64 -162h-141zM276 855q0 30 21.5 51t54.5 21t55.5 -20.5t22.5 -51.5t-22.5 -51.5t-55.5 -20.5t-54.5 21t-21.5 51z" />
    <glyph glyph-name="adotaccent" unicode="&#x227;" horiz-adv-x="550" 
d="M368 202v17h-27q-183 0 -183 -80q0 -31 24.5 -45.5t59.5 -14.5q61 0 93.5 32.5t32.5 90.5zM370 0v61h-3q-18 -33 -58.5 -53t-90.5 -20q-69 0 -124.5 36.5t-55.5 112.5q0 41 20.5 71.5t52 47.5t77.5 27.5t87.5 13.5t92.5 3v12q0 43 -31 65.5t-79 22.5q-76 0 -131 -55
l-62 73q82 76 203 76q61 0 105 -17.5t66.5 -48t32.5 -64t10 -72.5v-292h-112zM183 642q0 30 21.5 51t54.5 21t55.5 -20.5t22.5 -51.5t-22.5 -51.5t-55.5 -20.5t-54.5 21t-21.5 51z" />
    <glyph glyph-name="Ecedilla" unicode="&#x228;" 
d="M78 0v708h469v-110h-343v-180h325v-106h-325v-200h361v-112h-487zM365 0l-45 -64q8 1 19 1q105 0 105 -83q0 -50 -41 -72t-95 -22q-61 0 -110 26l23 48q38 -20 82 -20q57 0 57 41q0 19 -16.5 27.5t-36.5 8.5q-21 0 -39 -6l-23 25l62 90h58z" />
    <glyph glyph-name="ecedilla" unicode="&#x229;" horiz-adv-x="574" 
d="M530 234q0 -21 -1 -32h-365q4 -50 44 -84t93 -34q84 0 127 62l80 -64q-71 -96 -206 -96q-113 0 -185.5 68t-72.5 183t72 186t182 71q104 0 168 -67.5t64 -192.5zM164 288h246q0 49 -29 82.5t-84 33.5q-54 0 -91.5 -32.5t-41.5 -83.5zM331 -13l-45 -64q8 1 19 1
q105 0 105 -83q0 -50 -41 -72t-95 -22q-61 0 -110 26l23 48q38 -20 82 -20q57 0 57 41q0 19 -16.5 27.5t-36.5 8.5q-21 0 -39 -6l-23 25l62 90h58z" />
    <glyph glyph-name="Odieresismacron" unicode="&#x22a;" horiz-adv-x="849" 
d="M181 356q0 -114 68 -187.5t175 -73.5q108 0 176 73.5t68 187.5q0 111 -67.5 185t-176.5 74q-108 0 -175.5 -74t-67.5 -185zM44 356q0 168 106 269t273 101q168 0 275 -101t107 -269q0 -164 -108 -269t-274 -105q-165 0 -272 105t-107 269zM450 871q0 28 20.5 49t50.5 21
q31 0 52 -20t21 -50t-21 -50t-52 -20q-30 0 -50.5 21t-20.5 49zM254 871q0 28 20.5 49t50.5 21q31 0 52 -20t21 -50t-21 -50t-52 -20q-30 0 -50.5 21t-20.5 49zM584 1094v-78h-320v78h320z" />
    <glyph glyph-name="odieresismacron" unicode="&#x22b;" 
d="M166 242q0 -62 36 -109t103 -47t103 47t36 109t-36 108t-103 46t-103 -46t-36 -108zM44 242q0 112 75 182t186 70t186 -70t75 -182t-75.5 -184t-185.5 -72t-185.5 72t-75.5 184zM331 640q0 28 20.5 49t50.5 21q31 0 52 -20t21 -50t-21 -50t-52 -20q-30 0 -50.5 21
t-20.5 49zM135 640q0 28 20.5 49t50.5 21q31 0 52 -20t21 -50t-21 -50t-52 -20q-30 0 -50.5 21t-20.5 49zM465 862v-78h-320v78h320z" />
    <glyph glyph-name="Otildemacron" unicode="&#x22c;" horiz-adv-x="849" 
d="M181 356q0 -114 68 -187.5t175 -73.5q108 0 176 73.5t68 187.5q0 111 -67.5 185t-176.5 74q-108 0 -175.5 -74t-67.5 -185zM44 356q0 168 106 269t273 101q168 0 275 -101t107 -269q0 -164 -108 -269t-274 -105q-165 0 -272 105t-107 269zM306 801h-66q22 127 112 127
q36 0 79 -18q43 -19 65 -19q33 0 46 42h66q-22 -127 -112 -127q-37 0 -82 20q-39 18 -62 18q-33 0 -46 -43zM584 1086v-78h-320v78h320z" />
    <glyph glyph-name="otildemacron" unicode="&#x22d;" 
d="M166 242q0 -62 36 -109t103 -47t103 47t36 109t-36 108t-103 46t-103 -46t-36 -108zM44 242q0 112 75 182t186 70t186 -70t75 -182t-75.5 -184t-185.5 -72t-185.5 72t-75.5 184zM187 569h-66q22 127 112 127q36 0 79 -18q43 -19 65 -19q33 0 46 42h66q-22 -127 -112 -127
q-37 0 -82 20q-39 18 -62 18q-33 0 -46 -43zM465 854v-78h-320v78h320z" />
    <glyph glyph-name="Odotaccent" unicode="&#x22e;" horiz-adv-x="849" 
d="M181 356q0 -114 68 -187.5t175 -73.5q108 0 176 73.5t68 187.5q0 111 -67.5 185t-176.5 74q-108 0 -175.5 -74t-67.5 -185zM44 356q0 168 106 269t273 101q168 0 275 -101t107 -269q0 -164 -108 -269t-274 -105q-165 0 -272 105t-107 269zM347 873q0 30 21.5 51t54.5 21
t55.5 -20.5t22.5 -51.5t-22.5 -51.5t-55.5 -20.5t-54.5 21t-21.5 51z" />
    <glyph glyph-name="odotaccent" unicode="&#x22f;" 
d="M166 242q0 -62 36 -109t103 -47t103 47t36 109t-36 108t-103 46t-103 -46t-36 -108zM44 242q0 112 75 182t186 70t186 -70t75 -182t-75.5 -184t-185.5 -72t-185.5 72t-75.5 184zM228 642q0 30 21.5 51t54.5 21t55.5 -20.5t22.5 -51.5t-22.5 -51.5t-55.5 -20.5t-54.5 21
t-21.5 51z" />
    <glyph glyph-name="Odotaccentmacron" unicode="&#x230;" horiz-adv-x="849" 
d="M181 356q0 -114 68 -187.5t175 -73.5q108 0 176 73.5t68 187.5q0 111 -67.5 185t-176.5 74q-108 0 -175.5 -74t-67.5 -185zM44 356q0 168 106 269t273 101q168 0 275 -101t107 -269q0 -164 -108 -269t-274 -105q-165 0 -272 105t-107 269zM347 873q0 30 21.5 51t54.5 21
t55.5 -20.5t22.5 -51.5t-22.5 -51.5t-55.5 -20.5t-54.5 21t-21.5 51zM584 1098v-78h-320v78h320z" />
    <glyph glyph-name="odotaccentmacron" unicode="&#x231;" 
d="M166 242q0 -62 36 -109t103 -47t103 47t36 109t-36 108t-103 46t-103 -46t-36 -108zM44 242q0 112 75 182t186 70t186 -70t75 -182t-75.5 -184t-185.5 -72t-185.5 72t-75.5 184zM228 642q0 30 21.5 51t54.5 21t55.5 -20.5t22.5 -51.5t-22.5 -51.5t-55.5 -20.5t-54.5 21
t-21.5 51zM465 866v-78h-320v78h320z" />
    <glyph glyph-name="Ymacron" unicode="&#x232;" horiz-adv-x="622" 
d="M249 0v307l-266 401h154l178 -298l180 298h146l-266 -401v-307h-126zM472 861v-78h-320v78h320z" />
    <glyph glyph-name="ymacron" unicode="&#x233;" horiz-adv-x="513" 
d="M206 0l-206 480h133l134 -349h2l119 349h125l-227 -583q-28 -71 -67 -104t-115 -33q-33 0 -62 7l10 104q22 -7 45 -7q36 0 52 16t33 59zM416 634v-78h-320v78h320z" />
    <glyph glyph-name="commaturnedmod" unicode="&#x2bb;" horiz-adv-x="270" 
d="M228 708l-70 -264h-116l85 264h101z" />
    <glyph glyph-name="afii57929" unicode="&#x2bc;" horiz-adv-x="270" 
d="M42 444l70 264h116l-85 -264h-101z" />
    <glyph glyph-name="circumflex" unicode="&#x2c6;" horiz-adv-x="260" 
d="M312 564h-114l-69 90l-69 -90h-112l115 144h135z" />
    <glyph glyph-name="caron" unicode="&#x2c7;" horiz-adv-x="260" 
d="M-51 708h114l69 -90l69 90h110l-115 -144h-133z" />
    <glyph glyph-name="uni02C9" unicode="&#x2c9;" horiz-adv-x="260" 
d="M290 873v-78h-320v78h320z" />
    <glyph glyph-name="breve" unicode="&#x2d8;" horiz-adv-x="260" 
d="M-40 708h67q12 -66 103 -66q46 0 69.5 13t34.5 53h66q-16 -144 -171 -144q-75 0 -119.5 35.5t-49.5 108.5z" />
    <glyph glyph-name="dotaccent" unicode="&#x2d9;" horiz-adv-x="260" 
d="M54 643q0 30 21.5 51t54.5 21t55.5 -20.5t22.5 -51.5t-22.5 -51.5t-55.5 -20.5t-54.5 21t-21.5 51z" />
    <glyph glyph-name="ring" unicode="&#x2da;" horiz-adv-x="260" 
d="M189 655q0 25 -17 41t-42 16q-26 0 -42.5 -16.5t-16.5 -41.5q0 -24 17 -40t42 -16t42 16t17 41zM235 655q0 -45 -30 -73.5t-75 -28.5t-75 28.5t-30 72.5t30 73.5t75 29.5t75 -28.5t30 -73.5z" />
    <glyph glyph-name="ogonek" unicode="&#x2db;" horiz-adv-x="260" 
d="M177 -147l25 -49q-46 -38 -100 -38q-43 0 -73 23.5t-30 65.5q0 38 31 80.5t69 70.5h61q-29 -24 -56 -61.5t-27 -66.5q0 -19 13.5 -32.5t32.5 -13.5q28 0 54 21z" />
    <glyph glyph-name="tilde" unicode="&#x2dc;" horiz-adv-x="260" 
d="M12 568h-66q22 127 112 127q36 0 79 -18q43 -19 65 -19q33 0 46 42h66q-22 -127 -112 -127q-37 0 -82 20q-39 18 -62 18q-33 0 -46 -43z" />
    <glyph glyph-name="hungarumlaut" unicode="&#x2dd;" horiz-adv-x="260" 
d="M185 564l99 144h136l-141 -144h-94zM-20 564l99 144h136l-141 -144h-94z" />
    <glyph glyph-name="uni02EE" unicode="&#x2ee;" horiz-adv-x="465" 
d="M42 444l70 264h116l-85 -264h-101zM237 444l70 264h116l-85 -264h-101z" />
    <glyph glyph-name="gravecmb" unicode="&#x300;" horiz-adv-x="0" 
d="M-124 708l99 -144h-94l-141 144h136z" />
    <glyph glyph-name="acutecmb" unicode="&#x301;" horiz-adv-x="0" 
d="M-260 564l99 144h136l-141 -144h-94z" />
    <glyph glyph-name="circumflexcmb" unicode="&#x302;" horiz-adv-x="0" 
d="M104 564h-114l-69 90l-69 -90h-112l115 144h135z" />
    <glyph glyph-name="tildecmb" unicode="&#x303;" horiz-adv-x="0" 
d="M-194 568h-66q22 127 112 127q36 0 79 -18q43 -19 65 -19q33 0 46 42h66q-22 -127 -112 -127q-37 0 -82 20q-39 18 -62 18q-33 0 -46 -43z" />
    <glyph glyph-name="macroncmb" unicode="&#x304;" horiz-adv-x="0" 
d="M60 673v-78h-320v78h320z" />
    <glyph glyph-name="brevecmb" unicode="&#x306;" horiz-adv-x="0" 
d="M-260 708h67q12 -66 103 -66q46 0 69.5 13t34.5 53h66q-16 -144 -171 -144q-75 0 -119.5 35.5t-49.5 108.5z" />
    <glyph glyph-name="dotaccentcmb" unicode="&#x307;" horiz-adv-x="0" 
d="M-260 643q0 30 21.5 51t54.5 21t55.5 -20.5t22.5 -51.5t-22.5 -51.5t-55.5 -20.5t-54.5 21t-21.5 51z" />
    <glyph glyph-name="dieresiscmb" unicode="&#x308;" horiz-adv-x="0" 
d="M-64 644q0 28 20.5 49t50.5 21q31 0 52 -20t21 -50t-21 -50t-52 -20q-30 0 -50.5 21t-20.5 49zM-260 644q0 28 20.5 49t50.5 21q31 0 52 -20t21 -50t-21 -50t-52 -20q-30 0 -50.5 21t-20.5 49z" />
    <glyph glyph-name="hookabovecomb" unicode="&#x309;" horiz-adv-x="260" 
d="M167 555h-75q0 27 10 43.5t39 31.5q28 15 28 37q0 31 -35 31q-20 0 -30.5 -10.5t-14.5 -35.5l-79 10q16 96 126 96q52 0 83 -25t31 -62q0 -54 -53 -78q-30 -14 -30 -38z" />
    <glyph glyph-name="ringcmb" unicode="&#x30a;" horiz-adv-x="0" 
d="M-96 655q0 25 -17 41t-42 16q-26 0 -42.5 -16.5t-16.5 -41.5q0 -24 17 -40t42 -16t42 16t17 41zM-50 655q0 -45 -30 -73.5t-75 -28.5t-75 28.5t-30 72.5t30 73.5t75 29.5t75 -28.5t30 -73.5z" />
    <glyph glyph-name="hungarumlautcmb" unicode="&#x30b;" horiz-adv-x="0" 
d="M-55 564l99 144h136l-141 -144h-94zM-260 564l99 144h136l-141 -144h-94z" />
    <glyph glyph-name="caroncmb" unicode="&#x30c;" horiz-adv-x="0" 
d="M-260 708h114l69 -90l69 90h110l-115 -144h-133z" />
    <glyph glyph-name="doublegravecmb" unicode="&#x30f;" horiz-adv-x="0" 
d="M-327 708l99 -144h-94l-141 144h136zM-124 708l99 -144h-94l-141 144h136z" />
    <glyph glyph-name="invertedbrevecmb" unicode="&#x311;" horiz-adv-x="0" 
d="M-340 708h67q12 -66 103 -66q46 0 69.5 13t34.5 53h66q-16 -144 -171 -144q-75 0 -119.5 35.5t-49.5 108.5z" />
    <glyph glyph-name="horncmb" unicode="&#x31b;" horiz-adv-x="0" 
d="M-355 480h107q43 0 61.5 19.5t18.5 58.5q0 36 -17 61l103 26q18 -37 18 -87q0 -68 -33.5 -103.5t-95.5 -38.5q-52 -3 -108 11q-20 5 -48 14z" />
    <glyph glyph-name="dotbelowcmb" unicode="&#x323;" horiz-adv-x="0" 
d="M-260 -148q0 32 23.5 55t56.5 23t56.5 -22t23.5 -54t-23.5 -55t-56.5 -23t-56.5 22t-23.5 54z" />
    <glyph glyph-name="dieresisbelowcmb" unicode="&#x324;" horiz-adv-x="0" 
d="M-64 -140q0 28 20.5 49t50.5 21q31 0 52 -20t21 -50t-21 -50t-52 -20q-30 0 -50.5 21t-20.5 49zM-260 -140q0 28 20.5 49t50.5 21q31 0 52 -20t21 -50t-21 -50t-52 -20q-30 0 -50.5 21t-20.5 49z" />
    <glyph glyph-name="ringbelowcmb" unicode="&#x325;" horiz-adv-x="0" 
d="M-96 -172q0 25 -17 41t-42 16q-26 0 -42.5 -16.5t-16.5 -41.5q0 -24 17 -40t42 -16t42 16t17 41zM-50 -172q0 -45 -30 -73.5t-75 -28.5t-75 28.5t-30 72.5t30 73.5t75 29.5t75 -28.5t30 -73.5z" />
    <glyph glyph-name="commabelowcmb" unicode="&#x326;" horiz-adv-x="0" 
d="M-260 -334l70 264h116l-85 -264h-101z" />
    <glyph glyph-name="cedillacmb" unicode="&#x327;" horiz-adv-x="0" 
d="M-93 0l-45 -64q8 1 19 1q105 0 105 -83q0 -50 -41 -72t-95 -22q-61 0 -110 26l23 48q38 -20 82 -20q57 0 57 41q0 19 -16.5 27.5t-36.5 8.5q-21 0 -39 -6l-23 25l62 90h58z" />
    <glyph glyph-name="ogonekcmb" unicode="&#x328;" horiz-adv-x="0" 
d="M-82 -147l25 -49q-46 -38 -100 -38q-43 0 -73 23.5t-30 65.5q0 38 31 80.5t69 70.5h61q-29 -24 -56 -61.5t-27 -66.5q0 -19 13.5 -32.5t32.5 -13.5q28 0 54 21z" />
    <glyph glyph-name="circumflexbelowcmb" unicode="&#x32d;" horiz-adv-x="0" 
d="M104 -214h-114l-69 90l-69 -90h-112l115 144h135z" />
    <glyph glyph-name="brevebelowcmb" unicode="&#x32e;" horiz-adv-x="0" 
d="M-260 -70h67q12 -66 103 -66q46 0 69.5 13t34.5 53h66q-16 -144 -171 -144q-75 0 -119.5 35.5t-49.5 108.5z" />
    <glyph glyph-name="tildebelowcmb" unicode="&#x330;" horiz-adv-x="0" 
d="M-194 -202h-66q22 127 112 127q36 0 79 -18q43 -19 65 -19q33 0 46 42h66q-22 -127 -112 -127q-37 0 -82 20q-39 18 -62 18q-33 0 -46 -43z" />
    <glyph glyph-name="macronbelowcmb" unicode="&#x331;" horiz-adv-x="0" 
d="M60 -70v-78h-320v78h320z" />
    <glyph glyph-name="gravetonecmb" unicode="&#x340;" horiz-adv-x="0" 
d="M-124 708l99 -144h-94l-141 144h136z" />
    <glyph glyph-name="acutetonecmb" unicode="&#x341;" horiz-adv-x="0" 
d="M-260 564l99 144h136l-141 -144h-94z" />
    <glyph glyph-name="dialytikatonoscmb" unicode="&#x344;" horiz-adv-x="0" 
d="M-64 644q0 28 20.5 49t50.5 21q31 0 52 -20t21 -50t-21 -50t-52 -20q-30 0 -50.5 21t-20.5 49zM-260 644q0 28 20.5 49t50.5 21q31 0 52 -20t21 -50t-21 -50t-52 -20q-30 0 -50.5 21t-20.5 49zM-207 789l99 144h136l-141 -144h-94z" />
    <glyph glyph-name="combininggraphemejoiner" unicode="&#x34f;" horiz-adv-x="500" 
 />
    <glyph glyph-name="uni037E" unicode="&#x37e;" horiz-adv-x="300" 
d="M70 409q0 32 23.5 55t56.5 23t56.5 -22t23.5 -54t-23.5 -55t-56.5 -23t-56.5 22t-23.5 54zM40 -126l70 264h122l-85 -264h-107z" />
    <glyph glyph-name="u0384" unicode="&#x384;" horiz-adv-x="260" 
d="M91 544l-11 200h99l-10 -200h-78z" />
    <glyph glyph-name="u0385" unicode="&#x385;" horiz-adv-x="240" 
d="M86 543l-11 214h88l-10 -214h-67zM212 594q0 21 16 37.5t39 16.5t39 -16t16 -38t-16 -38.5t-39 -16.5t-39 16.5t-16 38.5zM-86 594q0 21 16 37.5t39 16.5t39 -16.5t16 -37.5q0 -22 -16 -38.5t-39 -16.5t-39 16.5t-16 38.5z" />
    <glyph glyph-name="u0386" unicode="&#x386;" horiz-adv-x="729" 
d="M370 569l-121 -304h240zM210 161l-63 -161h-137l301 708h122l299 -708h-140l-65 161h-317zM71 562l-11 200h99l-10 -200h-78z" />
    <glyph glyph-name="anoteleia" unicode="&#x387;" horiz-adv-x="260" 
d="M50 291q0 32 23.5 55t56.5 23t56.5 -22t23.5 -54t-23.5 -55t-56.5 -23t-56.5 22t-23.5 54z" />
    <glyph glyph-name="u0388" unicode="&#x388;" horiz-adv-x="685" 
d="M289 313v-205h352v-108h-474v708h459v-108h-337v-184h317v-103h-317zM11 562l-11 200h99l-10 -200h-78z" />
    <glyph glyph-name="u0389" unicode="&#x389;" horiz-adv-x="821" 
d="M160 0v708h126v-286h326v286h126v-708h-126v314h-326v-314h-126zM11 562l-11 200h99l-10 -200h-78z" />
    <glyph glyph-name="u038A" unicode="&#x38a;" horiz-adv-x="374" 
d="M291 708v-708h-126v708h126zM11 562l-11 200h99l-10 -200h-78z" />
    <glyph glyph-name="u038C" unicode="&#x38c;" horiz-adv-x="915" 
d="M734 356q0 108 -68 183t-177 75q-108 0 -176 -74.5t-68 -183.5q0 -111 67.5 -186t176.5 -75t177 75t68 186zM867 356q0 -164 -107 -269.5t-271 -105.5q-163 0 -270 105.5t-107 269.5t106.5 267.5t270.5 103.5t271 -103.5t107 -267.5zM11 562l-11 200h99l-10 -200h-78z
" />
    <glyph glyph-name="u038E" unicode="&#x38e;" horiz-adv-x="795" 
d="M537 302v-302h-125v302l-266 406h153l180 -299l180 299h147zM11 562l-11 200h99l-10 -200h-78z" />
    <glyph glyph-name="u038F" unicode="&#x38f;" horiz-adv-x="863" 
d="M812 0h-291v193q172 43 172 209q0 100 -59.5 155.5t-159.5 55.5q-101 0 -163 -55.5t-62 -155.5q0 -86 49 -141t129 -67v-194h-291v98h189v39q-87 15 -148.5 90.5t-61.5 179.5q0 144 103.5 231t257.5 87q150 0 250.5 -88t100.5 -229q0 -99 -65 -177.5t-146 -93.5v-39h196
v-98zM10 526l-11 200h100l-10 -200h-79z" />
    <glyph glyph-name="u0390" unicode="&#x390;" horiz-adv-x="383" 
d="M250 484v-484h-120v484h120zM160 554l-11 213h89l-10 -213h-68zM287 604q0 22 16 38.5t39 16.5t38.5 -16.5t15.5 -38.5q0 -21 -15.5 -37.5t-38.5 -16.5t-39 16.5t-16 37.5zM-11 604q0 22 15.5 38.5t38.5 16.5t39 -16.5t16 -38.5q0 -21 -16 -37.5t-39 -16.5t-38.5 16.5
t-15.5 37.5z" />
    <glyph glyph-name="u0391" unicode="&#x391;" horiz-adv-x="716" 
d="M357 569l-121 -304h240zM197 161l-63 -161h-137l301 708h122l299 -708h-140l-65 161h-317z" />
    <glyph glyph-name="u0392" unicode="&#x392;" horiz-adv-x="652" 
d="M205 318v-215h113q66 0 110.5 26t44.5 83q0 106 -149 106h-119zM205 606v-193h116q55 0 89.5 24.5t34.5 74.5q0 94 -137 94h-103zM83 0v708h249q44 0 83 -8.5t74.5 -28t56.5 -57t21 -88.5q0 -56 -32.5 -96.5t-87.5 -55.5v-2q67 -10 109.5 -54.5t42.5 -116.5
q0 -98 -75 -149.5t-192 -51.5h-249z" />
    <glyph glyph-name="u0393" unicode="&#x393;" horiz-adv-x="517" 
d="M209 598v-598h-126v708h425v-110h-299z" />
    <glyph glyph-name="u0394" unicode="&#x394;" horiz-adv-x="740" 
d="M564 107l-197 466l-198 -466h395zM700 0h-660v103l267 605h124l269 -604v-104z" />
    <glyph glyph-name="u0395" unicode="&#x395;" horiz-adv-x="600" 
d="M205 313v-205h352v-108h-474v708h459v-108h-337v-184h316v-103h-316z" />
    <glyph glyph-name="u0396" unicode="&#x396;" horiz-adv-x="606" 
d="M565 708v-102l-377 -497h383v-109h-536v108l373 492h-363v108h520z" />
    <glyph glyph-name="u0397" unicode="&#x397;" horiz-adv-x="743" 
d="M83 0v708h125v-286h327v286h125v-708h-125v314h-327v-314h-125z" />
    <glyph glyph-name="u0398" unicode="&#x398;" horiz-adv-x="851" 
d="M425 614q-96 0 -160.5 -58.5t-79.5 -149.5h480q-16 91 -80 149.5t-160 58.5zM425 95q97 0 161.5 60.5t79.5 156.5h-482q12 -95 78 -156t163 -61zM803 356q0 -164 -107 -269.5t-271 -105.5q-163 0 -270.5 105.5t-107.5 269.5t107 267.5t271 103.5t271 -103.5t107 -267.5z
" />
    <glyph glyph-name="u0399" unicode="&#x399;" horiz-adv-x="291" 
d="M209 708v-708h-126v708h126z" />
    <glyph glyph-name="u039A" unicode="&#x39a;" horiz-adv-x="673" 
d="M206 708v-302h3l291 302h163l-329 -324l348 -384h-169l-305 349h-2v-349h-123v708h123z" />
    <glyph glyph-name="u039B" unicode="&#x39b;" horiz-adv-x="716" 
d="M357 539l-218 -539h-135l289 708h127l292 -708h-138z" />
    <glyph glyph-name="u039C" unicode="&#x39c;" horiz-adv-x="923" 
d="M264 708l198 -515h2l193 515h184v-708h-124l2 553h-2l-217 -553h-82l-215 553h-2l2 -553h-120v708h181z" />
    <glyph glyph-name="u039D" unicode="&#x39d;" horiz-adv-x="778" 
d="M229 708l343 -527h3l-2 527h122v-708h-146l-343 530h-3l2 -530h-122v708h146z" />
    <glyph glyph-name="u039E" unicode="&#x39e;" horiz-adv-x="591" 
d="M43 108h505v-108h-505v108zM78 413h426v-100h-426v100zM43 708h498v-108h-498v108z" />
    <glyph glyph-name="u039F" unicode="&#x39f;" horiz-adv-x="851" 
d="M669 356q0 109 -67.5 183.5t-176.5 74.5t-176.5 -74.5t-67.5 -183.5q0 -111 67.5 -186t176.5 -75t176.5 75t67.5 186zM803 356q0 -164 -107 -269.5t-271 -105.5q-163 0 -270.5 105.5t-107.5 269.5t107 267.5t271 103.5t271 -103.5t107 -267.5z" />
    <glyph glyph-name="u03A0" unicode="&#x3a0;" horiz-adv-x="724" 
d="M83 708h558v-708h-125v600h-308v-600h-125v708z" />
    <glyph glyph-name="u03A1" unicode="&#x3a1;" horiz-adv-x="612" 
d="M208 605v-208h95q68 0 107 26t39 80q0 102 -144 102h-97zM83 0v708h232q119 0 189.5 -50t70.5 -155t-72.5 -156t-190.5 -51h-104v-296h-125z" />
    <glyph glyph-name="u03A3" unicode="&#x3a3;" 
d="M567 0h-510v86l271 267v6l-271 262v87h501v-105h-334l260 -241v-11l-246 -247h329v-104z" />
    <glyph glyph-name="u03A4" unicode="&#x3a4;" horiz-adv-x="576" 
d="M351 600v-600h-126v600h-217v108h560v-108h-217z" />
    <glyph glyph-name="u03A5" unicode="&#x3a5;" horiz-adv-x="638" 
d="M380 302v-302h-125v302l-266 406h153l180 -299l180 299h147z" />
    <glyph glyph-name="u03A6" unicode="&#x3a6;" horiz-adv-x="898" 
d="M720 354q0 89 -55 149.5t-155 76.5v-452q99 14 154.5 76t55.5 150zM178 354q0 -89 56 -151t156 -76v453q-100 -14 -156 -76t-56 -150zM510 763v-70q152 -16 248 -108t96 -231t-96 -232t-248 -109v-75h-120v75q-153 16 -249 108.5t-96 232.5t96 231.5t249 107.5v70h120z
" />
    <glyph glyph-name="u03A7" unicode="&#x3a7;" horiz-adv-x="678" 
d="M178 708l161 -250l159 250h147l-229 -335l258 -373h-156l-183 282l-179 -282h-152l254 373l-232 335h152z" />
    <glyph glyph-name="u03A8" unicode="&#x3a8;" horiz-adv-x="869" 
d="M497 708v-462h19q74 0 116.5 43t42.5 122v297h125v-318q0 -123 -80 -189.5t-203 -66.5h-20v-134h-125v134h-25q-121 0 -199.5 66.5t-78.5 189.5v318h125v-297q0 -80 42.5 -122.5t115.5 -42.5h20v462h125z" />
    <glyph glyph-name="u03A9" unicode="&#x3a9;" horiz-adv-x="784" 
d="M733 0h-291v193q172 43 172 209q0 100 -59.5 155.5t-159.5 55.5q-101 0 -163 -55.5t-62 -155.5q0 -86 49 -141t129 -67v-194h-291v98h189v39q-87 15 -148.5 90.5t-61.5 179.5q0 144 104 231t257 87q150 0 250.5 -88t100.5 -229q0 -99 -65 -177.5t-146 -93.5v-39h196v-98z
" />
    <glyph glyph-name="u03AA" unicode="&#x3aa;" horiz-adv-x="291" 
d="M180 849q0 27 20 47t49 20t48.5 -20t19.5 -47q0 -28 -19.5 -48t-48.5 -20q-30 0 -49.5 20t-19.5 48zM-26 849q0 27 20 47t49 20t48.5 -20t19.5 -47q0 -28 -19.5 -48t-48.5 -20t-49 20t-20 48zM209 708v-708h-126v708h126z" />
    <glyph glyph-name="u03AB" unicode="&#x3ab;" horiz-adv-x="638" 
d="M357 849q0 27 19.5 47t48.5 20t48.5 -20t19.5 -47q0 -28 -19.5 -48t-48.5 -20t-48.5 20t-19.5 48zM151 849q0 27 19.5 47t48.5 20t49 -20t20 -47q0 -28 -20 -48t-49 -20t-48.5 20t-19.5 48zM380 302v-302h-125v302l-266 406h153l180 -299l180 299h147z" />
    <glyph glyph-name="u03AC" unicode="&#x3ac;" horiz-adv-x="638" 
d="M162 243q0 -66 39 -111t106 -45q65 0 106 45.5t41 110.5t-41.5 110.5t-105.5 45.5q-67 0 -106 -45t-39 -111zM454 71h-2q-26 -40 -72 -62t-98 -22q-108 0 -173.5 74t-65.5 182q0 107 66 180.5t172 73.5q105 0 164 -79h2v67h120v-485h-113v71zM291 556l-11 200h99
l-10 -200h-78z" />
    <glyph glyph-name="u03AD" unicode="&#x3ad;" horiz-adv-x="530" 
d="M489 411l-70 -63q-15 16 -32 27q-48 27 -105 27q-47 0 -80 -15t-33 -43q0 -58 129 -58h87v-86h-79q-75 0 -111 -13.5t-36 -44.5q0 -29 35 -42.5t86 -13.5q70 0 124 26q24 11 37 27l62 -71q-82 -82 -232 -82q-99 0 -166.5 37t-67.5 104q0 55 38.5 84.5t81.5 34.5v2
q-40 9 -72 37t-32 73q0 64 64.5 102.5t163.5 38.5q62 0 110.5 -18.5t67 -35t30.5 -34.5zM213 756h100l-10 -200h-79z" />
    <glyph glyph-name="u03AE" unicode="&#x3ae;" horiz-adv-x="609" 
d="M74 484h116q2 -48 2 -74h2q18 37 63 62t95 25q91 0 138 -56.5t47 -142.5v-538h-119v506q0 132 -104 132q-52 0 -85 -38.5t-33 -103.5v-256h-120v360q0 44 -2 124zM264 556l-11 200h100l-10 -200h-79z" />
    <glyph glyph-name="u03AF" unicode="&#x3af;" horiz-adv-x="257" 
d="M88 592l-11 200h100l-10 -200h-79zM186 484v-484h-120v484h120z" />
    <glyph glyph-name="u03B0" unicode="&#x3b0;" horiz-adv-x="599" 
d="M265 543l-11 214h88l-10 -214h-67zM391 594q0 21 16 37.5t39 16.5t39 -16t16 -38t-16 -38.5t-39 -16.5t-39 16.5t-16 38.5zM93 594q0 21 16 37.5t39 16.5t39 -16.5t16 -37.5q0 -22 -16 -38.5t-39 -16.5t-39 16.5t-16 38.5zM298 -13q-116 0 -171 61t-55 151v285h120v-263
q0 -133 107 -133q57 0 83 37.5t26 95.5v263h120v-285q0 -89 -56.5 -150.5t-173.5 -61.5z" />
    <glyph glyph-name="u03B1" unicode="&#x3b1;" horiz-adv-x="638" 
d="M162 243q0 -66 39 -111t106 -45q65 0 106 45.5t41 110.5t-41.5 110.5t-105.5 45.5q-67 0 -106 -45t-39 -111zM454 71h-2q-26 -40 -72 -62t-98 -22q-108 0 -173.5 74t-65.5 182q0 107 66 180.5t172 73.5q105 0 164 -79h2v67h120v-485h-113v71z" />
    <glyph glyph-name="u03B2" unicode="&#x3b2;" horiz-adv-x="647" 
d="M195 85v-325h-119v776q0 105 63.5 164t165.5 59q95 0 161 -52t66 -139q0 -64 -36 -110.5t-81 -52.5v-3q27 -1 56 -12t59 -32t49 -59.5t19 -87.5q0 -98 -66.5 -160t-164.5 -62q-82 0 -136 48q-23 21 -36 48zM195 524v-264q0 -82 37 -125t104 -43q59 0 97 33t38 94
q0 60 -40 94.5t-112 34.5h-54v98h44q44 0 73 27.5t29 74.5q0 50 -31 80t-78 30q-48 0 -77.5 -33t-29.5 -101z" />
    <glyph glyph-name="u03B3" unicode="&#x3b3;" horiz-adv-x="578" 
d="M354 31v-271h-120v271l-227 453h136l152 -344l145 344h131z" />
    <glyph glyph-name="u03B4" unicode="&#x3b4;" horiz-adv-x="622" 
d="M457 242q0 67 -40.5 110t-105.5 43q-66 0 -105 -43.5t-39 -110.5t39.5 -110.5t104.5 -43.5q67 0 106.5 43.5t39.5 111.5zM81 624q0 61 69.5 97t181.5 36q84 0 158 -21q31 -8 59 -20l-27 -102q-28 12 -55 21q-67 21 -137 21q-108 0 -108 -45q0 -21 24 -35.5t91 -38.5
q44 -16 82.5 -40t75.5 -59t58.5 -86t21.5 -111q0 -109 -72.5 -182t-191.5 -73q-115 0 -189 72t-74 183q0 97 61 160.5t141 74.5q15 4 25 4l3 5q-12 2 -18 5q-22 7 -64 23q-68 26 -91 51q-24 25 -24 60z" />
    <glyph glyph-name="u03B5" unicode="&#x3b5;" horiz-adv-x="530" 
d="M489 411l-70 -63q-15 16 -32 27q-48 27 -105 27q-47 0 -80 -15t-33 -43q0 -58 129 -58h87v-86h-79q-75 0 -111 -13.5t-36 -44.5q0 -29 35 -42.5t86 -13.5q70 0 124 26q24 11 37 27l62 -71q-82 -82 -232 -82q-99 0 -166.5 37t-67.5 104q0 55 38.5 84.5t81.5 34.5v2
q-40 9 -72 37t-32 73q0 64 64.5 102.5t163.5 38.5q62 0 110.5 -18.5t67 -35t30.5 -34.5z" />
    <glyph glyph-name="u03B6" unicode="&#x3b6;" horiz-adv-x="526" 
d="M286 1q-239 59 -239 268q0 72 24.5 134.5t68 110.5t83.5 79.5t91 62.5h-243v99h428v-82q-67 -43 -109.5 -73t-89.5 -70.5t-73 -76.5t-43.5 -81.5t-17.5 -95.5q0 -81 48 -121.5t166 -77.5q128 -40 128 -142q0 -50 -30.5 -92t-65 -62.5t-67.5 -30.5l-83 61q128 47 128 109
q0 35 -26 51.5t-78 29.5z" />
    <glyph glyph-name="u03B7" unicode="&#x3b7;" horiz-adv-x="607" 
d="M74 484h116q2 -48 2 -74h2q18 37 63 62t95 25q91 0 138 -56.5t47 -142.5v-538h-119v506q0 132 -104 132q-52 0 -85 -38.5t-33 -103.5v-256h-120v360q0 44 -2 124z" />
    <glyph glyph-name="u03B8" unicode="&#x3b8;" horiz-adv-x="636" 
d="M465 325h-290q14 -243 145 -243q70 0 105.5 66.5t39.5 176.5zM320 663q-131 0 -145 -244h290q-4 110 -39.5 177t-105.5 67zM320 761q130 0 198.5 -108t68.5 -282q0 -176 -66.5 -282t-200.5 -106t-199.5 106t-65.5 282q0 175 67.5 282.5t197.5 107.5z" />
    <glyph glyph-name="u03B9" unicode="&#x3b9;" horiz-adv-x="262" 
d="M191 484v-484h-120v484h120z" />
    <glyph glyph-name="u03BA" unicode="&#x3ba;" horiz-adv-x="575" 
d="M194 484v-206h3l186 206h147l-212 -220l227 -264h-150l-198 242h-3v-242h-119v484h119z" />
    <glyph glyph-name="u03BB" unicode="&#x3bb;" horiz-adv-x="559" 
d="M283 380l-140 -380h-127l206 517l-15 39q-22 57 -34 70q-20 21 -59 21q-43 0 -67 -22l-17 97q57 30 113 30q34 0 59.5 -8t42 -18t31.5 -34t23 -42.5t23 -56.5l230 -593h-127l-140 380h-2z" />
    <glyph glyph-name="u03BC" unicode="&#x3bc;" horiz-adv-x="619" 
d="M74 -240v724h120v-247q0 -79 25 -112.5t85 -33.5q56 0 86.5 39t30.5 116v238h119v-381q0 -45 5 -103h-121l-3 71h-2q-37 -83 -117 -83q-85 0 -109 78h-2v-306h-117z" />
    <glyph glyph-name="u03BD" unicode="&#x3bd;" horiz-adv-x="531" 
d="M524 484l-193 -484h-130l-194 484h133l126 -356h3l127 356h128z" />
    <glyph glyph-name="u03BE" unicode="&#x3be;" horiz-adv-x="519" 
d="M47 180q0 83 62.5 129.5t154.5 57.5q-206 23 -206 153q0 63 42 94t117 45v5q-2 0 -50 -0.5t-107 -0.5v91h398v-88q-151 -10 -212 -36.5t-61 -95.5q0 -56 45 -83t123 -27h99v-116h-127q-69 0 -111 -29.5t-42 -77.5q0 -19 3.5 -33.5t14.5 -26t20 -18.5t31.5 -15t36 -11.5
l48 -12.5l53.5 -14q120 -32 120 -132q0 -37 -17.5 -70t-44.5 -55t-54 -36t-52 -21l-91 52q45 11 88 39t43 65q0 31 -26 53.5t-98 34.5q-200 33 -200 180z" />
    <glyph glyph-name="u03BF" unicode="&#x3bf;" horiz-adv-x="623" 
d="M457 243q0 66 -39.5 111t-106.5 45q-66 0 -105.5 -45t-39.5 -111t39.5 -111t105.5 -45q67 0 106.5 45t39.5 111zM576 243q0 -113 -76 -185t-189 -72t-188.5 72t-75.5 185q0 112 75.5 183.5t188.5 71.5t189 -71t76 -184z" />
    <glyph glyph-name="u03C0" unicode="&#x3c0;" horiz-adv-x="597" 
d="M194 389v-389h-120v484h449v-484h-120v389h-209z" />
    <glyph glyph-name="u03C1" unicode="&#x3c1;" horiz-adv-x="646" 
d="M482 242q0 70 -38.5 113t-107.5 43q-64 0 -105 -44.5t-41 -111.5q0 -70 41 -113t105 -43q69 0 107.5 43.5t38.5 112.5zM193 46v-286h-117v474q0 122 75 193t191 71q111 0 184 -73t73 -185q0 -111 -73 -182t-184 -71q-97 0 -146 59h-3z" />
    <glyph glyph-name="u03C2" unicode="&#x3c2;" horiz-adv-x="526" 
d="M324 90q162 -38 162 -155q0 -50 -30.5 -92t-65 -62.5t-67.5 -30.5l-84 61q128 47 128 109q0 27 -17 44.5t-33 22.5t-41 10q-29 6 -49.5 11.5t-57.5 23.5t-61 42t-42.5 67t-18.5 97q0 119 75.5 189.5t185.5 70.5q59 0 112 -21t82 -59l-74 -77q-37 58 -117 58
q-64 0 -104.5 -40.5t-40.5 -113.5q0 -33 9.5 -58t22.5 -40t36.5 -27t41.5 -17.5t48 -12.5z" />
    <glyph glyph-name="u03C3" unicode="&#x3c3;" horiz-adv-x="647" 
d="M454 242q0 67 -40.5 112t-106.5 45q-65 0 -106 -45t-41 -112t40.5 -111.5t106.5 -44.5t106.5 44.5t40.5 111.5zM641 388h-122v-3q49 -57 49 -146q0 -109 -74 -181.5t-187 -72.5t-186.5 73t-73.5 184t73.5 184t186.5 73q35 0 84 -6.5t92 -6.5h158v-98z" />
    <glyph glyph-name="u03C4" unicode="&#x3c4;" horiz-adv-x="472" 
d="M6 389v95h461v-95h-171v-389h-120v389h-170z" />
    <glyph glyph-name="u03C5" unicode="&#x3c5;" horiz-adv-x="599" 
d="M298 -13q-117 0 -172 61t-55 151v285h120v-263q0 -133 108 -133q57 0 83 37.5t26 95.5v263h119v-285q0 -89 -57 -150.5t-172 -61.5z" />
    <glyph glyph-name="u03C6" unicode="&#x3c6;" horiz-adv-x="829" 
d="M47 246q0 53 17 96.5t47 72.5t62.5 48t70.5 31l51 -87q-53 -15 -91 -55.5t-38 -101.5q0 -80 54 -119.5t146 -41.5v398h147q114 0 191 -65t77 -175q0 -123 -91 -191t-213 -68v-228h-111v228q-143 2 -231 66t-88 192zM662 246q0 75 -48.5 108.5t-106.5 33.5h-30v-299
q86 1 135.5 41.5t49.5 115.5z" />
    <glyph glyph-name="u03C7" unicode="&#x3c7;" horiz-adv-x="581" 
d="M26 484h130l136 -253l136 253h127l-189 -342l209 -381h-130l-155 294l-154 -294h-130l209 383z" />
    <glyph glyph-name="u03C8" unicode="&#x3c8;" horiz-adv-x="827" 
d="M474 484v-396q84 5 126.5 52.5t42.5 144.5v199h120v-230q0 -131 -81.5 -201t-207.5 -72v-221h-120v221q-126 2 -207.5 72t-81.5 201v230h119v-199q0 -97 42.5 -144.5t127.5 -52.5v396h120z" />
    <glyph glyph-name="u03C9" unicode="&#x3c9;" horiz-adv-x="812" 
d="M231 493l71 -73q-75 -29 -108 -71t-33 -114q0 -67 24.5 -105.5t69.5 -38.5q91 0 91 147v87h120v-87q0 -146 90 -146q46 0 71 38t25 105q0 73 -32.5 114.5t-107.5 70.5l69 73q83 -31 136 -98t53 -173t-53 -169t-148 -63q-64 0 -106.5 34t-54.5 96h-4q-14 -66 -56.5 -98
t-104.5 -32q-95 0 -147.5 61.5t-52.5 170.5q0 200 188 271z" />
    <glyph glyph-name="u03CA" unicode="&#x3ca;" horiz-adv-x="275" 
d="M174 653q0 27 19.5 47t48.5 20t48.5 -20t19.5 -47q0 -28 -19.5 -48t-48.5 -20t-48.5 20t-19.5 48zM-32 653q0 27 19.5 47t48.5 20t49 -20t20 -47q0 -28 -20 -48t-49 -20t-48.5 20t-19.5 48zM197 484v-484h-120v484h120z" />
    <glyph glyph-name="u03CB" unicode="&#x3cb;" horiz-adv-x="600" 
d="M327 -13q-116 0 -171 61t-55 151v285h119v-263q0 -133 108 -133q57 0 83 37.5t26 95.5v263h120v-285q0 -89 -56.5 -150.5t-173.5 -61.5zM360 653q0 27 19.5 47t48.5 20t48.5 -20t19.5 -47q0 -28 -19.5 -48t-48.5 -20t-48.5 20t-19.5 48zM154 653q0 27 19.5 47t48.5 20
t49 -20t20 -47q0 -28 -20 -48t-49 -20t-48.5 20t-19.5 48z" />
    <glyph glyph-name="u03CC" unicode="&#x3cc;" horiz-adv-x="623" 
d="M272 548l-11 200h99l-10 -200h-78zM457 243q0 66 -39.5 111t-106.5 45q-66 0 -105.5 -45t-39.5 -111t39.5 -111t105.5 -45q67 0 106.5 45t39.5 111zM576 243q0 -113 -76 -185t-189 -72t-188.5 72t-75.5 185q0 112 75.5 183.5t188.5 71.5t189 -71t76 -184z" />
    <glyph glyph-name="u03CD" unicode="&#x3cd;" horiz-adv-x="600" 
d="M298 -13q-116 0 -171 61t-55 151v285h120v-263q0 -133 107 -133q57 0 83 37.5t26 95.5v263h120v-285q0 -89 -56.5 -150.5t-173.5 -61.5zM261 544l-11 200h100l-10 -200h-79z" />
    <glyph glyph-name="u03CE" unicode="&#x3ce;" horiz-adv-x="812" 
d="M231 493l71 -73q-75 -29 -108 -71t-33 -114q0 -67 24.5 -105.5t69.5 -38.5q91 0 91 147v87h120v-87q0 -146 90 -146q46 0 71 38t25 105q0 73 -32.5 114.5t-107.5 70.5l69 73q83 -31 136 -98t53 -173t-53 -169t-148 -63q-64 0 -106.5 34t-54.5 96h-4q-14 -66 -56.5 -98
t-104.5 -32q-95 0 -147.5 61.5t-52.5 170.5q0 200 188 271zM355 744h100l-10 -200h-79z" />
    <glyph glyph-name="u0401" unicode="&#x401;" horiz-adv-x="600" 
d="M350 849q0 27 19.5 47t48.5 20t49 -20t20 -47q0 -28 -20 -48t-49 -20t-48.5 20t-19.5 48zM144 849q0 27 19.5 47t48.5 20t49 -20t20 -47q0 -28 -20 -48t-49 -20t-48.5 20t-19.5 48zM205 313v-205h352v-108h-474v708h459v-108h-337v-184h316v-103h-316z" />
    <glyph glyph-name="u0402" unicode="&#x402;" horiz-adv-x="723" 
d="M188 600h-180v108h535v-108h-230v-138h109q126 0 193 -62.5t67 -171.5q0 -100 -67 -164t-190 -64h-31v106h37q53 0 89 32.5t36 88.5q0 126 -146 126h-97v-353h-125v600z" />
    <glyph glyph-name="u0403" unicode="&#x403;" horiz-adv-x="534" 
d="M209 598v-598h-126v708h425v-110h-299zM329 908h132l-140 -144h-94z" />
    <glyph glyph-name="u0404" unicode="&#x404;" horiz-adv-x="714" 
d="M610 183l83 -74q-40 -57 -108.5 -92t-159.5 -35q-165 0 -271.5 105t-106.5 267t106.5 267t271.5 105q179 0 258 -107l-86 -88q-55 83 -171 83q-92 0 -157 -55.5t-81 -147.5h371v-101h-373q14 -98 80.5 -156.5t159.5 -58.5q114 0 184 88z" />
    <glyph glyph-name="u0405" unicode="&#x405;" horiz-adv-x="579" 
d="M527 639l-85 -83q-48 66 -135 66q-48 0 -85.5 -25t-37.5 -75q0 -17 3.5 -30t15 -23.5l18 -16.5t28 -14.5l29.5 -11.5t36 -12q40 -13 61 -21t55.5 -26.5t52.5 -38t32 -52t14 -73.5q0 -108 -74 -164.5t-178 -56.5q-73 0 -138.5 26.5t-107.5 76.5l89 83q25 -36 67.5 -58.5
t89.5 -22.5q51 0 88 27t37 77q0 22 -9 39.5t-19 28t-36.5 22.5t-41.5 17.5t-53 17.5q-40 13 -68 26t-57.5 36t-44.5 57.5t-15 80.5q0 103 75.5 156.5t176.5 53.5q65 0 122 -23.5t95 -63.5z" />
    <glyph glyph-name="u0406" unicode="&#x406;" horiz-adv-x="291" 
d="M209 708v-708h-126v708h126z" />
    <glyph glyph-name="u0407" unicode="&#x407;" horiz-adv-x="303" 
d="M189 849q0 27 19.5 47t48.5 20t49 -20t20 -47q0 -28 -20 -48t-49 -20t-48.5 20t-19.5 48zM-17 849q0 27 19.5 47t48.5 20t49 -20t20 -47q0 -28 -20 -48t-49 -20t-48.5 20t-19.5 48zM217 708v-708h-126v708h126z" />
    <glyph glyph-name="u0408" unicode="&#x408;" horiz-adv-x="512" 
d="M10 137l112 36q9 -35 32.5 -57t58.5 -22q95 0 95 132v482h126v-483q0 -34 -5 -65.5t-19.5 -65t-37.5 -58t-61.5 -40t-89.5 -15.5q-82 0 -138.5 43t-72.5 113z" />
    <glyph glyph-name="u0409" unicode="&#x409;" horiz-adv-x="971" 
d="M644 322h-75l87 -217q162 0 162 107q0 33 -13.5 55.5t-39 34t-54.5 16t-67 4.5zM349 564l-212 -564h-133l287 708h122l115 -281h119q140 0 219 -53t79 -167q0 -97 -76.5 -152t-213.5 -55h-94z" />
    <glyph glyph-name="u040A" unicode="&#x40a;" horiz-adv-x="1020" 
d="M704 321h-91v-213h92q144 0 144 106q0 107 -145 107zM83 708h125v-281h280v281h125v-281h100q116 0 189 -55t73 -161q0 -104 -71 -157.5t-189 -53.5h-227v319h-280v-319h-125v708z" />
    <glyph glyph-name="u040B" unicode="&#x40b;" horiz-adv-x="731" 
d="M402 353h-89v-353h-125v600h-180v108h535v-108h-230v-139h132q234 0 234 -262v-199h-126v159q0 103 -30.5 148.5t-120.5 45.5z" />
    <glyph glyph-name="u040C" unicode="&#x40c;" horiz-adv-x="703" 
d="M532 908l-139 -144h-94l102 144h131zM208 0h-125v708h125v-277q35 0 77 -5l240 282h137l-253 -311q108 -42 172 -138.5t92 -258.5h-137q-33 174 -108 250.5t-220 72.5v-323z" />
    <glyph glyph-name="u040E" unicode="&#x40e;" horiz-adv-x="650" 
d="M140 878l71 37q15 -34 47.5 -55.5t70.5 -21.5q39 0 70.5 21.5t46.5 55.5l71 -37q-19 -48 -69.5 -81t-118.5 -33q-67 0 -118.5 33t-70.5 81zM150 708h-139l258 -549q-38 -69 -89 -69q-37 0 -74 32l-73 -92q16 -14 27.5 -21.5t41.5 -16t69 -8.5q84 0 135.5 44t89.5 126
l255 554h-137l-179 -404z" />
    <glyph glyph-name="u040F" unicode="&#x40f;" horiz-adv-x="729" 
d="M208 108h314v600h125v-708h-220v-139h-109v139h-235v708h125v-600z" />
    <glyph glyph-name="u0410" unicode="&#x410;" horiz-adv-x="716" 
d="M357 569l-121 -304h240zM197 161l-63 -161h-137l301 708h122l299 -708h-140l-65 161h-317z" />
    <glyph glyph-name="u0411" unicode="&#x411;" horiz-adv-x="643" 
d="M323 0h-240v708h458v-108h-333v-173h118q118 0 189 -53.5t71 -158.5q0 -106 -73.5 -160.5t-189.5 -54.5zM208 108h106q67 0 107 27.5t40 79.5t-39.5 78t-105.5 26h-108v-211z" />
    <glyph glyph-name="u0412" unicode="&#x412;" horiz-adv-x="652" 
d="M205 318v-215h113q66 0 110.5 26t44.5 83q0 106 -149 106h-119zM205 606v-193h116q55 0 89.5 24.5t34.5 74.5q0 94 -137 94h-103zM83 0v708h249q44 0 83 -8.5t74.5 -28t56.5 -57t21 -88.5q0 -56 -32.5 -96.5t-87.5 -55.5v-2q67 -10 109.5 -54.5t42.5 -116.5
q0 -98 -75 -149.5t-192 -51.5h-249z" />
    <glyph glyph-name="u0413" unicode="&#x413;" horiz-adv-x="534" 
d="M209 598v-598h-126v708h425v-110h-299z" />
    <glyph glyph-name="u0414" unicode="&#x414;" horiz-adv-x="782" 
d="M388 568l-156 -460h312zM676 0h-570v-139h-109v247h107l226 600h122l224 -600h109v-247h-109v139z" />
    <glyph glyph-name="u0415" unicode="&#x415;" horiz-adv-x="600" 
d="M205 313v-205h352v-108h-474v708h459v-108h-337v-184h316v-103h-316z" />
    <glyph glyph-name="u0416" unicode="&#x416;" horiz-adv-x="996" 
d="M436 0v320q-114 2 -181.5 -84t-86.5 -236h-137q34 290 213 383l-213 325h137l193 -286q36 6 75 6v280h125v-280q38 0 74 -6l193 286h137l-214 -325q180 -94 214 -383h-137q-19 151 -86.5 236.5t-180.5 83.5v-320h-125z" />
    <glyph glyph-name="u0417" unicode="&#x417;" horiz-adv-x="622" 
d="M188 320v93h72q71 0 110 26.5t39 78.5q0 48 -32 75.5t-86 27.5q-90 0 -121 -90l-108 46q29 72 90 110.5t147 38.5q106 0 173.5 -50.5t67.5 -143.5q0 -62 -42 -103t-98 -55v-2q67 -7 118 -48.5t51 -123.5q0 -99 -78 -158.5t-194 -59.5q-193 0 -253 169l111 42
q42 -106 149 -106q65 0 101.5 30.5t36.5 82.5q0 120 -187 120h-67z" />
    <glyph glyph-name="u0418" unicode="&#x418;" horiz-adv-x="787" 
d="M208 176h2l348 532h146v-708h-125v532h-2l-349 -532h-145v708h125v-532z" />
    <glyph glyph-name="u0419" unicode="&#x419;" horiz-adv-x="786" 
d="M210 181l342 527h151v-708h-125q0 90 0.5 266t0.5 264h-3l-343 -530h-150v708h125q0 -88 -0.5 -263t-0.5 -264h3zM204 878l71 37q15 -34 47.5 -55.5t70.5 -21.5q39 0 70.5 21.5t46.5 55.5l71 -37q-19 -48 -69.5 -81t-118.5 -33q-67 0 -118.5 33t-70.5 81z" />
    <glyph glyph-name="u041A" unicode="&#x41a;" horiz-adv-x="703" 
d="M208 0h-125v708h125v-277q35 0 77 -5l240 282h137l-253 -311q108 -42 172 -138.5t92 -258.5h-137q-33 174 -108 250.5t-220 72.5v-323z" />
    <glyph glyph-name="u041B" unicode="&#x41b;" horiz-adv-x="692" 
d="M350 539l-218 -539h-135l289 708h127l292 -708h-138z" />
    <glyph glyph-name="u041C" unicode="&#x41c;" horiz-adv-x="923" 
d="M264 708l198 -515h2l193 515h184v-708h-124l2 553h-2l-217 -553h-82l-215 553h-2l2 -553h-120v708h181z" />
    <glyph glyph-name="u041D" unicode="&#x41d;" horiz-adv-x="743" 
d="M83 0v708h125v-286h327v286h125v-708h-125v314h-327v-314h-125z" />
    <glyph glyph-name="u041E" unicode="&#x41e;" horiz-adv-x="851" 
d="M669 356q0 109 -67.5 183.5t-176.5 74.5t-176.5 -74.5t-67.5 -183.5q0 -111 67.5 -186t176.5 -75t176.5 75t67.5 186zM803 356q0 -164 -107 -269.5t-271 -105.5q-163 0 -270.5 105.5t-107.5 269.5t107 267.5t271 103.5t271 -103.5t107 -267.5z" />
    <glyph glyph-name="u041F" unicode="&#x41f;" horiz-adv-x="724" 
d="M83 708h558v-708h-125v600h-308v-600h-125v708z" />
    <glyph glyph-name="u0420" unicode="&#x420;" horiz-adv-x="612" 
d="M208 605v-208h95q68 0 107 26t39 80q0 102 -144 102h-97zM83 0v708h232q119 0 189.5 -50t70.5 -155t-72.5 -156t-190.5 -51h-104v-296h-125z" />
    <glyph glyph-name="u0421" unicode="&#x421;" horiz-adv-x="707" 
d="M603 182l90 -77q-96 -124 -270 -124q-163 0 -269.5 105t-106.5 269t107.5 268t269.5 104q78 0 148 -29t111 -79l-90 -83q-24 35 -68 56.5t-97 21.5q-109 0 -177 -74.5t-68 -184.5q0 -112 67.5 -186t176.5 -74q115 0 176 87z" />
    <glyph glyph-name="u0422" unicode="&#x422;" horiz-adv-x="576" 
d="M351 600v-600h-126v600h-217v108h560v-108h-217z" />
    <glyph glyph-name="u0423" unicode="&#x423;" horiz-adv-x="650" 
d="M11 708h139l185 -404l179 404h137l-255 -554q-38 -82 -89.5 -126t-135.5 -44q-39 0 -69 8.5t-41.5 16t-27.5 21.5l73 92q37 -32 74 -32q51 0 89 69z" />
    <glyph glyph-name="u0424" unicode="&#x424;" horiz-adv-x="898" 
d="M720 354q0 89 -55 149.5t-155 76.5v-452q99 14 154.5 76t55.5 150zM178 354q0 -89 56 -151t156 -76v453q-100 -14 -156 -76t-56 -150zM510 763v-70q152 -16 248 -108t96 -231t-96 -232t-248 -109v-75h-120v75q-153 16 -249 108.5t-96 232.5t96 231.5t249 107.5v70h120z
" />
    <glyph glyph-name="u0425" unicode="&#x425;" horiz-adv-x="678" 
d="M178 708l161 -250l159 250h147l-229 -335l258 -373h-156l-183 282l-179 -282h-152l254 373l-232 335h152z" />
    <glyph glyph-name="u0426" unicode="&#x426;" horiz-adv-x="755" 
d="M619 0h-536v708h125v-600h314v600h125v-600h81v-247h-109v139z" />
    <glyph glyph-name="u0427" unicode="&#x427;" horiz-adv-x="649" 
d="M442 397v311h125v-708h-124v289h-149q-121 0 -180.5 66.5t-59.5 187.5v165h125v-129q0 -96 28 -139t105 -43h130z" />
    <glyph glyph-name="u0428" unicode="&#x428;" horiz-adv-x="999" 
d="M208 108h232v600h125v-600h226v600h125v-708h-833v708h125v-600z" />
    <glyph glyph-name="u0429" unicode="&#x429;" horiz-adv-x="1047" 
d="M911 0h-828v708h125v-600h232v600h125v-600h228v600h124v-600h103v-247h-109v139z" />
    <glyph glyph-name="u042A" unicode="&#x42a;" horiz-adv-x="706" 
d="M310 329v-222h85q70 0 105 31.5t35 82.5q0 50 -35 79t-105 29h-85zM8 708h302v-272h81q123 0 196.5 -52.5t73.5 -158.5q0 -107 -81.5 -166t-210.5 -59h-183v600h-178v108z" />
    <glyph glyph-name="u042B" unicode="&#x42b;" horiz-adv-x="824" 
d="M616 708h125v-708h-125v708zM208 329v-222h85q72 0 105.5 27.5t33.5 85.5q0 50 -35 79.5t-104 29.5h-85zM83 708h125v-272h80q122 0 196.5 -54.5t74.5 -160.5t-76 -163.5t-197 -57.5h-203v708z" />
    <glyph glyph-name="u042C" unicode="&#x42c;" horiz-adv-x="615" 
d="M304 329h-96v-222h96q70 0 105 30.5t35 82.5q0 109 -140 109zM83 0v708h125v-272h92q122 0 196 -53.5t74 -157.5q0 -107 -76 -166t-197 -59h-214z" />
    <glyph glyph-name="u042D" unicode="&#x42d;" horiz-adv-x="716" 
d="M21 104l83 75q67 -84 195 -84q93 0 158 58.5t77 156.5h-377v101h375q-16 95 -79.5 149t-157.5 54q-65 0 -113 -26t-71 -63l-78 82q40 54 111.5 86.5t161.5 32.5q167 0 264.5 -104t97.5 -268q0 -162 -103.5 -267t-268.5 -105q-93 0 -164 33t-111 89z" />
    <glyph glyph-name="u042E" unicode="&#x42e;" horiz-adv-x="1127" 
d="M458 356q0 -111 67.5 -186t176.5 -75t176.5 75t67.5 186q0 109 -68 183.5t-176 74.5q-109 0 -176.5 -74.5t-67.5 -183.5zM83 708h125v-298h119q16 141 120.5 229t254.5 88q164 0 271 -103.5t107 -267.5t-107 -269.5t-271 -105.5q-150 0 -254.5 89.5t-120.5 230.5h-119
v-301h-125v708z" />
    <glyph glyph-name="u042F" unicode="&#x42f;" horiz-adv-x="668" 
d="M215 335v2q-74 12 -116.5 54.5t-42.5 111.5q-1 99 75 152t217 53h237v-708h-125v291h-70q-202 0 -232 -291h-136q8 121 61.5 209.5t131.5 125.5zM460 399v201h-100q-88 0 -129.5 -24.5t-41.5 -77.5q0 -99 171 -99h100z" />
    <glyph glyph-name="u0430" unicode="&#x430;" horiz-adv-x="551" 
d="M370 225h-20q-193 0 -193 -83q0 -36 26 -52.5t63 -16.5q58 0 91 35.5t33 91.5v25zM368 300v12q0 47 -28 70.5t-78 23.5q-76 0 -131 -53l-62 69q79 76 204 76q196 0 206 -186q2 -38 2 -57v-153q0 -61 4 -102h-110q-3 60 -3 64h-2q-52 -76 -155 -76q-67 0 -119.5 37
t-52.5 113q0 42 19.5 72t49 47t75 27t86.5 13t95 3z" />
    <glyph glyph-name="u0431" unicode="&#x431;" horiz-adv-x="615" 
d="M451 234q0 64 -38 106t-98 42q-61 0 -102 -37t-41 -106t38.5 -111.5t103.5 -42.5q62 0 99.5 42.5t37.5 106.5zM326 481q105 0 173 -67t68 -179t-72.5 -180.5t-184.5 -68.5q-103 0 -170 61.5t-80 173.5q-6 50 -5 78q5 214 86.5 311t258.5 97h149v-93h-151
q-103 0 -153.5 -48.5t-63.5 -141.5q54 57 145 57z" />
    <glyph glyph-name="u0432" unicode="&#x432;" horiz-adv-x="563" 
d="M328 0h-254v484h242q91 0 139 -34.5t48 -95.5q0 -49 -27.5 -71.5t-80.5 -36.5q132 -9 132 -117q0 -59 -52.5 -94t-146.5 -35zM194 208v-122h73q37 0 54.5 1t40.5 6.5t32.5 18t9.5 34.5q0 21 -10 34.5t-31.5 19t-41.5 7t-54 1.5h-73zM194 282h95q46 0 69.5 12t23.5 46
q0 20 -9 32.5t-29 17.5t-38 6.5t-50 1.5h-62v-116z" />
    <glyph glyph-name="u0433" unicode="&#x433;" horiz-adv-x="413" 
d="M194 390v-390h-120v484h323v-94h-203z" />
    <glyph glyph-name="u0434" unicode="&#x434;" horiz-adv-x="601" 
d="M309 348l-26 -38l-78 -214h191zM106 0v-139h-103v235h78l155 388h136l144 -388h83v-235h-103v139h-390z" />
    <glyph glyph-name="u0435" unicode="&#x435;" horiz-adv-x="585" 
d="M539 245q0 -23 -1 -35h-374q2 -54 44 -91.5t99 -37.5q86 0 129 65l85 -57q-76 -103 -215 -103q-111 0 -185 70t-74 185q0 113 72.5 185t181.5 72t173.5 -69.5t64.5 -183.5zM165 289h260q-1 54 -33.5 88t-90.5 34q-56 0 -94 -36t-42 -86z" />
    <glyph glyph-name="u0436" unicode="&#x436;" horiz-adv-x="858" 
d="M369 0v206q-80 -6 -128.5 -52.5t-71.5 -153.5h-133q47 188 178 255l-158 229h133l126 -190q29 6 54 7v183h120v-183q20 -1 54 -7l126 190h133l-158 -229q130 -67 178 -255h-133q-23 107 -72 153.5t-128 52.5v-206h-120z" />
    <glyph glyph-name="u0437" unicode="&#x437;" horiz-adv-x="481" 
d="M100 348l-74 53q7 14 18 27t34 32t61 30.5t86 11.5q95 0 147 -39t52 -99q0 -47 -30 -77t-73 -39v-3q49 -4 86.5 -33t37.5 -83q0 -71 -60.5 -108t-161.5 -37q-32 0 -60.5 5.5t-47.5 12.5t-37.5 18.5t-27 18t-18.5 17.5l-11 10l64 69q1 -1 7 -6.5t11.5 -10t15 -11.5t20 -12
t23 -10t27.5 -7.5t31 -2.5q51 0 79 17.5t28 49.5q0 30 -30.5 46.5t-82.5 16.5h-72v79h67q103 0 103 59q0 30 -26 51t-74 21q-54 0 -88 -34q-15 -15 -24 -33z" />
    <glyph glyph-name="u0438" unicode="&#x438;" horiz-adv-x="640" 
d="M445 0v331l-250 -331h-121v484h121v-323l250 323h121v-484h-121z" />
    <glyph glyph-name="u0439" unicode="&#x439;" horiz-adv-x="640" 
d="M156 681l64 33q12 -31 41 -50t64 -19t64 19t41 50l64 -33q-17 -43 -63 -73t-106 -30t-107.5 30t-61.5 73zM445 331v-331h121v484h-121l-250 -323v323h-121v-484h121z" />
    <glyph glyph-name="u043A" unicode="&#x43a;" horiz-adv-x="570" 
d="M194 484v-186q31 0 58 -6l139 192h132l-168 -227q70 -34 111.5 -96.5t66.5 -160.5h-132q-23 109 -72 154t-135 49v-203h-120v484h120z" />
    <glyph glyph-name="u043B" unicode="&#x43b;" horiz-adv-x="548" 
d="M534 0h-128l-128 341l-135 -341h-128l198 484h134z" />
    <glyph glyph-name="u043C" unicode="&#x43c;" horiz-adv-x="721" 
d="M74 484h105l183 -219l180 219h105v-484h-120v316l-152 -198h-28l-153 195v-313h-120v484z" />
    <glyph glyph-name="u043D" unicode="&#x43d;" horiz-adv-x="601" 
d="M194 204v-204h-120v484h120v-186h213v186h120v-484h-120v204h-213z" />
    <glyph glyph-name="u043E" unicode="&#x43e;" horiz-adv-x="623" 
d="M457 243q0 66 -39.5 111t-106.5 45q-66 0 -105.5 -45t-39.5 -111t39.5 -111t105.5 -45q67 0 106.5 45t39.5 111zM576 243q0 -113 -76 -185t-189 -72t-188.5 72t-75.5 185q0 112 75.5 183.5t188.5 71.5t189 -71t76 -184z" />
    <glyph glyph-name="u043F" unicode="&#x43f;" horiz-adv-x="593" 
d="M194 389v-389h-120v484h445v-484h-120v389h-205z" />
    <glyph glyph-name="u0440" unicode="&#x440;" horiz-adv-x="647" 
d="M481 243q0 66 -38.5 111t-106.5 45q-64 0 -105.5 -45.5t-41.5 -110.5t41 -110.5t106 -45.5q68 0 106.5 45t38.5 111zM196 66v-306h-120v724h115v-70h3q27 39 70.5 61t96.5 22q107 0 173 -73t66 -181t-65.5 -182t-173.5 -74q-49 0 -93 21t-70 58h-2z" />
    <glyph glyph-name="u0441" unicode="&#x441;" horiz-adv-x="502" 
d="M492 425l-76 -77q-15 23 -43 36.5t-59 13.5q-64 0 -104 -44.5t-40 -111.5q0 -66 40 -110.5t105 -44.5q68 0 106 48l73 -77q-67 -72 -182 -72q-117 0 -191 70.5t-74 185.5q0 113 74.5 184.5t190.5 71.5q52 0 101.5 -19.5t78.5 -53.5z" />
    <glyph glyph-name="u0442" unicode="&#x442;" horiz-adv-x="458" 
d="M15 389v95h428v-95h-157v-389h-120v389h-151z" />
    <glyph glyph-name="u0443" unicode="&#x443;" horiz-adv-x="531" 
d="M140 484l133 -354h3l120 354h128l-214 -546q-36 -93 -77.5 -135.5t-122.5 -42.5q-35 0 -76 9l13 103q27 -9 51 -9q34 0 52.5 17.5t34.5 57.5l26 67l-204 479h133z" />
    <glyph glyph-name="u0444" unicode="&#x444;" horiz-adv-x="711" 
d="M163 242q0 -69 35.5 -113t100.5 -46v317q-66 -2 -101 -46t-35 -112zM548 242q0 67 -35.5 111.5t-101.5 46.5v-317q66 2 101.5 46t35.5 113zM411 756v-260q110 -2 181 -74.5t71 -179.5q0 -109 -70.5 -180.5t-181.5 -73.5v-230h-112v230q-108 2 -180 74t-72 180t71 180
t181 74v260h112z" />
    <glyph glyph-name="u0445" unicode="&#x445;" horiz-adv-x="543" 
d="M6 0l192 252l-177 232h143l109 -154l110 154h138l-175 -230l192 -254h-145l-122 172l-125 -172h-140z" />
    <glyph glyph-name="u0446" unicode="&#x446;" horiz-adv-x="606" 
d="M491 0h-417v484h120v-387h202v387h120v-387h78v-236h-103v139z" />
    <glyph glyph-name="u0447" unicode="&#x447;" horiz-adv-x="564" 
d="M45 363v121h120v-67q0 -98 19 -132.5t92 -34.5h94v234h120v-484h-120v145l-107 1q-124 1 -171 54t-47 163z" />
    <glyph glyph-name="u0448" unicode="&#x448;" horiz-adv-x="845" 
d="M770 0h-696v484h120v-389h168v389h120v-389h169v389h119v-484z" />
    <glyph glyph-name="u0449" unicode="&#x449;" horiz-adv-x="841" 
d="M725 0h-651v484h120v-389h158v389h119v-389h159v389h120v-389h79v-234h-104v139z" />
    <glyph glyph-name="u044A" unicode="&#x44a;" horiz-adv-x="599" 
d="M264 241v-154h80q100 0 100 78q0 76 -103 76h-77zM15 484h249v-156h102q102 0 149 -44.5t47 -118.5q0 -72 -50 -118.5t-142 -46.5h-226v389h-129v95z" />
    <glyph glyph-name="u044B" unicode="&#x44b;" horiz-adv-x="740" 
d="M546 484h120v-484h-120v484zM194 241v-154h82q100 0 100 78q0 76 -103 76h-79zM74 484h120v-156h74q122 0 174.5 -40t52.5 -123q0 -165 -231 -165h-190v484z" />
    <glyph glyph-name="u044C" unicode="&#x44c;" horiz-adv-x="541" 
d="M194 241v-154h91q101 0 101 78q0 76 -103 76h-89zM74 484h120v-156h113q103 0 150.5 -44.5t47.5 -118.5q0 -72 -51 -118.5t-143 -46.5h-237v484z" />
    <glyph glyph-name="u044D" unicode="&#x44d;" horiz-adv-x="553" 
d="M120 330l-79 68q68 101 210 101q118 0 186.5 -71.5t68.5 -185.5q0 -110 -73.5 -183t-185.5 -73q-132 0 -211 103l81 66q19 -30 53 -50.5t77 -20.5q60 0 97.5 34t43.5 91h-225v78h225q-9 51 -45 82.5t-94 31.5q-87 0 -129 -71z" />
    <glyph glyph-name="u044E" unicode="&#x44e;" horiz-adv-x="844" 
d="M678 243q0 65 -40 110.5t-106 45.5t-105.5 -45t-39.5 -111t39.5 -111t105.5 -45q67 0 106.5 45t39.5 111zM796 243q0 -113 -75.5 -185t-188.5 -72q-103 0 -176.5 62t-85.5 161h-76v-209h-120v484h120v-180h81q20 87 90 140.5t167 53.5q113 0 188.5 -71.5t75.5 -183.5z
" />
    <glyph glyph-name="u044F" unicode="&#x44f;" horiz-adv-x="534" 
d="M173 325q0 -34 25.5 -45t81.5 -11h75v114h-76q-58 0 -82 -11.5t-24 -46.5zM355 173h-55q-61 0 -94.5 -39t-45.5 -134h-132q14 92 52.5 147t92.5 71v3q-117 12 -117 129q0 71 54.5 102.5t141.5 31.5h223v-484h-120v173z" />
    <glyph glyph-name="u0451" unicode="&#x451;" horiz-adv-x="572" 
d="M350 653q0 27 20 47t49 20t48.5 -20t19.5 -47q0 -28 -19.5 -48t-48.5 -20t-49 20.5t-20 47.5zM144 653q0 27 20 47t49 20t49 -20t20 -47q0 -28 -20 -48t-49 -20t-49 20.5t-20 47.5zM548 245q0 -23 -1 -35h-374q2 -54 44 -91.5t99 -37.5q86 0 129 65l85 -57
q-76 -103 -215 -103q-111 0 -185 70t-74 185q0 113 72.5 185t181.5 72t173.5 -69.5t64.5 -183.5zM174 289h261q-2 54 -34.5 88t-90.5 34q-56 0 -94 -36t-42 -86z" />
    <glyph glyph-name="u0452" unicode="&#x452;" horiz-adv-x="607" 
d="M203 -171l52 75q33 -19 62 -19q50 0 72.5 34t22.5 105v235q0 74 -23.5 106t-74.5 32q-52 0 -82.5 -38.5t-30.5 -108.5v-250h-120v572h-86v72h86v112h120v-112h166v-72h-166v-158h2q41 83 152 83q88 0 132.5 -56.5t44.5 -148.5v-259q0 -34 -1 -50q-6 -86 -57.5 -139.5
t-146.5 -53.5q-67 0 -124 39z" />
    <glyph glyph-name="u0453" unicode="&#x453;" horiz-adv-x="422" 
d="M406 699l-139 -144h-94l102 144h131zM193 390v-390h-119v484h322v-94h-203z" />
    <glyph glyph-name="u0454" unicode="&#x454;" horiz-adv-x="563" 
d="M516 398l-79 -68q-42 71 -130 71q-57 0 -93 -31.5t-45 -82.5h224v-78h-225q7 -57 46 -91t99 -34q82 0 126 71l82 -66q-80 -103 -215 -103q-113 0 -184 72.5t-71 183.5q0 114 68 185.5t186 71.5q141 0 211 -101z" />
    <glyph glyph-name="u0455" unicode="&#x455;" horiz-adv-x="483" 
d="M436 422l-73 -68q-40 54 -109 54q-33 0 -56 -13.5t-23 -41.5q0 -25 22.5 -38.5t78.5 -25.5q160 -33 160 -145q0 -81 -57.5 -119.5t-138.5 -38.5q-59 0 -113 21t-89 62l75 71q21 -28 54.5 -46t70.5 -18q35 0 59 15t24 46q0 27 -26.5 41.5t-90.5 30.5q-29 7 -49.5 15.5
t-43.5 23.5t-35 40t-12 58q0 75 55.5 113.5t132.5 38.5q55 0 105 -20t79 -56z" />
    <glyph glyph-name="u0456" unicode="&#x456;" horiz-adv-x="275" 
d="M210 653q0 -30 -21.5 -50.5t-51.5 -20.5q-29 0 -50.5 21t-21.5 50t21.5 50t50.5 21q30 0 51.5 -20.5t21.5 -50.5zM197 484v-484h-120v484h120z" />
    <glyph glyph-name="u0457" unicode="&#x457;" horiz-adv-x="275" 
d="M174 653q0 27 19.5 47t48.5 20t48.5 -20t19.5 -47q0 -28 -19.5 -48t-48.5 -20t-48.5 20t-19.5 48zM-32 653q0 27 19.5 47t48.5 20t49 -20t20 -47q0 -28 -20 -48t-49 -20t-48.5 20t-19.5 48zM197 484v-484h-120v484h120z" />
    <glyph glyph-name="u0458" unicode="&#x458;" horiz-adv-x="277" 
d="M212 653q0 -30 -21.5 -50.5t-51.5 -20.5q-29 0 -50.5 21t-21.5 50t21.5 50t50.5 21q30 0 51.5 -20.5t21.5 -50.5zM-32 -232l10 100q20 -6 39 -6q22 0 35 9t19 29t7.5 38t1.5 49v497h119v-502q0 -38 -2.5 -65t-12 -59t-27 -51.5t-49.5 -33t-77 -13.5q-36 0 -63 8z" />
    <glyph glyph-name="u0459" unicode="&#x459;" horiz-adv-x="743" 
d="M493 241h-78l55 -154h24q55 0 80 18.5t25 58.5q0 42 -24.5 59.5t-81.5 17.5zM518 0h-138l-115 341l-122 -341h-121l180 484h129l55 -156h134q105 0 152 -45.5t47 -117.5q0 -78 -53.5 -121.5t-147.5 -43.5z" />
    <glyph glyph-name="u045A" unicode="&#x45a;" horiz-adv-x="867" 
d="M531 223v-136h80q101 0 101 68t-104 68h-77zM74 484h120v-174h217v174h120v-174h102q102 0 150 -43t48 -112q0 -66 -51 -110.5t-143 -44.5h-226v216h-217v-216h-120v484z" />
    <glyph glyph-name="u045B" unicode="&#x45b;" horiz-adv-x="604" 
d="M201 415h2q18 36 58.5 59t90.5 23q91 0 135.5 -55.5t44.5 -143.5v-298h-120v265q0 132 -98 132q-49 0 -81 -38t-32 -103v-256h-120v572h-86v72h86v112h120v-112h166v-72h-166v-157z" />
    <glyph glyph-name="u045C" unicode="&#x45c;" horiz-adv-x="570" 
d="M462 699l-140 -144h-94l102 144h132zM194 484v-186q31 0 58 -6l139 192h132l-168 -227q70 -34 111.5 -96.5t66.5 -160.5h-132q-23 109 -72 154t-135 49v-203h-120v484h120z" />
    <glyph glyph-name="u045E" unicode="&#x45e;" horiz-adv-x="531" 
d="M273 130l-133 354h-133l204 -479l-26 -67q-16 -40 -34.5 -57.5t-52.5 -17.5q-24 0 -51 9l-13 -103q41 -9 76 -9q81 0 122.5 42.5t77.5 135.5l214 546h-128l-120 -354h-3zM96 681l64 33q12 -31 41 -50t64 -19t64 19t41 50l64 -33q-17 -43 -63 -73t-106 -30t-107.5 30
t-61.5 73z" />
    <glyph glyph-name="u045F" unicode="&#x45f;" horiz-adv-x="591" 
d="M517 0h-167v-139h-102v139h-174v484h120v-388h203v388h120v-484z" />
    <glyph glyph-name="u0490" unicode="&#x490;" horiz-adv-x="530" 
d="M197 598v-598h-126v708h328v143h98v-253h-300z" />
    <glyph glyph-name="u0491" unicode="&#x491;" horiz-adv-x="427" 
d="M193 389v-389h-119v484h223v150h104v-245h-208z" />
    <glyph glyph-name="palochkacyrillic" unicode="&#x4c0;" horiz-adv-x="282" 
d="M78 0v708h126v-708h-126z" />
    <glyph glyph-name="Aiecyrillic" unicode="&#x4d4;" horiz-adv-x="1046" 
d="M327 294h202v304h-15zM529 0v186h-268l-114 -186h-153l453 708h536v-110h-328v-180h310v-106h-310v-200h346v-112h-472z" />
    <glyph glyph-name="aiecyrillic" unicode="&#x4d5;" horiz-adv-x="887" 
d="M477 288h246q0 49 -29 82.5t-84 33.5q-54 0 -91.5 -32.5t-41.5 -83.5zM368 186v16h-27q-94 0 -138.5 -13t-44.5 -50q0 -31 24.5 -45.5t59.5 -14.5q62 0 94 28t32 79zM611 494q104 0 168 -67.5t64 -192.5q0 -21 -1 -32h-365q6 -52 45 -85t92 -33q83 0 127 63l79 -65
q-70 -96 -206 -96q-129 0 -190 96q-51 -94 -201 -94q-71 0 -128 37.5t-57 111.5q0 39 18 67t46.5 44t73.5 25t89 12t103 3v10q0 102 -109 102q-35 0 -71.5 -15.5t-60.5 -39.5l-61 73q79 76 202 76q112 0 163 -82q60 82 180 82z" />
    <glyph glyph-name="Aringbelow" unicode="&#x1e00;" horiz-adv-x="706" 
d="M240 270h220l-109 288zM-8 0l308 708h109l305 -708h-144l-66 162h-307l-64 -162h-141zM412 -176q0 25 -17 41t-42 16q-26 0 -42.5 -16.5t-16.5 -41.5q0 -24 17 -40t42 -16t42 16t17 41zM458 -176q0 -45 -30 -73.5t-75 -28.5t-75 28.5t-30 72.5t30 73.5t75 29.5t75 -28.5
t30 -73.5z" />
    <glyph glyph-name="aringbelow" unicode="&#x1e01;" horiz-adv-x="550" 
d="M368 202v17h-27q-183 0 -183 -80q0 -31 24.5 -45.5t59.5 -14.5q61 0 93.5 32.5t32.5 90.5zM370 0v61h-3q-18 -33 -58.5 -53t-90.5 -20q-69 0 -124.5 36.5t-55.5 112.5q0 41 20.5 71.5t52 47.5t77.5 27.5t87.5 13.5t92.5 3v12q0 43 -31 65.5t-79 22.5q-76 0 -131 -55
l-62 73q82 76 203 76q61 0 105 -17.5t66.5 -48t32.5 -64t10 -72.5v-292h-112zM319 -188q0 25 -17 41t-42 16q-26 0 -42.5 -16.5t-16.5 -41.5q0 -24 17 -40t42 -16t42 16t17 41zM365 -188q0 -45 -30 -73.5t-75 -28.5t-75 28.5t-30 72.5t30 73.5t75 29.5t75 -28.5t30 -73.5z
" />
    <glyph glyph-name="uni1E02" unicode="&#x1e02;" horiz-adv-x="647" 
d="M237 843q0 30 21.5 51t54.5 21t55.5 -20.5t22.5 -51.5t-22.5 -51.5t-55.5 -20.5t-54.5 21t-21.5 51zM204 312v-206h113q158 0 158 106q0 55 -36.5 77.5t-116.5 22.5h-118zM204 604v-184h112q63 0 96 25t33 71q0 47 -33.5 67.5t-106.5 20.5h-101zM78 0v708h276
q90 0 153.5 -44t63.5 -134q0 -58 -33 -97.5t-90 -57.5v-2q69 -9 111 -53t42 -114q0 -56 -22.5 -97.5t-61.5 -64t-85 -33.5t-99 -11h-255z" />
    <glyph glyph-name="uni1E03" unicode="&#x1e03;" horiz-adv-x="635" 
d="M244 843q0 30 21.5 51t54.5 21t55.5 -20.5t22.5 -51.5t-22.5 -51.5t-55.5 -20.5t-54.5 21t-21.5 51zM469 242q0 62 -36.5 108t-101.5 46q-63 0 -102 -48t-39 -108t39 -107t102 -47q65 0 101.5 47t36.5 109zM74 756h120v-337h3q56 75 161 75q102 0 167.5 -72.5
t65.5 -179.5q0 -108 -64.5 -182t-171.5 -74q-52 0 -96.5 22.5t-68.5 63.5h-2v-72h-114v756z" />
    <glyph glyph-name="Bdotbelow" unicode="&#x1e04;" horiz-adv-x="647" 
d="M204 312v-206h113q158 0 158 106q0 55 -36.5 77.5t-116.5 22.5h-118zM204 604v-184h112q63 0 96 25t33 71q0 47 -33.5 67.5t-106.5 20.5h-101zM78 0v708h276q90 0 153.5 -44t63.5 -134q0 -58 -33 -97.5t-90 -57.5v-2q69 -9 111 -53t42 -114q0 -56 -22.5 -97.5t-61.5 -64
t-85 -33.5t-99 -11h-255zM262 -146q0 30 21.5 51t54.5 21t55.5 -20.5t22.5 -51.5t-22.5 -51.5t-55.5 -20.5t-54.5 21t-21.5 51z" />
    <glyph glyph-name="bdotbelow" unicode="&#x1e05;" horiz-adv-x="635" 
d="M469 242q0 62 -36.5 108t-101.5 46q-63 0 -102 -48t-39 -108t39 -107t102 -47q65 0 101.5 47t36.5 109zM74 756h120v-337h3q56 75 161 75q102 0 167.5 -72.5t65.5 -179.5q0 -108 -64.5 -182t-171.5 -74q-52 0 -96.5 22.5t-68.5 63.5h-2v-72h-114v756zM255 -160
q0 30 21.5 51t54.5 21t55.5 -20.5t22.5 -51.5t-22.5 -51.5t-55.5 -20.5t-54.5 21t-21.5 51z" />
    <glyph glyph-name="Blinebelow" unicode="&#x1e06;" horiz-adv-x="647" 
d="M204 312v-206h113q158 0 158 106q0 55 -36.5 77.5t-116.5 22.5h-118zM204 604v-184h112q63 0 96 25t33 71q0 47 -33.5 67.5t-106.5 20.5h-101zM78 0v708h276q90 0 153.5 -44t63.5 -134q0 -58 -33 -97.5t-90 -57.5v-2q69 -9 111 -53t42 -114q0 -56 -22.5 -97.5t-61.5 -64
t-85 -33.5t-99 -11h-255zM499 -74v-78h-320v78h320z" />
    <glyph glyph-name="blinebelow" unicode="&#x1e07;" horiz-adv-x="635" 
d="M469 242q0 62 -36.5 108t-101.5 46q-63 0 -102 -48t-39 -108t39 -107t102 -47q65 0 101.5 47t36.5 109zM74 756h120v-337h3q56 75 161 75q102 0 167.5 -72.5t65.5 -179.5q0 -108 -64.5 -182t-171.5 -74q-52 0 -96.5 22.5t-68.5 63.5h-2v-72h-114v756zM492 -88v-78h-320
v78h320z" />
    <glyph glyph-name="Ccedillaacute" unicode="&#x1e08;" horiz-adv-x="696" 
d="M685 618l-96 -76q-26 36 -70.5 54.5t-90.5 18.5q-109 0 -177 -74t-68 -185q0 -117 65.5 -189t174.5 -72q112 0 172 82l101 -71q-92 -117 -258 -123l-32 -47q8 1 19 1q105 0 105 -83q0 -50 -41 -72t-95 -22q-61 0 -110 26l23 48q38 -20 82 -20q57 0 57 41q0 19 -16.5 27.5
t-36.5 8.5q-21 0 -39 -6l-23 25l51 74q-151 12 -244.5 114.5t-93.5 257.5q0 167 108.5 268.5t275.5 101.5q74 0 146 -28t111 -80zM253 801l99 144h136l-141 -144h-94z" />
    <glyph glyph-name="ccedillaacute" unicode="&#x1e09;" horiz-adv-x="488" 
d="M482 419l-82 -72q-14 20 -42 33.5t-57 13.5q-63 0 -97.5 -46t-34.5 -108t36 -108t100 -46q66 0 101 43l75 -76q-59 -62 -165 -67l-35 -50q8 1 19 1q105 0 105 -83q0 -50 -41 -72t-95 -22q-61 0 -110 26l23 48q38 -20 82 -20q57 0 57 41q0 19 -16.5 27.5t-36.5 8.5
q-21 0 -39 -6l-23 25l54 79q-95 12 -155.5 79.5t-60.5 171.5q0 113 74.5 183.5t182.5 70.5q54 0 103 -20t78 -55zM146 569l99 144h136l-141 -144h-94z" />
    <glyph glyph-name="uni1E0A" unicode="&#x1e0a;" horiz-adv-x="764" 
d="M267 843q0 30 21.5 51t54.5 21t55.5 -20.5t22.5 -51.5t-22.5 -51.5t-55.5 -20.5t-54.5 21t-21.5 51zM204 110h105q41 0 78.5 7t74.5 24.5t63.5 44t43 70t16.5 98.5q0 246 -276 246h-105v-490zM78 0v708h251q74 0 140 -18.5t124 -58t92.5 -111t34.5 -166.5
q0 -89 -34.5 -159t-92 -111.5t-125 -62.5t-139.5 -21h-251z" />
    <glyph glyph-name="uni1E0B" unicode="&#x1e0b;" horiz-adv-x="634" 
d="M224 843q0 30 21.5 51t54.5 21t55.5 -20.5t22.5 -51.5t-22.5 -51.5t-55.5 -20.5t-54.5 21t-21.5 51zM165 242q0 -62 36.5 -109t101.5 -47q63 0 102 47t39 107t-39 108t-102 48q-65 0 -101.5 -46t-36.5 -108zM560 756v-756h-114v72h-2q-24 -41 -68.5 -63.5t-96.5 -22.5
q-107 0 -171.5 74t-64.5 182q0 107 65.5 179.5t167.5 72.5q105 0 161 -75h3v337h120z" />
    <glyph glyph-name="Ddotbelow" unicode="&#x1e0c;" horiz-adv-x="764" 
d="M204 110h105q41 0 78.5 7t74.5 24.5t63.5 44t43 70t16.5 98.5q0 246 -276 246h-105v-490zM78 0v708h251q74 0 140 -18.5t124 -58t92.5 -111t34.5 -166.5q0 -89 -34.5 -159t-92 -111.5t-125 -62.5t-139.5 -21h-251zM322 -146q0 30 21.5 51t54.5 21t55.5 -20.5t22.5 -51.5
t-22.5 -51.5t-55.5 -20.5t-54.5 21t-21.5 51z" />
    <glyph glyph-name="ddotbelow" unicode="&#x1e0d;" horiz-adv-x="634" 
d="M165 242q0 -62 36.5 -109t101.5 -47q63 0 102 47t39 107t-39 108t-102 48q-65 0 -101.5 -46t-36.5 -108zM560 756v-756h-114v72h-2q-24 -41 -68.5 -63.5t-96.5 -22.5q-107 0 -171.5 74t-64.5 182q0 107 65.5 179.5t167.5 72.5q105 0 161 -75h3v337h120zM224 -160
q0 30 21.5 51t54.5 21t55.5 -20.5t22.5 -51.5t-22.5 -51.5t-55.5 -20.5t-54.5 21t-21.5 51z" />
    <glyph glyph-name="Dlinebelow" unicode="&#x1e0e;" horiz-adv-x="764" 
d="M204 110h105q41 0 78.5 7t74.5 24.5t63.5 44t43 70t16.5 98.5q0 246 -276 246h-105v-490zM78 0v708h251q74 0 140 -18.5t124 -58t92.5 -111t34.5 -166.5q0 -89 -34.5 -159t-92 -111.5t-125 -62.5t-139.5 -21h-251zM559 -74v-78h-320v78h320z" />
    <glyph glyph-name="dlinebelow" unicode="&#x1e0f;" horiz-adv-x="634" 
d="M165 242q0 -62 36.5 -109t101.5 -47q63 0 102 47t39 107t-39 108t-102 48q-65 0 -101.5 -46t-36.5 -108zM560 756v-756h-114v72h-2q-24 -41 -68.5 -63.5t-96.5 -22.5q-107 0 -171.5 74t-64.5 182q0 107 65.5 179.5t167.5 72.5q105 0 161 -75h3v337h120zM461 -88v-78h-320
v78h320z" />
    <glyph glyph-name="Dcommaaccent" unicode="&#x1e10;" horiz-adv-x="764" 
d="M204 110h105q41 0 78.5 7t74.5 24.5t63.5 44t43 70t16.5 98.5q0 246 -276 246h-105v-490zM78 0v708h251q74 0 140 -18.5t124 -58t92.5 -111t34.5 -166.5q0 -89 -34.5 -159t-92 -111.5t-125 -62.5t-139.5 -21h-251zM306 -338l70 264h116l-85 -264h-101z" />
    <glyph glyph-name="dcommaaccent" unicode="&#x1e11;" horiz-adv-x="634" 
d="M165 242q0 -62 36.5 -109t101.5 -47q63 0 102 47t39 107t-39 108t-102 48q-65 0 -101.5 -46t-36.5 -108zM560 756v-756h-114v72h-2q-24 -41 -68.5 -63.5t-96.5 -22.5q-107 0 -171.5 74t-64.5 182q0 107 65.5 179.5t167.5 72.5q105 0 161 -75h3v337h120zM208 -352l70 264
h116l-85 -264h-101z" />
    <glyph glyph-name="Dcircumflexbelow" unicode="&#x1e12;" horiz-adv-x="764" 
d="M204 110h105q41 0 78.5 7t74.5 24.5t63.5 44t43 70t16.5 98.5q0 246 -276 246h-105v-490zM78 0v708h251q74 0 140 -18.5t124 -58t92.5 -111t34.5 -166.5q0 -89 -34.5 -159t-92 -111.5t-125 -62.5t-139.5 -21h-251zM581 -218h-114l-69 90l-69 -90h-112l115 144h135z" />
    <glyph glyph-name="dcircumflexbelow" unicode="&#x1e13;" horiz-adv-x="634" 
d="M165 242q0 -62 36.5 -109t101.5 -47q63 0 102 47t39 107t-39 108t-102 48q-65 0 -101.5 -46t-36.5 -108zM560 756v-756h-114v72h-2q-24 -41 -68.5 -63.5t-96.5 -22.5q-107 0 -171.5 74t-64.5 182q0 107 65.5 179.5t167.5 72.5q105 0 161 -75h3v337h120zM483 -232h-114
l-69 90l-69 -90h-112l115 144h135z" />
    <glyph glyph-name="Emacrongrave" unicode="&#x1e14;" 
d="M78 0v708h469v-110h-343v-180h325v-106h-325v-200h361v-112h-487zM481 861v-78h-320v78h320zM340 1080l99 -144h-94l-141 144h136z" />
    <glyph glyph-name="emacrongrave" unicode="&#x1e15;" horiz-adv-x="574" 
d="M530 234q0 -21 -1 -32h-365q4 -50 44 -84t93 -34q84 0 127 62l80 -64q-71 -96 -206 -96q-113 0 -185.5 68t-72.5 183t72 186t182 71q104 0 168 -67.5t64 -192.5zM164 288h246q0 49 -29 82.5t-84 33.5q-54 0 -91.5 -32.5t-41.5 -83.5zM447 648v-78h-320v78h320zM306 866
l99 -144h-94l-141 144h136z" />
    <glyph glyph-name="Emacronacute" unicode="&#x1e16;" 
d="M78 0v708h469v-110h-343v-180h325v-106h-325v-200h361v-112h-487zM481 861v-78h-320v78h320zM204 936l99 144h136l-141 -144h-94z" />
    <glyph glyph-name="emacronacute" unicode="&#x1e17;" horiz-adv-x="574" 
d="M530 234q0 -21 -1 -32h-365q4 -50 44 -84t93 -34q84 0 127 62l80 -64q-71 -96 -206 -96q-113 0 -185.5 68t-72.5 183t72 186t182 71q104 0 168 -67.5t64 -192.5zM164 288h246q0 49 -29 82.5t-84 33.5q-54 0 -91.5 -32.5t-41.5 -83.5zM447 648v-78h-320v78h320zM170 722
l99 144h136l-141 -144h-94z" />
    <glyph glyph-name="Ecircumflexbelow" unicode="&#x1e18;" 
d="M78 0v708h469v-110h-343v-180h325v-106h-325v-200h361v-112h-487zM503 -218h-114l-69 90l-69 -90h-112l115 144h135z" />
    <glyph glyph-name="ecircumflexbelow" unicode="&#x1e19;" horiz-adv-x="574" 
d="M530 234q0 -21 -1 -32h-365q4 -50 44 -84t93 -34q84 0 127 62l80 -64q-71 -96 -206 -96q-113 0 -185.5 68t-72.5 183t72 186t182 71q104 0 168 -67.5t64 -192.5zM164 288h246q0 49 -29 82.5t-84 33.5q-54 0 -91.5 -32.5t-41.5 -83.5zM469 -232h-114l-69 90l-69 -90h-112
l115 144h135z" />
    <glyph glyph-name="Etildebelow" unicode="&#x1e1a;" 
d="M78 0v708h469v-110h-343v-180h325v-106h-325v-200h361v-112h-487zM203 -206h-66q22 127 112 127q36 0 79 -18q43 -19 65 -19q33 0 46 42h66q-22 -127 -112 -127q-37 0 -82 20q-39 18 -62 18q-33 0 -46 -43z" />
    <glyph glyph-name="etildebelow" unicode="&#x1e1b;" horiz-adv-x="574" 
d="M530 234q0 -21 -1 -32h-365q4 -50 44 -84t93 -34q84 0 127 62l80 -64q-71 -96 -206 -96q-113 0 -185.5 68t-72.5 183t72 186t182 71q104 0 168 -67.5t64 -192.5zM164 288h246q0 49 -29 82.5t-84 33.5q-54 0 -91.5 -32.5t-41.5 -83.5zM169 -220h-66q22 127 112 127
q36 0 79 -18q43 -19 65 -19q33 0 46 42h66q-22 -127 -112 -127q-37 0 -82 20q-39 18 -62 18q-33 0 -46 -43z" />
    <glyph glyph-name="Ecedillabreve" unicode="&#x1e1c;" 
d="M78 0v708h469v-110h-343v-180h325v-106h-325v-200h361v-112h-487zM151 927h67q12 -66 103 -66q46 0 69.5 13t34.5 53h66q-16 -144 -171 -144q-75 0 -119.5 35.5t-49.5 108.5zM365 0l-45 -64q8 1 19 1q105 0 105 -83q0 -50 -41 -72t-95 -22q-61 0 -110 26l23 48
q38 -20 82 -20q57 0 57 41q0 19 -16.5 27.5t-36.5 8.5q-21 0 -39 -6l-23 25l62 90h58z" />
    <glyph glyph-name="ecedillabreve" unicode="&#x1e1d;" horiz-adv-x="574" 
d="M530 234q0 -21 -1 -32h-365q4 -50 44 -84t93 -34q84 0 127 62l80 -64q-71 -96 -206 -96q-113 0 -185.5 68t-72.5 183t72 186t182 71q104 0 168 -67.5t64 -192.5zM164 288h246q0 49 -29 82.5t-84 33.5q-54 0 -91.5 -32.5t-41.5 -83.5zM117 713h67q12 -66 103 -66
q46 0 69.5 13t34.5 53h66q-16 -144 -171 -144q-75 0 -119.5 35.5t-49.5 108.5zM331 -13l-45 -64q8 1 19 1q105 0 105 -83q0 -50 -41 -72t-95 -22q-61 0 -110 26l23 48q38 -20 82 -20q57 0 57 41q0 19 -16.5 27.5t-36.5 8.5q-21 0 -39 -6l-23 25l62 90h58z" />
    <glyph glyph-name="uni1E1E" unicode="&#x1e1e;" horiz-adv-x="573" 
d="M229 843q0 30 21.5 51t54.5 21t55.5 -20.5t22.5 -51.5t-22.5 -51.5t-55.5 -20.5t-54.5 21t-21.5 51zM78 0v708h457v-110h-331v-194h312v-106h-312v-298h-126z" />
    <glyph glyph-name="uni1E1F" unicode="&#x1e1f;" horiz-adv-x="324" 
d="M88 883q0 30 21.5 51t54.5 21t55.5 -20.5t22.5 -51.5t-22.5 -51.5t-55.5 -20.5t-54.5 21t-21.5 51zM91 0v384h-91v96h91v71q0 97 45.5 157t148.5 60q34 0 61 -7l-8 -102q-23 7 -46 7q-81 0 -81 -108v-78h111v-96h-111v-384h-120z" />
    <glyph glyph-name="Gmacron" unicode="&#x1e20;" horiz-adv-x="773" 
d="M698 404v-367q-113 -55 -267 -55q-171 0 -279 104.5t-108 269.5q0 167 108.5 268.5t275.5 101.5q83 0 154 -24t115 -65l-87 -94q-28 31 -77 51.5t-104 20.5q-110 0 -178 -74t-68 -185q0 -115 68.5 -188t183.5 -73q82 0 141 25v180h-149v104h271zM531 879v-78h-320v78h320
z" />
    <glyph glyph-name="gmacron" unicode="&#x1e21;" horiz-adv-x="632" 
d="M304 396q-63 0 -100.5 -43.5t-37.5 -109.5q0 -60 38 -106t99 -46q64 0 103.5 45t39.5 107q0 65 -39 109t-103 44zM446 480h114v-437q0 -134 -67.5 -208.5t-203.5 -74.5q-62 0 -127.5 21t-110.5 58l69 93q73 -68 168 -68q152 0 152 165v35h-2q-54 -72 -157 -72
q-105 0 -171 72.5t-66 177.5q0 107 64.5 179.5t170.5 72.5q114 0 165 -86h2v72zM462 648v-78h-320v78h320z" />
    <glyph glyph-name="uni1E22" unicode="&#x1e22;" horiz-adv-x="739" 
d="M293 843q0 30 21.5 51t54.5 21t55.5 -20.5t22.5 -51.5t-22.5 -51.5t-55.5 -20.5t-54.5 21t-21.5 51zM78 0v708h126v-286h331v286h126v-708h-126v314h-331v-314h-126z" />
    <glyph glyph-name="uni1E23" unicode="&#x1e23;" horiz-adv-x="584" 
d="M244 843q0 30 21.5 51t54.5 21t55.5 -20.5t22.5 -51.5t-22.5 -51.5t-55.5 -20.5t-54.5 21t-21.5 51zM339 494q88 0 132.5 -56t44.5 -138v-300h-120v264q0 127 -89 127q-54 0 -83.5 -38.5t-29.5 -90.5v-262h-120v756h120v-343h2q16 33 54.5 57t88.5 24z" />
    <glyph glyph-name="Hdotbelow" unicode="&#x1e24;" horiz-adv-x="739" 
d="M78 0v708h126v-286h331v286h126v-708h-126v314h-331v-314h-126zM292 -146q0 30 21.5 51t54.5 21t55.5 -20.5t22.5 -51.5t-22.5 -51.5t-55.5 -20.5t-54.5 21t-21.5 51z" />
    <glyph glyph-name="hdotbelow" unicode="&#x1e25;" horiz-adv-x="584" 
d="M339 494q88 0 132.5 -56t44.5 -138v-300h-120v264q0 127 -89 127q-54 0 -83.5 -38.5t-29.5 -90.5v-262h-120v756h120v-343h2q16 33 54.5 57t88.5 24zM218 -146q0 30 21.5 51t54.5 21t55.5 -20.5t22.5 -51.5t-22.5 -51.5t-55.5 -20.5t-54.5 21t-21.5 51z" />
    <glyph glyph-name="Hdieresis" unicode="&#x1e26;" horiz-adv-x="739" 
d="M78 0v708h126v-286h331v286h126v-708h-126v314h-331v-314h-126zM395 853q0 28 20.5 49t50.5 21q31 0 52 -20t21 -50t-21 -50t-52 -20q-30 0 -50.5 21t-20.5 49zM199 853q0 28 20.5 49t50.5 21q31 0 52 -20t21 -50t-21 -50t-52 -20q-30 0 -50.5 21t-20.5 49z" />
    <glyph glyph-name="hdieresis" unicode="&#x1e27;" horiz-adv-x="584" 
d="M339 494q88 0 132.5 -56t44.5 -138v-300h-120v264q0 127 -89 127q-54 0 -83.5 -38.5t-29.5 -90.5v-262h-120v756h120v-343h2q16 33 54.5 57t88.5 24zM321 901q0 28 20.5 49t50.5 21q31 0 52 -20t21 -50t-21 -50t-52 -20q-30 0 -50.5 21t-20.5 49zM125 901q0 28 20.5 49
t50.5 21q31 0 52 -20t21 -50t-21 -50t-52 -20q-30 0 -50.5 21t-20.5 49z" />
    <glyph glyph-name="Hcedilla" unicode="&#x1e28;" horiz-adv-x="739" 
d="M78 0v708h126v-286h331v286h126v-708h-126v314h-331v-314h-126zM178 0l-45 -64q8 1 19 1q105 0 105 -83q0 -50 -41 -72t-95 -22q-61 0 -110 26l23 48q38 -20 82 -20q57 0 57 41q0 19 -16.5 27.5t-36.5 8.5q-21 0 -39 -6l-23 25l62 90h58z" />
    <glyph glyph-name="hcedilla" unicode="&#x1e29;" horiz-adv-x="584" 
d="M339 494q88 0 132.5 -56t44.5 -138v-300h-120v264q0 127 -89 127q-54 0 -83.5 -38.5t-29.5 -90.5v-262h-120v756h120v-343h2q16 33 54.5 57t88.5 24zM178 0l-45 -64q8 1 19 1q105 0 105 -83q0 -50 -41 -72t-95 -22q-61 0 -110 26l23 48q38 -20 82 -20q57 0 57 41
q0 19 -16.5 27.5t-36.5 8.5q-21 0 -39 -6l-23 25l62 90h58z" />
    <glyph glyph-name="Hbrevebelow" unicode="&#x1e2a;" horiz-adv-x="739" 
d="M78 0v708h126v-286h331v286h126v-708h-126v314h-331v-314h-126zM199 -74h67q12 -66 103 -66q46 0 69.5 13t34.5 53h66q-16 -144 -171 -144q-75 0 -119.5 35.5t-49.5 108.5z" />
    <glyph glyph-name="hbrevebelow" unicode="&#x1e2b;" horiz-adv-x="584" 
d="M339 494q88 0 132.5 -56t44.5 -138v-300h-120v264q0 127 -89 127q-54 0 -83.5 -38.5t-29.5 -90.5v-262h-120v756h120v-343h2q16 33 54.5 57t88.5 24zM125 -74h67q12 -66 103 -66q46 0 69.5 13t34.5 53h66q-16 -144 -171 -144q-75 0 -119.5 35.5t-49.5 108.5z" />
    <glyph glyph-name="Itildebelow" unicode="&#x1e2c;" horiz-adv-x="282" 
d="M78 0v708h126v-708h-126zM23 -206h-66q22 127 112 127q36 0 79 -18q43 -19 65 -19q33 0 46 42h66q-22 -127 -112 -127q-37 0 -82 20q-39 18 -62 18q-33 0 -46 -43z" />
    <glyph glyph-name="itildebelow" unicode="&#x1e2d;" horiz-adv-x="268" 
d="M57 643q0 30 21.5 51t54.5 21t55.5 -20.5t22.5 -51.5t-22.5 -51.5t-55.5 -20.5t-54.5 21t-21.5 51zM74 0v480h120v-480h-120zM16 -206h-66q22 127 112 127q36 0 79 -18q43 -19 65 -19q33 0 46 42h66q-22 -127 -112 -127q-37 0 -82 20q-39 18 -62 18q-33 0 -46 -43z" />
    <glyph glyph-name="Idieresisacute" unicode="&#x1e2e;" horiz-adv-x="282" 
d="M78 0v708h126v-708h-126zM167 853q0 28 20.5 49t50.5 21q31 0 52 -20t21 -50t-21 -50t-52 -20q-30 0 -50.5 21t-20.5 49zM-29 853q0 28 20.5 49t50.5 21q31 0 52 -20t21 -50t-21 -50t-52 -20q-30 0 -50.5 21t-20.5 49zM25 998l99 144h136l-141 -144h-94z" />
    <glyph glyph-name="idieresisacute" unicode="&#x1e2f;" horiz-adv-x="268" 
d="M74 0v480h120v-480h-120zM160 626q0 28 20.5 49t50.5 21q31 0 52 -20t21 -50t-21 -50t-52 -20q-30 0 -50.5 21t-20.5 49zM-36 626q0 28 20.5 49t50.5 21q31 0 52 -20t21 -50t-21 -50t-52 -20q-30 0 -50.5 21t-20.5 49zM18 770l99 144h136l-141 -144h-94z" />
    <glyph glyph-name="Kacute" unicode="&#x1e30;" horiz-adv-x="689" 
d="M78 0v708h126v-306h3l296 306h170l-331 -327l353 -381h-177l-311 355h-3v-355h-126zM269 783l99 144h136l-141 -144h-94z" />
    <glyph glyph-name="kacute" unicode="&#x1e31;" horiz-adv-x="543" 
d="M74 0v756h120v-478h3l182 202h154l-208 -217l221 -263h-159l-190 246h-3v-246h-120zM193 831l99 144h136l-141 -144h-94z" />
    <glyph glyph-name="Kdotbelow" unicode="&#x1e32;" horiz-adv-x="689" 
d="M78 0v708h126v-306h3l296 306h170l-331 -327l353 -381h-177l-311 355h-3v-355h-126zM309 -146q0 30 21.5 51t54.5 21t55.5 -20.5t22.5 -51.5t-22.5 -51.5t-55.5 -20.5t-54.5 21t-21.5 51z" />
    <glyph glyph-name="kdotbelow" unicode="&#x1e33;" horiz-adv-x="543" 
d="M74 0v756h120v-478h3l182 202h154l-208 -217l221 -263h-159l-190 246h-3v-246h-120zM233 -146q0 30 21.5 51t54.5 21t55.5 -20.5t22.5 -51.5t-22.5 -51.5t-55.5 -20.5t-54.5 21t-21.5 51z" />
    <glyph glyph-name="Klinebelow" unicode="&#x1e34;" horiz-adv-x="689" 
d="M78 0v708h126v-306h3l296 306h170l-331 -327l353 -381h-177l-311 355h-3v-355h-126zM546 -74v-78h-320v78h320z" />
    <glyph glyph-name="klinebelow" unicode="&#x1e35;" horiz-adv-x="543" 
d="M74 0v756h120v-478h3l182 202h154l-208 -217l221 -263h-159l-190 246h-3v-246h-120zM470 -74v-78h-320v78h320z" />
    <glyph glyph-name="Ldotbelow" unicode="&#x1e36;" horiz-adv-x="511" 
d="M78 0v708h126v-596h301v-112h-427zM214 -146q0 30 21.5 51t54.5 21t55.5 -20.5t22.5 -51.5t-22.5 -51.5t-55.5 -20.5t-54.5 21t-21.5 51z" />
    <glyph glyph-name="ldotbelow" unicode="&#x1e37;" horiz-adv-x="268" 
d="M74 0v756h120v-756h-120zM57 -146q0 30 21.5 51t54.5 21t55.5 -20.5t22.5 -51.5t-22.5 -51.5t-55.5 -20.5t-54.5 21t-21.5 51z" />
    <glyph glyph-name="Ldotbelowmacron" unicode="&#x1e38;" horiz-adv-x="511" 
d="M78 0v708h126v-596h301v-112h-427zM214 -146q0 30 21.5 51t54.5 21t55.5 -20.5t22.5 -51.5t-22.5 -51.5t-55.5 -20.5t-54.5 21t-21.5 51zM451 861v-78h-320v78h320z" />
    <glyph glyph-name="ldotbelowmacron" unicode="&#x1e39;" horiz-adv-x="268" 
d="M74 0v756h120v-756h-120zM57 -146q0 30 21.5 51t54.5 21t55.5 -20.5t22.5 -51.5t-22.5 -51.5t-55.5 -20.5t-54.5 21t-21.5 51zM294 909v-78h-320v78h320z" />
    <glyph glyph-name="Llinebelow" unicode="&#x1e3a;" horiz-adv-x="511" 
d="M78 0v708h126v-596h301v-112h-427zM451 -74v-78h-320v78h320z" />
    <glyph glyph-name="llinebelow" unicode="&#x1e3b;" horiz-adv-x="268" 
d="M74 0v756h120v-756h-120zM294 -74v-78h-320v78h320z" />
    <glyph glyph-name="Lcircumflexbelow" unicode="&#x1e3c;" horiz-adv-x="511" 
d="M78 0v708h126v-596h301v-112h-427zM473 -218h-114l-69 90l-69 -90h-112l115 144h135z" />
    <glyph glyph-name="lcircumflexbelow" unicode="&#x1e3d;" horiz-adv-x="268" 
d="M74 0v756h120v-756h-120zM316 -218h-114l-69 90l-69 -90h-112l115 144h135z" />
    <glyph glyph-name="Macute" unicode="&#x1e3e;" horiz-adv-x="920" 
d="M78 0v708h197l184 -503h3l182 503h198v-708h-125v569h-2l-215 -569h-88l-212 569h-2v-569h-120zM343 783l99 144h136l-141 -144h-94z" />
    <glyph glyph-name="macute" unicode="&#x1e3f;" horiz-adv-x="890" 
d="M645 494q88 0 132.5 -56t44.5 -138v-300h-120v266q0 128 -90 128q-52 0 -79 -40t-27 -92v-262h-120v290q0 47 -22.5 75.5t-66.5 28.5q-51 0 -78 -38.5t-27 -91.5v-264h-120v480h114v-77h2q17 39 56 65t93 26q105 0 150 -91q49 91 158 91zM330 569l99 144h136l-141 -144
h-94z" />
    <glyph glyph-name="Mdotaccent" unicode="&#x1e40;" horiz-adv-x="920" 
d="M78 0v708h197l184 -503h3l182 503h198v-708h-125v569h-2l-215 -569h-88l-212 569h-2v-569h-120zM383 855q0 30 21.5 51t54.5 21t55.5 -20.5t22.5 -51.5t-22.5 -51.5t-55.5 -20.5t-54.5 21t-21.5 51z" />
    <glyph glyph-name="mdotaccent" unicode="&#x1e41;" horiz-adv-x="890" 
d="M645 494q88 0 132.5 -56t44.5 -138v-300h-120v266q0 128 -90 128q-52 0 -79 -40t-27 -92v-262h-120v290q0 47 -22.5 75.5t-66.5 28.5q-51 0 -78 -38.5t-27 -91.5v-264h-120v480h114v-77h2q17 39 56 65t93 26q105 0 150 -91q49 91 158 91zM370 642q0 30 21.5 51t54.5 21
t55.5 -20.5t22.5 -51.5t-22.5 -51.5t-55.5 -20.5t-54.5 21t-21.5 51z" />
    <glyph glyph-name="Mdotbelow" unicode="&#x1e42;" horiz-adv-x="920" 
d="M78 0v708h197l184 -503h3l182 503h198v-708h-125v569h-2l-215 -569h-88l-212 569h-2v-569h-120zM383 -146q0 30 21.5 51t54.5 21t55.5 -20.5t22.5 -51.5t-22.5 -51.5t-55.5 -20.5t-54.5 21t-21.5 51z" />
    <glyph glyph-name="mdotbelow" unicode="&#x1e43;" horiz-adv-x="890" 
d="M645 494q88 0 132.5 -56t44.5 -138v-300h-120v266q0 128 -90 128q-52 0 -79 -40t-27 -92v-262h-120v290q0 47 -22.5 75.5t-66.5 28.5q-51 0 -78 -38.5t-27 -91.5v-264h-120v480h114v-77h2q17 39 56 65t93 26q105 0 150 -91q49 91 158 91zM370 -146q0 30 21.5 51t54.5 21
t55.5 -20.5t22.5 -51.5t-22.5 -51.5t-55.5 -20.5t-54.5 21t-21.5 51z" />
    <glyph glyph-name="Ndotaccent" unicode="&#x1e44;" horiz-adv-x="780" 
d="M78 0v708h167l329 -530h2v530h126v-708h-160l-336 547h-2v-547h-126zM313 855q0 30 21.5 51t54.5 21t55.5 -20.5t22.5 -51.5t-22.5 -51.5t-55.5 -20.5t-54.5 21t-21.5 51z" />
    <glyph glyph-name="ndotaccent" unicode="&#x1e45;" horiz-adv-x="582" 
d="M72 0v480h114v-77h2q17 38 57 64.5t92 26.5q88 0 132.5 -56t44.5 -138v-300h-120v266q0 128 -90 128q-54 0 -83 -38.5t-29 -91.5v-264h-120zM216 642q0 30 21.5 51t54.5 21t55.5 -20.5t22.5 -51.5t-22.5 -51.5t-55.5 -20.5t-54.5 21t-21.5 51z" />
    <glyph glyph-name="Ndotbelow" unicode="&#x1e46;" horiz-adv-x="780" 
d="M78 0v708h167l329 -530h2v530h126v-708h-160l-336 547h-2v-547h-126zM313 -146q0 30 21.5 51t54.5 21t55.5 -20.5t22.5 -51.5t-22.5 -51.5t-55.5 -20.5t-54.5 21t-21.5 51z" />
    <glyph glyph-name="ndotbelow" unicode="&#x1e47;" horiz-adv-x="582" 
d="M72 0v480h114v-77h2q17 38 57 64.5t92 26.5q88 0 132.5 -56t44.5 -138v-300h-120v266q0 128 -90 128q-54 0 -83 -38.5t-29 -91.5v-264h-120zM216 -146q0 30 21.5 51t54.5 21t55.5 -20.5t22.5 -51.5t-22.5 -51.5t-55.5 -20.5t-54.5 21t-21.5 51z" />
    <glyph glyph-name="Nlinebelow" unicode="&#x1e48;" horiz-adv-x="780" 
d="M78 0v708h167l329 -530h2v530h126v-708h-160l-336 547h-2v-547h-126zM550 -74v-78h-320v78h320z" />
    <glyph glyph-name="nlinebelow" unicode="&#x1e49;" horiz-adv-x="582" 
d="M72 0v480h114v-77h2q17 38 57 64.5t92 26.5q88 0 132.5 -56t44.5 -138v-300h-120v266q0 128 -90 128q-54 0 -83 -38.5t-29 -91.5v-264h-120zM453 -74v-78h-320v78h320z" />
    <glyph glyph-name="Ncircumflexbelow" unicode="&#x1e4a;" horiz-adv-x="780" 
d="M78 0v708h167l329 -530h2v530h126v-708h-160l-336 547h-2v-547h-126zM572 -218h-114l-69 90l-69 -90h-112l115 144h135z" />
    <glyph glyph-name="ncircumflexbelow" unicode="&#x1e4b;" horiz-adv-x="582" 
d="M72 0v480h114v-77h2q17 38 57 64.5t92 26.5q88 0 132.5 -56t44.5 -138v-300h-120v266q0 128 -90 128q-54 0 -83 -38.5t-29 -91.5v-264h-120zM475 -218h-114l-69 90l-69 -90h-112l115 144h135z" />
    <glyph glyph-name="Otildeacute" unicode="&#x1e4c;" horiz-adv-x="849" 
d="M181 356q0 -114 68 -187.5t175 -73.5q108 0 176 73.5t68 187.5q0 111 -67.5 185t-176.5 74q-108 0 -175.5 -74t-67.5 -185zM44 356q0 168 106 269t273 101q168 0 275 -101t107 -269q0 -164 -108 -269t-274 -105q-165 0 -272 105t-107 269zM306 801h-66q22 127 112 127
q36 0 79 -18q43 -19 65 -19q33 0 46 42h66q-22 -127 -112 -127q-37 0 -82 20q-39 18 -62 18q-33 0 -46 -43zM307 1008l99 144h136l-141 -144h-94z" />
    <glyph glyph-name="otildeacute" unicode="&#x1e4d;" 
d="M166 242q0 -62 36 -109t103 -47t103 47t36 109t-36 108t-103 46t-103 -46t-36 -108zM44 242q0 112 75 182t186 70t186 -70t75 -182t-75.5 -184t-185.5 -72t-185.5 72t-75.5 184zM187 569h-66q22 127 112 127q36 0 79 -18q43 -19 65 -19q33 0 46 42h66q-22 -127 -112 -127
q-37 0 -82 20q-39 18 -62 18q-33 0 -46 -43zM188 776l99 144h136l-141 -144h-94z" />
    <glyph glyph-name="Otildedieresis" unicode="&#x1e4e;" horiz-adv-x="849" 
d="M181 356q0 -114 68 -187.5t175 -73.5q108 0 176 73.5t68 187.5q0 111 -67.5 185t-176.5 74q-108 0 -175.5 -74t-67.5 -185zM44 356q0 168 106 269t273 101q168 0 275 -101t107 -269q0 -164 -108 -269t-274 -105q-165 0 -272 105t-107 269zM306 801h-66q22 127 112 127
q36 0 79 -18q43 -19 65 -19q33 0 46 42h66q-22 -127 -112 -127q-37 0 -82 20q-39 18 -62 18q-33 0 -46 -43zM450 1078q0 28 20.5 49t50.5 21q31 0 52 -20t21 -50t-21 -50t-52 -20q-30 0 -50.5 21t-20.5 49zM254 1078q0 28 20.5 49t50.5 21q31 0 52 -20t21 -50t-21 -50
t-52 -20q-30 0 -50.5 21t-20.5 49z" />
    <glyph glyph-name="otildedieresis" unicode="&#x1e4f;" 
d="M166 242q0 -62 36 -109t103 -47t103 47t36 109t-36 108t-103 46t-103 -46t-36 -108zM44 242q0 112 75 182t186 70t186 -70t75 -182t-75.5 -184t-185.5 -72t-185.5 72t-75.5 184zM187 569h-66q22 127 112 127q36 0 79 -18q43 -19 65 -19q33 0 46 42h66q-22 -127 -112 -127
q-37 0 -82 20q-39 18 -62 18q-33 0 -46 -43zM331 846q0 28 20.5 49t50.5 21q31 0 52 -20t21 -50t-21 -50t-52 -20q-30 0 -50.5 21t-20.5 49zM135 846q0 28 20.5 49t50.5 21q31 0 52 -20t21 -50t-21 -50t-52 -20q-30 0 -50.5 21t-20.5 49z" />
    <glyph glyph-name="Omacrongrave" unicode="&#x1e50;" horiz-adv-x="849" 
d="M181 356q0 -114 68 -187.5t175 -73.5q108 0 176 73.5t68 187.5q0 111 -67.5 185t-176.5 74q-108 0 -175.5 -74t-67.5 -185zM44 356q0 168 106 269t273 101q168 0 275 -101t107 -269q0 -164 -108 -269t-274 -105q-165 0 -272 105t-107 269zM584 879v-78h-320v78h320z
M443 1098l99 -144h-94l-141 144h136z" />
    <glyph glyph-name="omacrongrave" unicode="&#x1e51;" 
d="M166 242q0 -62 36 -109t103 -47t103 47t36 109t-36 108t-103 46t-103 -46t-36 -108zM44 242q0 112 75 182t186 70t186 -70t75 -182t-75.5 -184t-185.5 -72t-185.5 72t-75.5 184zM465 648v-78h-320v78h320zM324 866l99 -144h-94l-141 144h136z" />
    <glyph glyph-name="Omacronacute" unicode="&#x1e52;" horiz-adv-x="849" 
d="M181 356q0 -114 68 -187.5t175 -73.5q108 0 176 73.5t68 187.5q0 111 -67.5 185t-176.5 74q-108 0 -175.5 -74t-67.5 -185zM44 356q0 168 106 269t273 101q168 0 275 -101t107 -269q0 -164 -108 -269t-274 -105q-165 0 -272 105t-107 269zM584 879v-78h-320v78h320z
M307 954l99 144h136l-141 -144h-94z" />
    <glyph glyph-name="omacronacute" unicode="&#x1e53;" 
d="M166 242q0 -62 36 -109t103 -47t103 47t36 109t-36 108t-103 46t-103 -46t-36 -108zM44 242q0 112 75 182t186 70t186 -70t75 -182t-75.5 -184t-185.5 -72t-185.5 72t-75.5 184zM465 648v-78h-320v78h320zM188 722l99 144h136l-141 -144h-94z" />
    <glyph glyph-name="Pacute" unicode="&#x1e54;" 
d="M204 399h88q157 0 157 104q0 57 -42 78t-111 21h-92v-203zM78 0v708h231q267 0 267 -205q0 -75 -39 -123.5t-98 -67.5t-138 -19h-97v-293h-126zM210 783l99 144h136l-141 -144h-94z" />
    <glyph glyph-name="pacute" unicode="&#x1e55;" horiz-adv-x="633" 
d="M467 242q0 62 -36.5 108t-101.5 46q-63 0 -102 -48t-39 -108t39 -107t102 -47q65 0 101.5 47t36.5 109zM72 480h115v-67h3q21 33 63.5 57t102.5 24q102 0 167.5 -72.5t65.5 -179.5q0 -108 -64.5 -182t-171.5 -74q-51 0 -93.5 21t-65.5 57h-2v-304h-120v720zM213 569
l99 144h136l-141 -144h-94z" />
    <glyph glyph-name="uni1E56" unicode="&#x1e56;" 
d="M231 843q0 30 21.5 51t54.5 21t55.5 -20.5t22.5 -51.5t-22.5 -51.5t-55.5 -20.5t-54.5 21t-21.5 51zM204 399h88q157 0 157 104q0 57 -42 78t-111 21h-92v-203zM78 0v708h231q267 0 267 -205q0 -75 -39 -123.5t-98 -67.5t-138 -19h-97v-293h-126z" />
    <glyph glyph-name="uni1E57" unicode="&#x1e57;" horiz-adv-x="633" 
d="M243 643q0 30 21.5 51t54.5 21t55.5 -20.5t22.5 -51.5t-22.5 -51.5t-55.5 -20.5t-54.5 21t-21.5 51zM467 242q0 62 -36.5 108t-101.5 46q-63 0 -102 -48t-39 -108t39 -107t102 -47q65 0 101.5 47t36.5 109zM72 480h115v-67h3q21 33 63.5 57t102.5 24q102 0 167.5 -72.5
t65.5 -179.5q0 -108 -64.5 -182t-171.5 -74q-51 0 -93.5 21t-65.5 57h-2v-304h-120v720z" />
    <glyph glyph-name="Rdotaccent" unicode="&#x1e58;" horiz-adv-x="629" 
d="M204 403h103q152 0 152 103q0 52 -41 74t-100 22h-114v-199zM78 0v708h246q71 0 127.5 -18.5t95 -66t38.5 -118.5q0 -76 -42.5 -124.5t-119.5 -66.5l189 -314h-152l-164 300h-92v-300h-126zM268 855q0 30 21.5 51t54.5 21t55.5 -20.5t22.5 -51.5t-22.5 -51.5t-55.5 -20.5
t-54.5 21t-21.5 51z" />
    <glyph glyph-name="rdotaccent" unicode="&#x1e59;" horiz-adv-x="364" 
d="M72 0v480h115v-80h2q21 43 57 68.5t83 25.5q21 0 29 -3v-110q-20 5 -37 5q-38 0 -65.5 -14.5t-40 -37t-18 -41.5t-5.5 -36v-257h-120zM138 642q0 30 21.5 51t54.5 21t55.5 -20.5t22.5 -51.5t-22.5 -51.5t-55.5 -20.5t-54.5 21t-21.5 51z" />
    <glyph glyph-name="Rdotbelow" unicode="&#x1e5a;" horiz-adv-x="629" 
d="M204 403h103q152 0 152 103q0 52 -41 74t-100 22h-114v-199zM78 0v708h246q71 0 127.5 -18.5t95 -66t38.5 -118.5q0 -76 -42.5 -124.5t-119.5 -66.5l189 -314h-152l-164 300h-92v-300h-126zM268 -146q0 30 21.5 51t54.5 21t55.5 -20.5t22.5 -51.5t-22.5 -51.5
t-55.5 -20.5t-54.5 21t-21.5 51z" />
    <glyph glyph-name="rdotbelow" unicode="&#x1e5b;" horiz-adv-x="364" 
d="M72 0v480h115v-80h2q21 43 57 68.5t83 25.5q21 0 29 -3v-110q-20 5 -37 5q-38 0 -65.5 -14.5t-40 -37t-18 -41.5t-5.5 -36v-257h-120zM138 -146q0 30 21.5 51t54.5 21t55.5 -20.5t22.5 -51.5t-22.5 -51.5t-55.5 -20.5t-54.5 21t-21.5 51z" />
    <glyph glyph-name="Rdotbelowmacron" unicode="&#x1e5c;" horiz-adv-x="629" 
d="M204 403h103q152 0 152 103q0 52 -41 74t-100 22h-114v-199zM78 0v708h246q71 0 127.5 -18.5t95 -66t38.5 -118.5q0 -76 -42.5 -124.5t-119.5 -66.5l189 -314h-152l-164 300h-92v-300h-126zM505 861v-78h-320v78h320zM268 -146q0 30 21.5 51t54.5 21t55.5 -20.5
t22.5 -51.5t-22.5 -51.5t-55.5 -20.5t-54.5 21t-21.5 51z" />
    <glyph glyph-name="rdotbelowmacron" unicode="&#x1e5d;" horiz-adv-x="364" 
d="M72 0v480h115v-80h2q21 43 57 68.5t83 25.5q21 0 29 -3v-110q-20 5 -37 5q-38 0 -65.5 -14.5t-40 -37t-18 -41.5t-5.5 -36v-257h-120zM375 648v-78h-320v78h320zM138 -146q0 30 21.5 51t54.5 21t55.5 -20.5t22.5 -51.5t-22.5 -51.5t-55.5 -20.5t-54.5 21t-21.5 51z" />
    <glyph glyph-name="Rlinebelow" unicode="&#x1e5e;" horiz-adv-x="629" 
d="M204 403h103q152 0 152 103q0 52 -41 74t-100 22h-114v-199zM78 0v708h246q71 0 127.5 -18.5t95 -66t38.5 -118.5q0 -76 -42.5 -124.5t-119.5 -66.5l189 -314h-152l-164 300h-92v-300h-126zM505 -74v-78h-320v78h320z" />
    <glyph glyph-name="rlinebelow" unicode="&#x1e5f;" horiz-adv-x="364" 
d="M72 0v480h115v-80h2q21 43 57 68.5t83 25.5q21 0 29 -3v-110q-20 5 -37 5q-38 0 -65.5 -14.5t-40 -37t-18 -41.5t-5.5 -36v-257h-120zM375 -74v-78h-320v78h320z" />
    <glyph glyph-name="uni1E60" unicode="&#x1e60;" horiz-adv-x="574" 
d="M235 843q0 30 21.5 51t54.5 21t55.5 -20.5t22.5 -51.5t-22.5 -51.5t-55.5 -20.5t-54.5 21t-21.5 51zM521 650l-82 -90q-20 26 -56.5 43.5t-73.5 17.5q-49 0 -87 -24.5t-38 -72.5q0 -24 8.5 -40.5t30 -29.5t40.5 -20t56 -19q36 -11 57.5 -19t53.5 -25.5t50.5 -37.5
t32 -52.5t13.5 -72.5q0 -109 -73.5 -167.5t-184.5 -58.5q-71 0 -136.5 26t-106.5 75l90 84q26 -35 69 -56.5t86 -21.5q51 0 89.5 26t38.5 79q0 25 -10.5 44t-33.5 32t-44.5 21.5t-58.5 20.5q-11 3 -16 5q-39 13 -65 25.5t-55 35t-44 58t-15 82.5q0 68 39 116.5t96 70
t124 21.5q124 0 206 -76z" />
    <glyph glyph-name="uni1E61" unicode="&#x1e61;" horiz-adv-x="444" 
d="M152 643q0 30 21.5 51t54.5 21t55.5 -20.5t22.5 -51.5t-22.5 -51.5t-55.5 -20.5t-54.5 21t-21.5 51zM413 421l-78 -69q-17 22 -45 37t-60 15t-54.5 -13t-22.5 -39t22.5 -37.5t81.5 -25.5q155 -34 155 -143q0 -82 -56.5 -121t-143.5 -39q-57 0 -109.5 20.5t-87.5 58.5
l79 74q46 -60 123 -60q31 0 54 14t23 43q0 28 -24.5 41.5t-85.5 27.5q-65 14 -103.5 44.5t-38.5 91.5q0 75 56 114t135 39q54 0 103 -19t77 -54z" />
    <glyph glyph-name="Sdotbelow" unicode="&#x1e62;" horiz-adv-x="574" 
d="M521 650l-82 -90q-20 26 -56.5 43.5t-73.5 17.5q-49 0 -87 -24.5t-38 -72.5q0 -24 8.5 -40.5t30 -29.5t40.5 -20t56 -19q36 -11 57.5 -19t53.5 -25.5t50.5 -37.5t32 -52.5t13.5 -72.5q0 -109 -73.5 -167.5t-184.5 -58.5q-71 0 -136.5 26t-106.5 75l90 84q26 -35 69 -56.5
t86 -21.5q51 0 89.5 26t38.5 79q0 25 -10.5 44t-33.5 32t-44.5 21.5t-58.5 20.5q-11 3 -16 5q-39 13 -65 25.5t-55 35t-44 58t-15 82.5q0 68 39 116.5t96 70t124 21.5q124 0 206 -76zM198 -164q0 30 21.5 51t54.5 21t55.5 -20.5t22.5 -51.5t-22.5 -51.5t-55.5 -20.5
t-54.5 21t-21.5 51z" />
    </font>
</defs>
</svg>
