<?xml version="1.0" standalone="no"?>
<!DOCTYPE svg PUBLIC "-//W3C//DTD SVG 1.1//EN" "http://www.w3.org/Graphics/SVG/1.1/DTD/svg11.dtd" >
<svg>
<metadata>
Created by FontForge 20090622 at Tue Oct  6 21:23:19 2020
 By deploy user
Copyright &#195;&#130;&#194;&#169; 2004 - 2007 Linotype GmbH, www.linotype.com. All rights reserved.
</metadata>
<defs>
<font id="AvenirNextLTPro-Heavy" horiz-adv-x="360" >
  <font-face 
    font-family="Avenir Next LT Pro Heavy"
    font-weight="900"
    font-stretch="normal"
    units-per-em="1000"
    panose-1="0 0 0 0 0 0 0 0 0 0"
    ascent="800"
    descent="-200"
    x-height="526"
    cap-height="708"
    bbox="-163 -250 1237 971"
    underline-thickness="50"
    underline-position="-50"
    unicode-range="U+000D-U+FB02"
  />
<missing-glyph horiz-adv-x="512" 
d="M0 718h512v-718h-512v718zM50 50h412v617h-412v-617zM271 234h-46l-2 17q0 56 13 81q17 33 46 59q30 29 40 46.5t10 36.5q0 36 -22.5 60.5t-53.5 24.5q-71 0 -82 -95l-50 8q6 69 42 103t93 34q55 0 89.5 -36t34.5 -95q0 -34 -13 -60t-50 -60q-37 -33 -43 -52
q-6 -20 -6 -72zM278 117h-56v67h56v-67z" />
    <glyph glyph-name=".notdef" horiz-adv-x="512" 
d="M0 718h512v-718h-512v718zM50 50h412v617h-412v-617zM271 234h-46l-2 17q0 56 13 81q17 33 46 59q30 29 40 46.5t10 36.5q0 36 -22.5 60.5t-53.5 24.5q-71 0 -82 -95l-50 8q6 69 42 103t93 34q55 0 89.5 -36t34.5 -95q0 -34 -13 -60t-50 -60q-37 -33 -43 -52
q-6 -20 -6 -72zM278 117h-56v67h56v-67z" />
    <glyph glyph-name=".null" horiz-adv-x="500" 
 />
    <glyph glyph-name=".null" horiz-adv-x="500" 
 />
    <glyph glyph-name="nonmarkingreturn" horiz-adv-x="333" 
 />
    <glyph glyph-name="CR" unicode="&#xd;" horiz-adv-x="0" 
 />
    <glyph glyph-name="space" unicode=" " horiz-adv-x="250" 
 />
    <glyph glyph-name="exclam" unicode="!" horiz-adv-x="448" 
d="M104 260v448h240v-448h-240zM224 -16q-52 0 -88 35t-36 86q0 50 36 85.5t88 35.5t88 -35.5t36 -85.5q0 -51 -36 -86t-88 -35z" />
    <glyph glyph-name="quotedbl" unicode="&#x22;" horiz-adv-x="556" 
d="M81 426v282h173v-282h-173zM303 426v282h172v-282h-172z" />
    <glyph glyph-name="numbersign" unicode="#" horiz-adv-x="620" 
d="M294 387l-9 -66h41l10 66h-42zM480 387l-9 -66h77v-134h-95l-27 -187h-145l26 187h-40l-27 -187h-145l26 187h-76v134h95l10 66h-77v134h95l26 187h146l-27 -187h41l27 187h145l-27 -187h76v-134h-95z" />
    <glyph glyph-name="dollar" unicode="$" horiz-adv-x="700" 
d="M401 786v-72q144 -8 248 -100l-148 -147q-23 28 -57.5 43.5t-64.5 15.5q-58 0 -58 -31q0 -14 13 -21.5t51 -19.5q4 -1 6 -2q42 -13 65 -21.5t61.5 -28t59 -40t37 -54t16.5 -74.5q0 -106 -69.5 -169t-170.5 -72v-76h-102v75q-143 11 -248 99l145 154q25 -28 68 -47.5
t84 -19.5q53 0 53 32q0 18 -21.5 29t-103.5 38q-85 27 -134 73t-49 129q0 100 62 158.5t155 74.5v74h102z" />
    <glyph glyph-name="percent" unicode="%" horiz-adv-x="935" 
d="M306 -37l-98 53l420 723l97 -55zM711 241q-24 0 -42 -17.5t-18 -42.5q0 -24 18 -41t42 -17t41.5 17t17.5 41q0 25 -18 42.5t-41 17.5zM711 -12q-81 0 -139 56.5t-58 136.5q0 81 58 137.5t139 56.5t138.5 -56.5t57.5 -137.5q0 -80 -57.5 -136.5t-138.5 -56.5zM224 586
q-24 0 -42 -17.5t-18 -42.5q0 -24 18 -41t42 -17t41.5 17t17.5 41t-17.5 42t-41.5 18zM224 333q-81 0 -139 56.5t-58 136.5q0 81 58 137.5t139 56.5t138.5 -56.5t57.5 -137.5q0 -80 -57.5 -136.5t-138.5 -56.5z" />
    <glyph glyph-name="ampersand" unicode="&#x26;" horiz-adv-x="840" 
d="M392 184l-88 89q-39 -14 -39 -55q0 -27 20.5 -41t46.5 -14q41 0 60 21zM366 575q-22 0 -34 -13.5t-12 -32.5q0 -33 37 -60q53 21 53 60q0 21 -11.5 33.5t-32.5 12.5zM569 0l-49 51q-76 -65 -200 -65q-53 0 -101 12.5t-89 37.5t-65.5 68.5t-24.5 100.5q0 65 38.5 114.5
t100.5 74.5q-69 62 -69 145q0 50 23 88t61 59t81 31.5t89 10.5q99 0 172 -48t73 -144q0 -107 -137 -179l49 -46l55 79h249l-170 -207l192 -183h-278z" />
    <glyph glyph-name="quotesingle" unicode="'" horiz-adv-x="334" 
d="M81 426v282h172v-282h-172z" />
    <glyph glyph-name="parenleft" unicode="(" 
d="M18 288q0 125 38 247t111 223l153 -56q-133 -184 -133 -414t133 -414l-153 -56q-73 101 -111 223t-38 247z" />
    <glyph glyph-name="parenright" unicode=")" 
d="M342 288q0 -125 -38 -247t-111 -223l-153 56q133 184 133 414t-133 414l153 56q73 -101 111 -223t38 -247z" />
    <glyph glyph-name="asterisk" unicode="*" horiz-adv-x="527" 
d="M385 467l72 -93l-121 -83l-74 95l-71 -90l-120 83l74 89l-117 37l48 130l114 -38v111h149v-112l116 35l44 -130z" />
    <glyph glyph-name="plus" unicode="+" horiz-adv-x="666" 
d="M49 378h204v198h158v-198h206v-150h-204v-198h-158v198h-206v150z" />
    <glyph glyph-name="comma" unicode="," 
d="M200 -120h-186l82 313h218z" />
    <glyph glyph-name="hyphen" unicode="-" horiz-adv-x="336" 
d="M30 199v172h276v-172h-276z" />
    <glyph glyph-name="period" unicode="." 
d="M48 113q0 53 39.5 91.5t94.5 38.5q52 0 91 -38.5t39 -91.5q0 -54 -38.5 -91.5t-91.5 -37.5q-55 0 -94.5 37.5t-39.5 91.5z" />
    <glyph glyph-name="slash" unicode="/" horiz-adv-x="455" 
d="M154 -59l-157 48l303 778l158 -48z" />
    <glyph glyph-name="zero" unicode="0" horiz-adv-x="700" 
d="M350 523q-72 0 -72 -165q0 -171 72 -171t72 171q0 165 -72 165zM350 -20q-75 0 -132.5 24.5t-92 62.5t-56 90t-29.5 100.5t-8 100.5t8 99.5t29.5 98t56 87.5t92 61t132.5 24t133 -23.5t92 -60.5t56 -88t29.5 -98.5t7.5 -99.5t-7.5 -100t-29.5 -100.5t-56 -90.5t-92 -62.5
t-133 -24.5z" />
    <glyph glyph-name="one" unicode="1" horiz-adv-x="700" 
d="M288 0v456l-119 -82l-112 174l251 160h220v-708h-240z" />
    <glyph glyph-name="two" unicode="2" horiz-adv-x="700" 
d="M66 185l280 224q39 32 39 62q0 22 -13 36t-39 14q-29 0 -48 -23t-21 -62l-227 26q9 88 57 150t114 89t145 27q55 0 104 -13.5t90.5 -40t66 -72.5t24.5 -105q0 -55 -21.5 -99.5t-47.5 -69.5t-69 -55l-104 -74h244v-199h-574v185z" />
    <glyph glyph-name="three" unicode="3" horiz-adv-x="700" 
d="M533 375v-4q54 -18 87.5 -62t33.5 -95q0 -79 -45 -133.5t-110 -77.5t-141 -23q-75 0 -140 22t-116 72.5t-69 123.5l222 52q6 -28 30.5 -49t59.5 -21q24 0 43 11.5t19 36.5q0 30 -25.5 41t-77.5 11h-68v164h76q84 0 84 51q0 41 -56 41q-26 0 -46.5 -16t-25.5 -45l-221 47
q23 74 75 122t111 66t127 18q50 0 97.5 -12t89.5 -36t68 -66t26 -95q0 -57 -30 -93.5t-78 -50.5z" />
    <glyph glyph-name="four" unicode="4" horiz-adv-x="700" 
d="M375 490h-4l-118 -179h122v179zM588 125v-125h-216v125h-341v194l268 389h288v-397h96v-186h-95z" />
    <glyph glyph-name="five" unicode="5" horiz-adv-x="700" 
d="M650 238q0 -70 -26.5 -122.5t-71 -81t-93.5 -41.5t-104 -13q-113 0 -204 59t-110 159l220 56q6 -30 30 -51t56 -21q66 0 66 54q0 60 -126 60q-69 0 -185 -21l25 433h481v-198h-280l-4 -51q32 5 53 5q119 0 196 -57t77 -169z" />
    <glyph glyph-name="six" unicode="6" horiz-adv-x="700" 
d="M350 320q-32 0 -52.5 -20.5t-20.5 -50.5q0 -31 20.5 -52t52.5 -21q33 0 54 21t21 52q0 30 -21 50.5t-54 20.5zM407 486h11q98 0 170 -63.5t72 -172.5q0 -128 -89.5 -199t-220.5 -71q-132 0 -221 69.5t-89 198.5q0 111 88 233l162 227h289l-163 -211z" />
    <glyph glyph-name="seven" unicode="7" horiz-adv-x="700" 
d="M392 0h-276l269 510h-304v198h564v-169z" />
    <glyph glyph-name="eight" unicode="8" horiz-adv-x="700" 
d="M526 371v-3q53 -19 85.5 -62.5t32.5 -101.5q0 -76 -44 -128.5t-108.5 -74t-141.5 -21.5q-78 0 -142 21t-108 73t-44 129q0 56 31.5 99t86.5 65v3q-47 18 -76.5 57.5t-29.5 91.5q0 53 24 94.5t64.5 66t89.5 36.5t104 12q54 0 103 -12t90 -36.5t65 -66t24 -94.5
q0 -54 -28.5 -93t-77.5 -55zM350 277q-29 0 -45.5 -17t-16.5 -42t16.5 -41.5t45.5 -16.5t45.5 16.5t16.5 41.5t-16.5 42t-45.5 17zM350 551q-26 0 -42 -16t-16 -36q0 -21 16 -37.5t42 -16.5t42 16.5t16 37.5q0 20 -16 36t-42 16z" />
    <glyph glyph-name="nine" unicode="9" horiz-adv-x="700" 
d="M350 390q32 0 52.5 20.5t20.5 50.5q0 31 -20.5 52t-52.5 21q-33 0 -54 -21t-21 -52q0 -30 21 -50.5t54 -20.5zM293 222h-11q-98 0 -170 63.5t-72 172.5q0 128 89.5 199t220.5 71q132 0 221 -69.5t89 -198.5q0 -111 -88 -233l-162 -227h-289l167 216z" />
    <glyph glyph-name="colon" unicode=":" horiz-adv-x="380" 
d="M66 409q0 51 37 86.5t89 35.5q49 0 85.5 -36t36.5 -86t-36.5 -85.5t-85.5 -35.5q-52 0 -89 35t-37 86zM66 115q0 51 37 86.5t89 35.5q49 0 85.5 -36t36.5 -86t-36.5 -85.5t-85.5 -35.5q-52 0 -89 35t-37 86z" />
    <glyph glyph-name="semicolon" unicode=";" horiz-adv-x="380" 
d="M66 409q0 51 37 86.5t89 35.5q49 0 85.5 -36t36.5 -86t-36.5 -85.5t-85.5 -35.5q-52 0 -89 35t-37 86zM199 -120h-186l82 313h218z" />
    <glyph glyph-name="less" unicode="&#x3c;" horiz-adv-x="666" 
d="M588 196v-164l-510 203v134l510 203v-162l-274 -111z" />
    <glyph glyph-name="equal" unicode="=" horiz-adv-x="666" 
d="M56 282h554v-144h-554v144zM56 472h554v-144h-554v144z" />
    <glyph glyph-name="greater" unicode="&#x3e;" horiz-adv-x="666" 
d="M78 410v162l510 -203v-134l-510 -203v164l274 103z" />
    <glyph glyph-name="question" unicode="?" horiz-adv-x="587" 
d="M446 328q-36 -22 -36 -50v-26h-213v37q0 54 24 88t74 69l17 12q33 24 33 44q0 38 -42 38q-31 0 -46 -22t-15 -56l-215 28q11 121 90 179.5t190 58.5q49 0 94.5 -11t86 -34t65 -65.5t24.5 -99.5q0 -65 -32 -107t-99 -83zM304 -16q-52 0 -88 35t-36 86q0 50 36 85.5
t88 35.5t88 -35.5t36 -85.5q0 -51 -36 -86t-88 -35z" />
    <glyph glyph-name="at" unicode="@" horiz-adv-x="800" 
d="M405 443q-24 0 -42 -30.5t-18 -69.5q0 -60 41 -60q27 0 43.5 30.5t16.5 66.5q0 63 -41 63zM481 534h136l-19 -108q-18 -99 -18 -113q0 -30 24 -30q22 0 40 26t18 87q0 109 -67 166.5t-180 57.5q-116 0 -189 -75t-73 -191q0 -119 77.5 -190.5t200.5 -71.5t205 68l75 -85
q-113 -93 -294 -93q-170 0 -281 104t-111 267q0 158 114 265.5t275 107.5q155 0 261.5 -88.5t106.5 -243.5q0 -106 -57 -170t-158 -64q-83 0 -106 59h-2q-13 -24 -42.5 -41.5t-70.5 -17.5q-67 0 -108 50.5t-41 128.5q0 90 51.5 156.5t134.5 66.5q36 0 60 -16t31 -36h2z" />
    <glyph glyph-name="A" unicode="A" horiz-adv-x="776" 
d="M443 286l-57 175l-58 -175h115zM-16 0l279 708h253l276 -708h-259l-37 104h-225l-35 -104h-252z" />
    <glyph glyph-name="B" unicode="B" horiz-adv-x="693" 
d="M529 371v-3q55 -13 94 -56t39 -105q0 -74 -41 -122t-100 -66.5t-134 -18.5h-321v708h291q276 0 276 -188q0 -109 -104 -149zM349 283h-61v-96h71q29 0 46 13t17 36q0 25 -23 36t-50 11zM347 523h-59v-87h64q57 0 57 47q0 40 -62 40z" />
    <glyph glyph-name="C" unicode="C" horiz-adv-x="696" 
d="M34 354q0 167 110.5 270.5t274.5 103.5q81 0 154.5 -26.5t122.5 -71.5l-146 -176q-41 53 -117 53q-61 0 -102 -42t-41 -111q0 -67 41.5 -109t101.5 -42q75 0 117 57l146 -175q-105 -105 -277 -105q-163 0 -274 104.5t-111 269.5z" />
    <glyph glyph-name="D" unicode="D" horiz-adv-x="788" 
d="M348 506h-53v-302h44q86 0 130 37.5t44 118.5q0 68 -44.5 107t-120.5 39zM350 0h-284v708h264q70 0 130 -10t115.5 -35.5t94 -64t61.5 -100t23 -140.5q0 -90 -33 -160.5t-90 -112.5t-128.5 -63.5t-152.5 -21.5z" />
    <glyph glyph-name="E" unicode="E" horiz-adv-x="603" 
d="M66 0v708h487v-198h-263v-61h247v-185h-247v-66h280v-198h-504z" />
    <glyph glyph-name="F" unicode="F" horiz-adv-x="581" 
d="M299 509v-75h216v-194h-215v-240h-234v708h478v-199h-245z" />
    <glyph glyph-name="G" unicode="G" horiz-adv-x="762" 
d="M426 -18q-170 0 -281 102t-111 270q0 167 110.5 270.5t273.5 103.5q83 0 157.5 -27t121.5 -74l-139 -167q-47 57 -126 57q-60 0 -106 -45.5t-46 -117.5q0 -78 40 -122.5t122 -44.5q39 0 56 10v54h-114v187h325v-387q-50 -31 -127.5 -50t-155.5 -19z" />
    <glyph glyph-name="H" unicode="H" horiz-adv-x="802" 
d="M498 0v269h-194v-269h-238v708h237v-240h194v240h239v-708h-238z" />
    <glyph glyph-name="I" unicode="I" horiz-adv-x="372" 
d="M66 0v708h240v-708h-240z" />
    <glyph glyph-name="J" unicode="J" horiz-adv-x="573" 
d="M248 -20q-94 0 -168.5 51.5t-94.5 128.5l204 78q10 -41 43 -41q39 0 39 55v456h239v-446q0 -42 -6.5 -79t-24 -75.5t-45.5 -65.5t-76 -44.5t-110 -17.5z" />
    <glyph glyph-name="K" unicode="K" horiz-adv-x="763" 
d="M489 0l-189 282h-2v-282h-232v708h231v-261h2l189 261h280l-266 -324l279 -384h-292z" />
    <glyph glyph-name="L" unicode="L" horiz-adv-x="549" 
d="M66 0v708h240v-504h235v-204h-475z" />
    <glyph glyph-name="M" unicode="M" horiz-adv-x="1008" 
d="M282 400h-5l11 -400h-222v708h311l128 -381h5l111 381h321v-708h-231l7 398l-6 1l-132 -399h-168z" />
    <glyph glyph-name="N" unicode="N" horiz-adv-x="791" 
d="M66 0v708h237l202 -359h4l-10 359h226v-708h-243l-196 338h-4l10 -338h-226z" />
    <glyph glyph-name="O" unicode="O" horiz-adv-x="855" 
d="M287 358q0 -69 39.5 -113.5t100.5 -44.5q60 0 100 44.5t40 113.5q0 68 -39.5 110t-100.5 42t-100.5 -42t-39.5 -110zM34 358q0 167 111 268.5t282 101.5t282.5 -101.5t111.5 -268.5q0 -169 -112 -273.5t-282 -104.5t-281.5 104.5t-111.5 273.5z" />
    <glyph glyph-name="P" unicode="P" horiz-adv-x="684" 
d="M353 523h-50v-114h50q30 0 51 14.5t21 44.5q0 55 -72 55zM370 228h-67v-228h-237v708h304q58 0 107 -12t91.5 -38t67 -74t24.5 -114q0 -123 -83.5 -182.5t-206.5 -59.5z" />
    <glyph glyph-name="Q" unicode="Q" horiz-adv-x="864" 
d="M287 358q0 -69 39.5 -113.5t100.5 -44.5q60 0 100 44.5t40 113.5q0 68 -39.5 110t-100.5 42t-100.5 -42t-39.5 -110zM740 184v-4l112 7v-187h-438q-172 0 -276 95t-104 267q0 161 111.5 263.5t281.5 102.5q168 0 277.5 -100.5t109.5 -256.5q0 -57 -22.5 -110t-51.5 -77z
" />
    <glyph glyph-name="R" unicode="R" horiz-adv-x="714" 
d="M294 523v-114h47q83 0 83 59q0 55 -73 55h-57zM66 0v708h305q56 0 104 -11t90.5 -36t67 -71.5t24.5 -111.5q0 -135 -124 -191l180 -287h-274l-136 253h-7v-253h-230z" />
    <glyph glyph-name="S" unicode="S" horiz-adv-x="617" 
d="M298 -20q-84 0 -163.5 29t-134.5 78l145 158q26 -29 68 -49t84 -20q53 0 53 33q0 18 -23.5 30.5t-101.5 38.5q-84 27 -133.5 74.5t-49.5 132.5q0 63 26.5 111.5t70.5 76.5t94.5 41.5t105.5 13.5q71 0 143.5 -27.5t126.5 -77.5l-148 -151q-23 28 -57.5 44.5t-64.5 16.5
q-58 0 -58 -32q0 -15 14 -22.5t56 -21.5q40 -13 64.5 -22t62 -28.5t58.5 -41t37.5 -56t16.5 -76.5q0 -120 -87 -186.5t-205 -66.5z" />
    <glyph glyph-name="T" unicode="T" horiz-adv-x="600" 
d="M419 507v-507h-238v507h-174v201h586v-201h-174z" />
    <glyph glyph-name="U" unicode="U" horiz-adv-x="775" 
d="M384 -20q-159 0 -243.5 83t-84.5 215v430h238v-404q0 -51 24.5 -79.5t69.5 -28.5t69.5 28.5t24.5 79.5v404h237v-430q0 -131 -87.5 -214.5t-247.5 -83.5z" />
    <glyph glyph-name="V" unicode="V" horiz-adv-x="739" 
d="M235 0l-251 708h269l117 -438h4l112 438h269l-256 -708h-264z" />
    <glyph glyph-name="W" unicode="W" horiz-adv-x="1077" 
d="M536 400l-103 -400h-240l-193 708h252l76 -398h4l82 398h249l89 -398h4l77 398h244l-197 -708h-240l-100 400h-4z" />
    <glyph glyph-name="X" unicode="X" horiz-adv-x="800" 
d="M521 0l-128 207l-123 -207h-282l253 369l-240 339h287l112 -186l107 186h280l-236 -336l261 -372h-291z" />
    <glyph glyph-name="Y" unicode="Y" horiz-adv-x="738" 
d="M481 290v-290h-238v290l-267 418h287l112 -208l107 208h280z" />
    <glyph glyph-name="Z" unicode="Z" horiz-adv-x="672" 
d="M44 0v199l265 312h-254v197h565v-172l-282 -333h290v-203h-584z" />
    <glyph glyph-name="bracketleft" unicode="[" 
d="M42 -156v888h252v-137h-87v-614h87v-137h-252z" />
    <glyph glyph-name="backslash" unicode="\" horiz-adv-x="455" 
d="M301 -59l-304 778l158 48l303 -778z" />
    <glyph glyph-name="bracketright" unicode="]" 
d="M318 732v-888h-252v137h87v614h-87v137h252z" />
    <glyph glyph-name="asciicircum" unicode="^" horiz-adv-x="714" 
d="M255 343h-178l203 365h154l201 -365h-178l-101 187z" />
    <glyph glyph-name="underscore" unicode="_" horiz-adv-x="500" 
d="M0 -185v110h500v-110h-500z" />
    <glyph glyph-name="grave" unicode="`" 
d="M118 584l-154 144h212l111 -144h-169z" />
    <glyph glyph-name="a" unicode="a" horiz-adv-x="591" 
d="M332 332v2q0 47 -60 47q-57 0 -111 -45l-115 114q48 46 114 71t136 25q72 0 123 -20.5t78.5 -59t39.5 -84.5t12 -105v-277h-209v42h-2q-38 -56 -129 -56q-72 0 -127.5 42t-55.5 127q0 52 27 89t74.5 55t97 25.5t107.5 7.5zM347 218h-13q-113 0 -113 -52q0 -19 17 -30
t36 -11q33 0 53 21t20 54v18z" />
    <glyph glyph-name="b" unicode="b" horiz-adv-x="694" 
d="M448 265q0 37 -23 62t-63 25t-65 -25.5t-25 -61.5q0 -38 25 -63.5t65 -25.5q41 0 63.5 24.5t22.5 64.5zM662 265q0 -112 -64 -195.5t-176 -83.5q-49 0 -93 18.5t-67 50.5h-2v-55h-207v756h230v-272h2q23 26 60.5 41t76.5 15q111 0 175.5 -82.5t64.5 -192.5z" />
    <glyph glyph-name="c" unicode="c" horiz-adv-x="526" 
d="M339 -20q-135 0 -221 77.5t-86 205.5q0 127 88 205t222 78q52 0 106.5 -16.5t84.5 -40.5l-115 -166q-24 29 -69 29q-36 0 -63 -23.5t-27 -65.5t27 -64.5t63 -22.5q44 0 70 28l116 -162q-34 -27 -87 -44.5t-109 -17.5z" />
    <glyph glyph-name="d" unicode="d" horiz-adv-x="694" 
d="M246 265q0 -40 22.5 -64.5t63.5 -24.5q40 0 65 25.5t25 63.5q0 36 -25 61.5t-65 25.5t-63 -25t-23 -62zM32 265q0 110 64.5 192.5t175.5 82.5q39 0 76.5 -15t60.5 -41h2v272h230v-756h-207v55h-2q-23 -32 -67 -50.5t-93 -18.5q-112 0 -176 83.5t-64 195.5z" />
    <glyph glyph-name="e" unicode="e" horiz-adv-x="630" 
d="M602 258q0 -25 -2 -49h-354q2 -27 29.5 -43.5t60.5 -16.5q57 0 86 37l164 -83q-36 -58 -102.5 -90.5t-153.5 -32.5q-123 0 -210.5 75t-87.5 208q0 127 84 205t209 78q123 0 200 -81.5t77 -206.5zM244 333h159q0 28 -20.5 46t-55.5 18t-57.5 -19.5t-25.5 -44.5z" />
    <glyph glyph-name="f" unicode="f" horiz-adv-x="424" 
d="M441 771l-15 -173q-22 9 -45 9q-61 0 -61 -74v-7h111v-165h-111v-361h-230v361h-90v165h90v12q0 248 246 248q67 0 105 -15z" />
    <glyph glyph-name="g" unicode="g" horiz-adv-x="697" 
d="M246 265q0 -40 22.5 -64.5t63.5 -24.5q40 0 65 25.5t25 63.5q0 36 -25 61.5t-65 25.5t-63 -25t-23 -62zM32 265q0 110 64.5 192.5t175.5 82.5q99 0 149 -67h3v53h217v-472q0 -83 -27.5 -142.5t-76 -91.5t-103.5 -46t-121 -14q-168 0 -281 77l101 153q73 -56 160 -56
q53 0 88.5 26.5t35.5 72.5v23h-3q-20 -24 -58.5 -40t-83.5 -16q-116 0 -178 76t-62 189z" />
    <glyph glyph-name="h" unicode="h" horiz-adv-x="666" 
d="M430 540q53 0 91.5 -19.5t58.5 -52.5t29 -69.5t9 -78.5v-320h-232v280q0 72 -50 72q-22 0 -37 -18.5t-15 -54.5v-279h-231v756h231v-288h2q50 72 144 72z" />
    <glyph glyph-name="i" unicode="i" horiz-adv-x="339" 
d="M50 678q0 48 35.5 83t85.5 35q47 0 82.5 -35t35.5 -83q0 -49 -35 -83t-83 -34q-51 0 -86 33.5t-35 83.5zM54 0v526h231v-526h-231z" />
    <glyph glyph-name="j" unicode="j" horiz-adv-x="346" 
d="M57 678q0 48 35.5 83t84.5 35q48 0 83.5 -35t35.5 -83q0 -50 -35 -83.5t-84 -33.5t-84.5 33.5t-35.5 83.5zM292 526v-514q0 -252 -237 -252q-56 0 -96 12l12 188q19 -5 37 -5q27 0 40 15t13 49v507h231z" />
    <glyph glyph-name="k" unicode="k" horiz-adv-x="670" 
d="M287 229h-3v-229h-231v756h231v-431h3l125 201h268l-170 -237l169 -289h-269z" />
    <glyph glyph-name="l" unicode="l" horiz-adv-x="342" 
d="M53 0v756h236v-756h-236z" />
    <glyph glyph-name="m" unicode="m" horiz-adv-x="976" 
d="M606 0h-231v276q0 40 -10 58t-33 18q-20 0 -34 -17.5t-14 -55.5v-279h-231v526h225v-58h2q55 72 149 72q108 0 150 -76q62 76 160 76q53 0 92 -21.5t59 -56t29 -70t9 -72.5v-320h-231v280q0 41 -10 56.5t-33 15.5q-21 0 -34.5 -19t-13.5 -54v-279z" />
    <glyph glyph-name="n" unicode="n" horiz-adv-x="666" 
d="M53 0v526h225v-58h2q22 31 61.5 51.5t88.5 20.5q53 0 91.5 -19.5t58.5 -52.5t29 -69.5t9 -78.5v-320h-232v280q0 72 -50 72q-24 0 -38 -18.5t-14 -53.5v-280h-231z" />
    <glyph glyph-name="o" unicode="o" horiz-adv-x="664" 
d="M331 352q-37 0 -61 -25.5t-24 -61.5q0 -37 24 -63t62 -26t62 26t24 63q0 36 -24.5 61.5t-62.5 25.5zM632 265q0 -131 -87.5 -208t-213.5 -77q-124 0 -211.5 77t-87.5 208q0 130 87 205.5t212 75.5q126 0 213.5 -75.5t87.5 -205.5z" />
    <glyph glyph-name="p" unicode="p" horiz-adv-x="694" 
d="M448 265q0 37 -23 62t-63 25t-65 -25.5t-25 -61.5q0 -38 25 -63.5t65 -25.5q41 0 63.5 24.5t22.5 64.5zM423 -14q-40 0 -77.5 14.5t-61.5 40.5h-2v-281h-229v766h217v-53h2q28 32 69 49.5t81 17.5q111 0 175.5 -82.5t64.5 -192.5q0 -112 -64 -195.5t-175 -83.5z" />
    <glyph glyph-name="q" unicode="q" horiz-adv-x="694" 
d="M246 265q0 -40 22.5 -64.5t63.5 -24.5q40 0 65 25.5t25 63.5q0 36 -25 61.5t-65 25.5t-63 -25t-23 -62zM271 -14q-111 0 -175 83.5t-64 195.5q0 110 64.5 192.5t175.5 82.5q40 0 81 -17.5t69 -49.5h2v53h217v-766h-229v281h-2q-24 -26 -61.5 -40.5t-77.5 -14.5z" />
    <glyph glyph-name="r" unicode="r" horiz-adv-x="445" 
d="M53 0v526h222v-60h2q40 74 129 74q26 0 44 -5l-18 -196q-22 6 -49 6q-44 0 -71.5 -25.5t-27.5 -64.5v-255h-231z" />
    <glyph glyph-name="s" unicode="s" horiz-adv-x="513" 
d="M484 167q0 -50 -22 -88t-58 -58.5t-74.5 -30.5t-78.5 -10q-147 0 -247 75l113 131q54 -49 119 -49q33 0 33 21q0 12 -17 19.5t-66 19.5q-61 15 -104.5 53.5t-43.5 106.5q0 39 15 71.5t38.5 54t54.5 36t62 21t61 6.5q128 0 229 -68l-108 -129q-53 34 -102 34
q-39 0 -39 -22q0 -10 13 -15.5t57 -14.5q71 -14 118 -54.5t47 -109.5z" />
    <glyph glyph-name="t" unicode="t" horiz-adv-x="421" 
d="M282 -14q-106 0 -157 45.5t-51 141.5v188h-74v165h73v118h224v-118h114v-165h-114v-140q0 -36 15.5 -50.5t46.5 -14.5q24 0 42 6v-158q-39 -18 -119 -18z" />
    <glyph glyph-name="u" unicode="u" horiz-adv-x="663" 
d="M610 526v-526h-225v58h-2q-22 -31 -61.5 -51.5t-88.5 -20.5q-53 0 -91.5 19t-58.5 52t-29 69.5t-9 79.5v320h232v-278q0 -72 50 -72q24 0 38 18.5t14 53.5v278h231z" />
    <glyph glyph-name="v" unicode="v" horiz-adv-x="638" 
d="M192 0l-200 526h256l75 -284h4l72 284h247l-203 -526h-251z" />
    <glyph glyph-name="w" unicode="w" horiz-adv-x="973" 
d="M483 270l-79 -270h-229l-180 526h247l66 -272h4l68 272h222l73 -272h3l64 272h236l-182 -526h-230l-81 270h-2z" />
    <glyph glyph-name="x" unicode="x" horiz-adv-x="675" 
d="M419 0l-81 119l-86 -119h-260l203 270l-189 256h262l76 -110l75 110h254l-189 -256l199 -270h-264z" />
    <glyph glyph-name="y" unicode="y" horiz-adv-x="638" 
d="M201 9l4 11l-213 506h256l78 -277h4l69 277h247l-216 -558q-41 -105 -103.5 -156.5t-172.5 -51.5q-79 0 -131 16l29 190q29 -12 65 -12q63 0 84 55z" />
    <glyph glyph-name="z" unicode="z" horiz-adv-x="557" 
d="M33 0v161l197 194h-192v171h479v-150l-213 -205h219v-171h-490z" />
    <glyph glyph-name="braceleft" unicode="{" 
d="M0 217v142q33 0 49 15t16 55v132q0 74 37 122.5t112 48.5h96v-137h-34q-50 0 -50 -60v-135q0 -52 -27.5 -80t-57.5 -31v-2q31 -5 58 -32t27 -79v-135q0 -60 50 -60h34v-137h-96q-75 0 -112 48.5t-37 122.5v132q0 40 -16 55t-49 15z" />
    <glyph glyph-name="bar" unicode="|" horiz-adv-x="269" 
d="M49 -250v1000h172v-1000h-172z" />
    <glyph glyph-name="braceright" unicode="}" 
d="M360 359v-142q-33 0 -49 -15t-16 -55v-132q0 -74 -37 -122.5t-112 -48.5h-96v137h34q50 0 50 60v135q0 52 27 79t58 32v2q-30 3 -57.5 31t-27.5 80v135q0 60 -50 60h-34v137h96q75 0 112 -48.5t37 -122.5v-132q0 -40 16 -55t49 -15z" />
    <glyph glyph-name="asciitilde" unicode="~" horiz-adv-x="666" 
d="M355 384q27 -18 44 -25.5t24.5 -8.5t25.5 -1q49 0 84 67l74 -135q-65 -106 -159 -106q-59 0 -121 38q-56 34 -93 34q-25 0 -55 -16.5t-46 -49.5l-74 135q34 56 82 81t94 25q62 0 120 -38z" />
    <glyph glyph-name="uni00A0" unicode="&#xa0;" horiz-adv-x="250" 
 />
    <glyph glyph-name="exclamdown" unicode="&#xa1;" horiz-adv-x="448" 
d="M104 270h240v-448h-240v448zM224 546q52 0 88 -35t36 -86q0 -50 -36 -85.5t-88 -35.5t-88 35.5t-36 85.5q0 51 36 86t88 35z" />
    <glyph glyph-name="cent" unicode="&#xa2;" horiz-adv-x="700" 
d="M341 -72v59q-110 16 -176.5 90t-66.5 186q0 110 67 183.5t176 91.5v64h109v-61q92 -8 149 -52l-115 -166q-24 29 -69 29q-36 0 -63 -23.5t-27 -65.5t27 -64.5t63 -22.5q44 0 70 28l116 -162q-58 -46 -151 -57v-57h-109z" />
    <glyph glyph-name="sterling" unicode="&#xa3;" horiz-adv-x="700" 
d="M687 647l-134 -152q-26 31 -72 31q-80 0 -80 -75v-9h145v-162h-145v-87h251v-193h-572v193h92v87h-92v162h92v28q0 102 74.5 180t208.5 78q147 0 232 -81z" />
    <glyph glyph-name="currency" unicode="&#xa4;" horiz-adv-x="700" 
d="M352 385q-36 0 -60.5 -26.5t-24.5 -61.5q0 -39 24 -65t61 -26q36 0 60 26t24 65q0 35 -24.5 61.5t-59.5 26.5zM654 503l-79 -79q32 -56 32 -127q0 -76 -34 -132l81 -81l-94 -95l-85 85q-55 -28 -123 -28q-64 0 -125 30l-87 -87l-94 95l83 83q-31 55 -31 130q0 70 30 124
l-82 82l95 94l84 -83q60 29 127 29q70 0 125 -28l82 82z" />
    <glyph glyph-name="yen" unicode="&#xa5;" horiz-adv-x="700" 
d="M544 458h100v-140h-184v-47h184v-140h-184v-131h-216v131h-181v140h181v47h-181v140h100l-158 250h253l98 -217l98 217h247z" />
    <glyph glyph-name="brokenbar" unicode="&#xa6;" horiz-adv-x="269" 
d="M49 200h172v-406h-172v406zM49 718h172v-406h-172v406z" />
    <glyph glyph-name="section" unicode="&#xa7;" horiz-adv-x="650" 
d="M332 316l-82 29q-16 -9 -16 -28q0 -18 15 -27.5t52 -22.5q7 -3 11 -4l81 -28q13 7 13 26q0 17 -18.5 29.5t-55.5 25.5zM539 158q45 -30 45 -102q0 -58 -26 -101t-70 -65.5t-90.5 -33t-96.5 -10.5q-86 0 -167.5 35.5t-123.5 97.5l157 130q27 -40 67.5 -59t77.5 -19
q15 0 26.5 6t11.5 15q0 15 -18.5 25t-82.5 28q-112 32 -161 72t-49 115q0 83 71 128q-41 40 -41 110q0 52 25.5 91.5t66 61.5t83.5 33t86 11q198 0 271 -130l-166 -110q-14 25 -40.5 40.5t-50.5 15.5q-43 0 -43 -23q0 -12 18 -20.5t80 -27.5q105 -32 155 -75t50 -119
q0 -80 -65 -120z" />
    <glyph glyph-name="dieresis" unicode="&#xa8;" 
d="M-44 678q0 40 30 69.5t71 29.5q40 0 69.5 -29.5t29.5 -69.5q0 -41 -29.5 -69.5t-69.5 -28.5q-42 0 -71.5 28t-29.5 70zM205 678q0 40 30 69.5t71 29.5q40 0 69.5 -29.5t29.5 -69.5q0 -41 -29.5 -69.5t-69.5 -28.5q-42 0 -71.5 28t-29.5 70z" />
    <glyph glyph-name="copyright" unicode="&#xa9;" horiz-adv-x="800" 
d="M80 353q0 -132 92.5 -225.5t224.5 -93.5t227.5 93.5t95.5 225.5t-93.5 226.5t-225.5 94.5t-226.5 -94.5t-94.5 -226.5zM20 353q0 157 111.5 267t269.5 110q157 0 268 -110t111 -267q0 -156 -111 -265.5t-268 -109.5q-158 0 -269.5 109t-111.5 266zM498 435l98 80
q-29 36 -76 56t-99 20q-105 0 -176.5 -65.5t-71.5 -172.5q0 -110 71 -174.5t177 -64.5q107 0 174 67l-92 88q-27 -33 -80 -33q-49 0 -76.5 35.5t-27.5 82.5t26.5 82t71.5 35q54 0 81 -36z" />
    <glyph glyph-name="ordfeminine" unicode="&#xaa;" horiz-adv-x="390" 
d="M221 610v1q0 25 -35 25t-66 -24l-69 61q61 52 148 52q84 0 117 -38.5t33 -106.5v-149h-124v23h-1q-20 -30 -76 -30q-43 0 -76 22t-33 69q0 36 29.5 58.5t67.5 29.5t85 7zM229 547h-8q-64 0 -64 -27q0 -20 30 -20q19 0 30.5 10.5t11.5 27.5v9z" />
    <glyph glyph-name="guillemotleft" unicode="&#xab;" horiz-adv-x="580" 
d="M193 26l-176 248l176 248l129 -83l-115 -165l115 -165zM422 26l-175 248l175 248l130 -83l-115 -165l115 -165z" />
    <glyph glyph-name="logicalnot" unicode="&#xac;" horiz-adv-x="666" 
d="M447 143v171h-410v144h568v-315h-158z" />
    <glyph glyph-name="uni00AD" unicode="&#xad;" horiz-adv-x="336" 
d="M30 199v172h276v-172h-276z" />
    <glyph glyph-name="registered" unicode="&#xae;" horiz-adv-x="600" 
d="M108 492q0 -79 56.5 -135.5t136.5 -56.5q79 0 135 56.5t56 135.5q0 80 -55.5 136t-135.5 56t-136.5 -56t-56.5 -136zM72 492q0 94 67 160.5t162 66.5q94 0 160.5 -66.5t66.5 -160.5t-66.5 -159.5t-160.5 -65.5q-95 0 -162 65.5t-67 159.5zM439 365h-100l-44 94h-16v-94
h-88v266h114q50 0 85.5 -20t35.5 -66q0 -55 -48 -74zM279 521h26q12 0 20 6.5t8 16.5q0 18 -28 18h-26v-41z" />
    <glyph glyph-name="macron" unicode="&#xaf;" 
d="M0 611v96h360v-96h-360z" />
    <glyph glyph-name="degree" unicode="&#xb0;" horiz-adv-x="440" 
d="M317 554q0 41 -28 69t-69 28t-69 -28t-28 -69t28 -69t69 -28t69 28t28 69zM399 554q0 -77 -51 -128t-128 -51t-128 51t-51 128t51 128t128 51t128 -51t51 -128z" />
    <glyph glyph-name="plusminus" unicode="&#xb1;" horiz-adv-x="666" 
d="M31 30v152h604v-152h-604zM251 485v121h164v-121h220v-152h-220v-121h-164v121h-220v152h220z" />
    <glyph glyph-name="twosuperior" unicode="&#xb2;" horiz-adv-x="450" 
d="M53 379l182 147q19 16 19 33q0 30 -32 30q-18 0 -30 -14t-14 -39l-143 16q8 82 65 125t134 43q74 0 127 -36t53 -109q0 -49 -22.5 -80t-64.5 -61l-66 -46h154v-126h-362v117z" />
    <glyph glyph-name="threesuperior" unicode="&#xb3;" horiz-adv-x="450" 
d="M349 496q32 -11 49.5 -38t17.5 -61q0 -72 -53.5 -109t-126.5 -37q-72 0 -127 34.5t-72 102.5l136 33q4 -18 18 -31.5t33 -13.5q42 0 42 30q0 19 -15.5 26t-47.5 7h-42v103h47q51 0 51 31q0 27 -35 27q-15 0 -28 -11t-16 -29l-134 31q19 67 73 98t120 31t117.5 -31.5
t51.5 -93.5q0 -72 -59 -99z" />
    <glyph glyph-name="acute" unicode="&#xb4;" 
d="M242 584h-169l111 144h212z" />
    <glyph glyph-name="mu" unicode="&#xb5;" horiz-adv-x="758" 
d="M80 526h234v-263q0 -37 16.5 -72t49.5 -35q72 0 72 100v270h234v-526h-226v37q-32 -39 -85 -39q-38 0 -61 16v-238h-234v750z" />
    <glyph glyph-name="paragraph" unicode="&#xb6;" horiz-adv-x="646" 
d="M432 -133v699h-52v-699h-154v463q-101 5 -157 53t-56 132q0 58 21 97.5t60 59.5t81.5 28t97.5 8h314v-841h-155z" />
    <glyph glyph-name="periodcentered" unicode="&#xb7;" 
d="M48 289q0 53 39.5 91.5t94.5 38.5q52 0 91 -38.5t39 -91.5q0 -54 -38.5 -91.5t-91.5 -37.5q-55 0 -94.5 37.5t-39.5 91.5z" />
    <glyph glyph-name="cedilla" unicode="&#xb8;" 
d="M159 -240q-75 0 -133 23l34 78q33 -16 85 -16q40 0 40 21q0 18 -37 18q-23 0 -41 -6l-44 34l75 88h117l-50 -53q3 1 16 1q41 0 71.5 -19.5t30.5 -65.5q0 -39 -28.5 -63.5t-62.5 -32t-73 -7.5z" />
    <glyph glyph-name="onesuperior" unicode="&#xb9;" horiz-adv-x="450" 
d="M198 262v288l-75 -52l-71 110l158 100h139v-446h-151z" />
    <glyph glyph-name="ordmasculine" unicode="&#xba;" horiz-adv-x="390" 
d="M195 622q-20 0 -32.5 -13.5t-12.5 -32.5q0 -20 13 -34t33 -14t33 14t13 34q0 18 -13.5 32t-33.5 14zM357 576q0 -71 -47 -112.5t-115 -41.5q-66 0 -113 41.5t-47 112.5q0 69 47 109.5t113 40.5q68 0 115 -40.5t47 -109.5z" />
    <glyph glyph-name="guillemotright" unicode="&#xbb;" horiz-adv-x="580" 
d="M158 26l-130 83l115 165l-115 165l130 83l175 -248zM388 26l-130 83l115 165l-115 165l130 83l175 -248z" />
    <glyph glyph-name="onequarter" unicode="&#xbc;" horiz-adv-x="1000" 
d="M386 -27l-99 40l346 726l99 -45zM198 262v288l-75 -52l-71 110l158 100h139v-446h-151zM773 309h-2l-75 -113h77v113zM907 79v-79h-136v79h-215v122l169 245h182v-250h60v-117h-60z" />
    <glyph glyph-name="onehalf" unicode="&#xbd;" horiz-adv-x="1000" 
d="M386 -27l-99 40l346 726l99 -45zM614 117l182 147q19 16 19 33q0 30 -32 30q-18 0 -30 -14t-14 -39l-143 16q8 82 65 125t134 43q74 0 127 -36t53 -109q0 -49 -22.5 -80t-64.5 -61l-66 -46h154v-126h-362v117zM198 262v288l-75 -52l-71 110l158 100h139v-446h-151z" />
    <glyph glyph-name="threequarters" unicode="&#xbe;" horiz-adv-x="1000" 
d="M386 -27l-99 40l346 726l99 -45zM349 496q32 -11 49.5 -38t17.5 -61q0 -72 -53.5 -109t-126.5 -37q-72 0 -127 34.5t-72 102.5l136 33q4 -18 18 -31.5t33 -13.5q42 0 42 30q0 19 -15.5 26t-47.5 7h-42v103h47q51 0 51 31q0 27 -35 27q-15 0 -28 -11t-16 -29l-134 31
q19 67 73 98t120 31t117.5 -31.5t51.5 -93.5q0 -72 -59 -99zM773 309h-2l-75 -113h77v113zM907 79v-79h-136v79h-215v122l169 245h182v-250h60v-117h-60z" />
    <glyph glyph-name="questiondown" unicode="&#xbf;" horiz-adv-x="587" 
d="M136 202q36 22 36 50v26h213v-37q0 -54 -24 -88t-74 -69l-17 -12q-33 -24 -33 -44q0 -38 42 -38q31 0 46 22t15 56l215 -28q-11 -121 -90 -179.5t-190 -58.5q-50 0 -95.5 11t-86 34.5t-64.5 65.5t-24 99q0 65 32.5 108t98.5 82zM278 546q52 0 88 -35t36 -86
q0 -50 -36 -85.5t-88 -35.5t-88 35.5t-36 85.5q0 51 36 86t88 35z" />
    <glyph glyph-name="Agrave" unicode="&#xc0;" horiz-adv-x="776" 
d="M331 764l-154 144h212l111 -144h-169zM443 286l-57 175l-58 -175h115zM-16 0l279 708h253l276 -708h-259l-37 104h-225l-35 -104h-252z" />
    <glyph glyph-name="Aacute" unicode="&#xc1;" horiz-adv-x="776" 
d="M447 764h-169l111 144h212zM443 286l-57 175l-58 -175h115zM-16 0l279 708h253l276 -708h-259l-37 104h-225l-35 -104h-252z" />
    <glyph glyph-name="Acircumflex" unicode="&#xc2;" horiz-adv-x="776" 
d="M456 764l-67 68l-67 -68h-152l137 144h169l134 -144h-154zM443 286l-57 175l-58 -175h115zM-16 0l279 708h253l276 -708h-259l-37 104h-225l-35 -104h-252z" />
    <glyph glyph-name="Atilde" unicode="&#xc3;" horiz-adv-x="776" 
d="M499 900h79q-4 -62 -33.5 -100.5t-80.5 -38.5q-38 0 -81 23q-41 22 -63 22q-30 0 -37 -36h-80q3 59 33 97.5t80 38.5q37 0 83 -24q43 -22 65 -22q28 0 35 40zM443 286l-57 175l-58 -175h115zM-16 0l279 708h253l276 -708h-259l-37 104h-225l-35 -104h-252z" />
    <glyph glyph-name="Adieresis" unicode="&#xc4;" horiz-adv-x="776" 
d="M166 858q0 40 30 69.5t71 29.5q40 0 69.5 -29.5t29.5 -69.5q0 -41 -29.5 -69.5t-69.5 -28.5q-42 0 -71.5 28t-29.5 70zM415 858q0 40 30 69.5t71 29.5q40 0 69.5 -29.5t29.5 -69.5q0 -41 -29.5 -69.5t-69.5 -28.5q-42 0 -71.5 28t-29.5 70zM443 286l-57 175l-58 -175h115
zM-16 0l279 708h253l276 -708h-259l-37 104h-225l-35 -104h-252z" />
    <glyph glyph-name="Aring" unicode="&#xc5;" horiz-adv-x="776" 
d="M449 857q0 25 -17.5 42t-42.5 17t-42.5 -17t-17.5 -42t17.5 -42t42.5 -17t42.5 17t17.5 42zM504 857q0 -48 -34 -81t-81 -33t-81 33t-34 81t34 81t81 33t81 -33t34 -81zM443 286l-57 175l-58 -175h115zM-16 0l279 708h253l276 -708h-259l-37 104h-225l-35 -104h-252z" />
    <glyph glyph-name="AE" unicode="&#xc6;" horiz-adv-x="1014" 
d="M488 510l-102 -224h106v224h-4zM492 0v104h-177l-49 -104h-266l354 708h610v-198h-253v-61h237v-185h-237v-66h270v-198h-489z" />
    <glyph glyph-name="Ccedilla" unicode="&#xc7;" horiz-adv-x="696" 
d="M389 -240q-75 0 -133 23l34 78q33 -16 85 -16q40 0 40 21q0 18 -37 18q-23 0 -41 -6l-44 34l62 73q-140 21 -230.5 121t-90.5 248q0 167 110.5 270.5t274.5 103.5q81 0 154.5 -26.5t122.5 -71.5l-146 -176q-41 53 -117 53q-61 0 -102 -42t-41 -111q0 -67 41.5 -109
t101.5 -42q75 0 117 57l146 -175q-86 -86 -228 -102l-33 -36q3 1 16 1q41 0 71.5 -19.5t30.5 -65.5q0 -39 -28.5 -63.5t-62.5 -32t-73 -7.5z" />
    <glyph glyph-name="Egrave" unicode="&#xc8;" horiz-adv-x="603" 
d="M262 764l-154 144h212l111 -144h-169zM66 0v708h487v-198h-263v-61h247v-185h-247v-66h280v-198h-504z" />
    <glyph glyph-name="Eacute" unicode="&#xc9;" horiz-adv-x="603" 
d="M361 764h-169l111 144h212zM66 0v708h487v-198h-263v-61h247v-185h-247v-66h280v-198h-504z" />
    <glyph glyph-name="Ecircumflex" unicode="&#xca;" horiz-adv-x="603" 
d="M378 764l-67 68l-67 -68h-152l137 144h169l134 -144h-154zM66 0v708h487v-198h-263v-61h247v-185h-247v-66h280v-198h-504z" />
    <glyph glyph-name="Edieresis" unicode="&#xcb;" horiz-adv-x="603" 
d="M87 858q0 40 30 69.5t71 29.5q40 0 69.5 -29.5t29.5 -69.5q0 -41 -29.5 -69.5t-69.5 -28.5q-42 0 -71.5 28t-29.5 70zM336 858q0 40 30 69.5t71 29.5q40 0 69.5 -29.5t29.5 -69.5q0 -41 -29.5 -69.5t-69.5 -28.5q-42 0 -71.5 28t-29.5 70zM66 0v708h487v-198h-263v-61
h247v-185h-247v-66h280v-198h-504z" />
    <glyph glyph-name="Igrave" unicode="&#xcc;" horiz-adv-x="372" 
d="M136 764l-154 144h212l111 -144h-169zM66 0v708h240v-708h-240z" />
    <glyph glyph-name="Iacute" unicode="&#xcd;" horiz-adv-x="372" 
d="M235 764h-169l111 144h212zM66 0v708h240v-708h-240z" />
    <glyph glyph-name="Icircumflex" unicode="&#xce;" horiz-adv-x="372" 
d="M254 764l-67 68l-67 -68h-152l137 144h169l134 -144h-154zM66 0v708h240v-708h-240z" />
    <glyph glyph-name="Idieresis" unicode="&#xcf;" horiz-adv-x="372" 
d="M-36 858q0 40 30 69.5t71 29.5q40 0 69.5 -29.5t29.5 -69.5q0 -41 -29.5 -69.5t-69.5 -28.5q-42 0 -71.5 28t-29.5 70zM213 858q0 40 30 69.5t71 29.5q40 0 69.5 -29.5t29.5 -69.5q0 -41 -29.5 -69.5t-69.5 -28.5q-42 0 -71.5 28t-29.5 70zM66 0v708h240v-708h-240z" />
    <glyph glyph-name="Eth" unicode="&#xd0;" horiz-adv-x="788" 
d="M295 428h128v-142h-128v-82h44q86 0 130 37.5t44 118.5q0 68 -44.5 107t-120.5 39h-53v-78zM66 286h-54v142h54v280h264q70 0 130 -10t115.5 -35.5t94 -64t61.5 -100t23 -140.5q0 -90 -33 -160.5t-90 -112.5t-128.5 -63.5t-152.5 -21.5h-284v286z" />
    <glyph glyph-name="Ntilde" unicode="&#xd1;" horiz-adv-x="791" 
d="M508 900h79q-4 -62 -33.5 -100.5t-80.5 -38.5q-38 0 -81 23q-41 22 -63 22q-30 0 -37 -36h-80q3 59 33 97.5t80 38.5q37 0 83 -24q43 -22 65 -22q28 0 35 40zM66 0v708h237l202 -359h4l-10 359h226v-708h-243l-196 338h-4l10 -338h-226z" />
    <glyph glyph-name="Ograve" unicode="&#xd2;" horiz-adv-x="855" 
d="M369 764l-154 144h212l111 -144h-169zM287 358q0 -69 39.5 -113.5t100.5 -44.5q60 0 100 44.5t40 113.5q0 68 -39.5 110t-100.5 42t-100.5 -42t-39.5 -110zM34 358q0 167 111 268.5t282 101.5t282.5 -101.5t111.5 -268.5q0 -169 -112 -273.5t-282 -104.5t-281.5 104.5
t-111.5 273.5z" />
    <glyph glyph-name="Oacute" unicode="&#xd3;" horiz-adv-x="855" 
d="M488 764h-169l111 144h212zM287 358q0 -69 39.5 -113.5t100.5 -44.5q60 0 100 44.5t40 113.5q0 68 -39.5 110t-100.5 42t-100.5 -42t-39.5 -110zM34 358q0 167 111 268.5t282 101.5t282.5 -101.5t111.5 -268.5q0 -169 -112 -273.5t-282 -104.5t-281.5 104.5t-111.5 273.5
z" />
    <glyph glyph-name="Ocircumflex" unicode="&#xd4;" horiz-adv-x="855" 
d="M493 764l-67 68l-67 -68h-152l137 144h169l134 -144h-154zM287 358q0 -69 39.5 -113.5t100.5 -44.5q60 0 100 44.5t40 113.5q0 68 -39.5 110t-100.5 42t-100.5 -42t-39.5 -110zM34 358q0 167 111 268.5t282 101.5t282.5 -101.5t111.5 -268.5q0 -169 -112 -273.5
t-282 -104.5t-281.5 104.5t-111.5 273.5z" />
    <glyph glyph-name="Otilde" unicode="&#xd5;" horiz-adv-x="855" 
d="M536 900h79q-4 -62 -33.5 -100.5t-80.5 -38.5q-38 0 -81 23q-41 22 -63 22q-30 0 -37 -36h-80q3 59 33 97.5t80 38.5q37 0 83 -24q43 -22 65 -22q28 0 35 40zM287 358q0 -69 39.5 -113.5t100.5 -44.5q60 0 100 44.5t40 113.5q0 68 -39.5 110t-100.5 42t-100.5 -42
t-39.5 -110zM34 358q0 167 111 268.5t282 101.5t282.5 -101.5t111.5 -268.5q0 -169 -112 -273.5t-282 -104.5t-281.5 104.5t-111.5 273.5z" />
    <glyph glyph-name="Odieresis" unicode="&#xd6;" horiz-adv-x="855" 
d="M203 858q0 40 30 69.5t71 29.5q40 0 69.5 -29.5t29.5 -69.5q0 -41 -29.5 -69.5t-69.5 -28.5q-42 0 -71.5 28t-29.5 70zM452 858q0 40 30 69.5t71 29.5q40 0 69.5 -29.5t29.5 -69.5q0 -41 -29.5 -69.5t-69.5 -28.5q-42 0 -71.5 28t-29.5 70zM287 358q0 -69 39.5 -113.5
t100.5 -44.5q60 0 100 44.5t40 113.5q0 68 -39.5 110t-100.5 42t-100.5 -42t-39.5 -110zM34 358q0 167 111 268.5t282 101.5t282.5 -101.5t111.5 -268.5q0 -169 -112 -273.5t-282 -104.5t-281.5 104.5t-111.5 273.5z" />
    <glyph glyph-name="multiply" unicode="&#xd7;" horiz-adv-x="666" 
d="M164 575l171 -163l166 162l112 -104l-167 -165l173 -164l-114 -112l-171 165l-171 -165l-112 105l169 168l-172 162z" />
    <glyph glyph-name="Oslash" unicode="&#xd8;" horiz-adv-x="855" 
d="M425 191q73 0 113 48t40 118q0 39 -10 63l-201 -220q19 -9 58 -9zM427 522q-73 0 -113 -48.5t-40 -118.5q0 -39 9 -62l201 220q-22 9 -57 9zM427 -20q-136 0 -214 60l-93 -101l-94 80l92 100q-84 96 -84 239q0 168 111 269t283 101q119 0 210 -53l90 102l94 -81l-89 -96
q88 -97 88 -242q0 -169 -112 -273.5t-282 -104.5z" />
    <glyph glyph-name="Ugrave" unicode="&#xd9;" horiz-adv-x="775" 
d="M329 764l-154 144h212l111 -144h-169zM384 -20q-159 0 -243.5 83t-84.5 215v430h238v-404q0 -51 24.5 -79.5t69.5 -28.5t69.5 28.5t24.5 79.5v404h237v-430q0 -131 -87.5 -214.5t-247.5 -83.5z" />
    <glyph glyph-name="Uacute" unicode="&#xda;" horiz-adv-x="775" 
d="M449 764h-169l111 144h212zM384 -20q-159 0 -243.5 83t-84.5 215v430h238v-404q0 -51 24.5 -79.5t69.5 -28.5t69.5 28.5t24.5 79.5v404h237v-430q0 -131 -87.5 -214.5t-247.5 -83.5z" />
    <glyph glyph-name="Ucircumflex" unicode="&#xdb;" horiz-adv-x="775" 
d="M455 764l-67 68l-67 -68h-152l137 144h169l134 -144h-154zM384 -20q-159 0 -243.5 83t-84.5 215v430h238v-404q0 -51 24.5 -79.5t69.5 -28.5t69.5 28.5t24.5 79.5v404h237v-430q0 -131 -87.5 -214.5t-247.5 -83.5z" />
    <glyph glyph-name="Udieresis" unicode="&#xdc;" horiz-adv-x="775" 
d="M165 858q0 40 30 69.5t71 29.5q40 0 69.5 -29.5t29.5 -69.5q0 -41 -29.5 -69.5t-69.5 -28.5q-42 0 -71.5 28t-29.5 70zM414 858q0 40 30 69.5t71 29.5q40 0 69.5 -29.5t29.5 -69.5q0 -41 -29.5 -69.5t-69.5 -28.5q-42 0 -71.5 28t-29.5 70zM384 -20q-159 0 -243.5 83
t-84.5 215v430h238v-404q0 -51 24.5 -79.5t69.5 -28.5t69.5 28.5t24.5 79.5v404h237v-430q0 -131 -87.5 -214.5t-247.5 -83.5z" />
    <glyph glyph-name="Yacute" unicode="&#xdd;" horiz-adv-x="738" 
d="M455 764h-169l111 144h212zM481 290v-290h-238v290l-267 418h287l112 -208l107 208h280z" />
    <glyph glyph-name="Thorn" unicode="&#xde;" horiz-adv-x="684" 
d="M353 422h-50v-114h50q30 0 51 14.5t21 44.5q0 55 -72 55zM370 127h-67v-127h-237v708h237v-101h67q58 0 107 -12t91.5 -38t67 -74t24.5 -114q0 -123 -83.5 -182.5t-206.5 -59.5z" />
    <glyph glyph-name="germandbls" unicode="&#xdf;" horiz-adv-x="727" 
d="M557 410q62 -16 99.5 -63.5t37.5 -123.5q0 -118 -74.5 -178.5t-196.5 -60.5q-47 0 -108 14v169q27 -10 57 -10q90 0 90 77q0 81 -105 81h-34v169h33q29 0 48 15t19 43q0 24 -17 37.5t-44 13.5q-40 0 -59 -26t-19 -67v-500h-231v493q0 131 81.5 203t237.5 72
q118 0 201 -52.5t83 -153.5q0 -58 -27.5 -96.5t-71.5 -55.5z" />
    <glyph glyph-name="agrave" unicode="&#xe0;" horiz-adv-x="591" 
d="M240 584l-154 144h212l111 -144h-169zM332 332v2q0 47 -60 47q-57 0 -111 -45l-115 114q48 46 114 71t136 25q72 0 123 -20.5t78.5 -59t39.5 -84.5t12 -105v-277h-209v42h-2q-38 -56 -129 -56q-72 0 -127.5 42t-55.5 127q0 52 27 89t74.5 55t97 25.5t107.5 7.5zM347 218
h-13q-113 0 -113 -52q0 -19 17 -30t36 -11q33 0 53 21t20 54v18z" />
    <glyph glyph-name="aacute" unicode="&#xe1;" horiz-adv-x="591" 
d="M360 584h-169l111 144h212zM332 332v2q0 47 -60 47q-57 0 -111 -45l-115 114q48 46 114 71t136 25q72 0 123 -20.5t78.5 -59t39.5 -84.5t12 -105v-277h-209v42h-2q-38 -56 -129 -56q-72 0 -127.5 42t-55.5 127q0 52 27 89t74.5 55t97 25.5t107.5 7.5zM347 218h-13
q-113 0 -113 -52q0 -19 17 -30t36 -11q33 0 53 21t20 54v18z" />
    <glyph glyph-name="acircumflex" unicode="&#xe2;" horiz-adv-x="591" 
d="M367 584l-67 68l-67 -68h-152l137 144h169l134 -144h-154zM332 332v2q0 47 -60 47q-57 0 -111 -45l-115 114q48 46 114 71t136 25q72 0 123 -20.5t78.5 -59t39.5 -84.5t12 -105v-277h-209v42h-2q-38 -56 -129 -56q-72 0 -127.5 42t-55.5 127q0 52 27 89t74.5 55t97 25.5
t107.5 7.5zM347 218h-13q-113 0 -113 -52q0 -19 17 -30t36 -11q33 0 53 21t20 54v18z" />
    <glyph glyph-name="atilde" unicode="&#xe3;" horiz-adv-x="591" 
d="M410 720h79q-4 -62 -33.5 -100.5t-80.5 -38.5q-38 0 -81 23q-41 22 -63 22q-30 0 -37 -36h-80q3 59 33 97.5t80 38.5q37 0 83 -24q43 -22 65 -22q28 0 35 40zM332 332v2q0 47 -60 47q-57 0 -111 -45l-115 114q48 46 114 71t136 25q72 0 123 -20.5t78.5 -59t39.5 -84.5
t12 -105v-277h-209v42h-2q-38 -56 -129 -56q-72 0 -127.5 42t-55.5 127q0 52 27 89t74.5 55t97 25.5t107.5 7.5zM347 218h-13q-113 0 -113 -52q0 -19 17 -30t36 -11q33 0 53 21t20 54v18z" />
    <glyph glyph-name="adieresis" unicode="&#xe4;" horiz-adv-x="591" 
d="M77 678q0 40 30 69.5t71 29.5q40 0 69.5 -29.5t29.5 -69.5q0 -41 -29.5 -69.5t-69.5 -28.5q-42 0 -71.5 28t-29.5 70zM326 678q0 40 30 69.5t71 29.5q40 0 69.5 -29.5t29.5 -69.5q0 -41 -29.5 -69.5t-69.5 -28.5q-42 0 -71.5 28t-29.5 70zM332 332v2q0 47 -60 47
q-57 0 -111 -45l-115 114q48 46 114 71t136 25q72 0 123 -20.5t78.5 -59t39.5 -84.5t12 -105v-277h-209v42h-2q-38 -56 -129 -56q-72 0 -127.5 42t-55.5 127q0 52 27 89t74.5 55t97 25.5t107.5 7.5zM347 218h-13q-113 0 -113 -52q0 -19 17 -30t36 -11q33 0 53 21t20 54v18z
" />
    <glyph glyph-name="aring" unicode="&#xe5;" horiz-adv-x="591" 
d="M361 677q0 25 -17.5 42t-42.5 17t-42.5 -17t-17.5 -42t17.5 -42t42.5 -17t42.5 17t17.5 42zM416 677q0 -48 -34 -81t-81 -33t-81 33t-34 81t34 81t81 33t81 -33t34 -81zM332 332v2q0 47 -60 47q-57 0 -111 -45l-115 114q48 46 114 71t136 25q72 0 123 -20.5t78.5 -59
t39.5 -84.5t12 -105v-277h-209v42h-2q-38 -56 -129 -56q-72 0 -127.5 42t-55.5 127q0 52 27 89t74.5 55t97 25.5t107.5 7.5zM347 218h-13q-113 0 -113 -52q0 -19 17 -30t36 -11q33 0 53 21t20 54v18z" />
    <glyph glyph-name="ae" unicode="&#xe6;" horiz-adv-x="916" 
d="M530 333h159q0 28 -20.5 46t-55.5 18t-57.5 -19.5t-25.5 -44.5zM345 216h-12q-109 0 -109 -50q0 -19 16.5 -29t34.5 -10q32 0 51 20t19 52v17zM616 -20q-52 0 -102.5 22t-80.5 60q-58 -76 -204 -76q-81 0 -142 42t-61 127q0 52 27 89t74.5 55t97 25.5t107.5 7.5v2
q0 47 -60 47q-58 0 -111 -45l-115 114q48 46 114 71t136 25q108 0 158 -61q64 61 157 61q123 0 200 -81.5t77 -206.5q0 -25 -2 -49h-354q2 -27 29.5 -43.5t60.5 -16.5q57 0 86 37l164 -83q-36 -58 -102.5 -90.5t-153.5 -32.5z" />
    <glyph glyph-name="ccedilla" unicode="&#xe7;" horiz-adv-x="526" 
d="M283 -240q-75 0 -133 23l34 78q33 -16 85 -16q40 0 40 21q0 18 -37 18q-23 0 -41 -6l-44 34l66 78q-101 22 -161 94.5t-60 178.5q0 127 88 205t222 78q52 0 106.5 -16.5t84.5 -40.5l-115 -166q-24 29 -69 29q-36 0 -63 -23.5t-27 -65.5t27 -64.5t63 -22.5q44 0 70 28
l116 -162q-69 -55 -174 -61l-32 -34q3 1 16 1q41 0 71.5 -19.5t30.5 -65.5q0 -39 -28.5 -63.5t-62.5 -32t-73 -7.5z" />
    <glyph glyph-name="egrave" unicode="&#xe8;" horiz-adv-x="630" 
d="M268 584l-154 144h212l111 -144h-169zM602 258q0 -25 -2 -49h-354q2 -27 29.5 -43.5t60.5 -16.5q57 0 86 37l164 -83q-36 -58 -102.5 -90.5t-153.5 -32.5q-123 0 -210.5 75t-87.5 208q0 127 84 205t209 78q123 0 200 -81.5t77 -206.5zM244 333h159q0 28 -20.5 46
t-55.5 18t-57.5 -19.5t-25.5 -44.5z" />
    <glyph glyph-name="eacute" unicode="&#xe9;" horiz-adv-x="630" 
d="M388 584h-169l111 144h212zM602 258q0 -25 -2 -49h-354q2 -27 29.5 -43.5t60.5 -16.5q57 0 86 37l164 -83q-36 -58 -102.5 -90.5t-153.5 -32.5q-123 0 -210.5 75t-87.5 208q0 127 84 205t209 78q123 0 200 -81.5t77 -206.5zM244 333h159q0 28 -20.5 46t-55.5 18
t-57.5 -19.5t-25.5 -44.5z" />
    <glyph glyph-name="ecircumflex" unicode="&#xea;" horiz-adv-x="630" 
d="M399 584l-67 68l-67 -68h-152l137 144h169l134 -144h-154zM602 258q0 -25 -2 -49h-354q2 -27 29.5 -43.5t60.5 -16.5q57 0 86 37l164 -83q-36 -58 -102.5 -90.5t-153.5 -32.5q-123 0 -210.5 75t-87.5 208q0 127 84 205t209 78q123 0 200 -81.5t77 -206.5zM244 333h159
q0 28 -20.5 46t-55.5 18t-57.5 -19.5t-25.5 -44.5z" />
    <glyph glyph-name="edieresis" unicode="&#xeb;" horiz-adv-x="630" 
d="M106 678q0 40 30 69.5t71 29.5q40 0 69.5 -29.5t29.5 -69.5q0 -41 -29.5 -69.5t-69.5 -28.5q-42 0 -71.5 28t-29.5 70zM355 678q0 40 30 69.5t71 29.5q40 0 69.5 -29.5t29.5 -69.5q0 -41 -29.5 -69.5t-69.5 -28.5q-42 0 -71.5 28t-29.5 70zM602 258q0 -25 -2 -49h-354
q2 -27 29.5 -43.5t60.5 -16.5q57 0 86 37l164 -83q-36 -58 -102.5 -90.5t-153.5 -32.5q-123 0 -210.5 75t-87.5 208q0 127 84 205t209 78q123 0 200 -81.5t77 -206.5zM244 333h159q0 28 -20.5 46t-55.5 18t-57.5 -19.5t-25.5 -44.5z" />
    <glyph glyph-name="igrave" unicode="&#xec;" horiz-adv-x="339" 
d="M114 584l-154 144h212l111 -144h-169zM54 0v526h231v-526h-231z" />
    <glyph glyph-name="iacute" unicode="&#xed;" horiz-adv-x="339" 
d="M231 584h-169l111 144h212zM54 0v526h231v-526h-231z" />
    <glyph glyph-name="icircumflex" unicode="&#xee;" horiz-adv-x="339" 
d="M239 584l-67 68l-67 -68h-152l137 144h169l134 -144h-154zM54 0v526h231v-526h-231z" />
    <glyph glyph-name="idieresis" unicode="&#xef;" horiz-adv-x="339" 
d="M-52 678q0 40 30 69.5t71 29.5q40 0 69.5 -29.5t29.5 -69.5q0 -41 -29.5 -69.5t-69.5 -28.5q-42 0 -71.5 28t-29.5 70zM197 678q0 40 30 69.5t71 29.5q40 0 69.5 -29.5t29.5 -69.5q0 -41 -29.5 -69.5t-69.5 -28.5q-42 0 -71.5 28t-29.5 70zM54 0v526h231v-526h-231z" />
    <glyph glyph-name="eth" unicode="&#xf0;" horiz-adv-x="664" 
d="M349 531l2 1q-23 23 -55 49l-107 -43l-110 89l107 43q-26 21 -70 49l176 94q33 -23 85 -68l112 45l121 -94l-127 -49q74 -79 111.5 -162.5t37.5 -187.5q0 -154 -86 -235.5t-215 -81.5q-124 0 -211.5 77t-87.5 208q0 125 79.5 197.5t201.5 72.5q15 0 36 -4zM331 352
q-37 0 -61 -25.5t-24 -61.5q0 -37 24 -63t62 -26t62 26t24 63q0 36 -24.5 61.5t-62.5 25.5z" />
    <glyph glyph-name="ntilde" unicode="&#xf1;" horiz-adv-x="666" 
d="M440 720h79q-4 -62 -33.5 -100.5t-80.5 -38.5q-38 0 -81 23q-41 22 -63 22q-30 0 -37 -36h-80q3 59 33 97.5t80 38.5q37 0 83 -24q43 -22 65 -22q28 0 35 40zM53 0v526h225v-58h2q22 31 61.5 51.5t88.5 20.5q53 0 91.5 -19.5t58.5 -52.5t29 -69.5t9 -78.5v-320h-232v280
q0 72 -50 72q-24 0 -38 -18.5t-14 -53.5v-280h-231z" />
    <glyph glyph-name="ograve" unicode="&#xf2;" horiz-adv-x="664" 
d="M272 584l-154 144h212l111 -144h-169zM331 352q-37 0 -61 -25.5t-24 -61.5q0 -37 24 -63t62 -26t62 26t24 63q0 36 -24.5 61.5t-62.5 25.5zM632 265q0 -131 -87.5 -208t-213.5 -77q-124 0 -211.5 77t-87.5 208q0 130 87 205.5t212 75.5q126 0 213.5 -75.5t87.5 -205.5z
" />
    <glyph glyph-name="oacute" unicode="&#xf3;" horiz-adv-x="664" 
d="M393 584h-169l111 144h212zM331 352q-37 0 -61 -25.5t-24 -61.5q0 -37 24 -63t62 -26t62 26t24 63q0 36 -24.5 61.5t-62.5 25.5zM632 265q0 -131 -87.5 -208t-213.5 -77q-124 0 -211.5 77t-87.5 208q0 130 87 205.5t212 75.5q126 0 213.5 -75.5t87.5 -205.5z" />
    <glyph glyph-name="ocircumflex" unicode="&#xf4;" horiz-adv-x="664" 
d="M399 584l-67 68l-67 -68h-152l137 144h169l134 -144h-154zM331 352q-37 0 -61 -25.5t-24 -61.5q0 -37 24 -63t62 -26t62 26t24 63q0 36 -24.5 61.5t-62.5 25.5zM632 265q0 -131 -87.5 -208t-213.5 -77q-124 0 -211.5 77t-87.5 208q0 130 87 205.5t212 75.5
q126 0 213.5 -75.5t87.5 -205.5z" />
    <glyph glyph-name="otilde" unicode="&#xf5;" horiz-adv-x="664" 
d="M442 720h79q-4 -62 -33.5 -100.5t-80.5 -38.5q-38 0 -81 23q-41 22 -63 22q-30 0 -37 -36h-80q3 59 33 97.5t80 38.5q37 0 83 -24q43 -22 65 -22q28 0 35 40zM331 352q-37 0 -61 -25.5t-24 -61.5q0 -37 24 -63t62 -26t62 26t24 63q0 36 -24.5 61.5t-62.5 25.5zM632 265
q0 -131 -87.5 -208t-213.5 -77q-124 0 -211.5 77t-87.5 208q0 130 87 205.5t212 75.5q126 0 213.5 -75.5t87.5 -205.5z" />
    <glyph glyph-name="odieresis" unicode="&#xf6;" horiz-adv-x="664" 
d="M108 678q0 40 30 69.5t71 29.5q40 0 69.5 -29.5t29.5 -69.5q0 -41 -29.5 -69.5t-69.5 -28.5q-42 0 -71.5 28t-29.5 70zM357 678q0 40 30 69.5t71 29.5q40 0 69.5 -29.5t29.5 -69.5q0 -41 -29.5 -69.5t-69.5 -28.5q-42 0 -71.5 28t-29.5 70zM331 352q-37 0 -61 -25.5
t-24 -61.5q0 -37 24 -63t62 -26t62 26t24 63q0 36 -24.5 61.5t-62.5 25.5zM632 265q0 -131 -87.5 -208t-213.5 -77q-124 0 -211.5 77t-87.5 208q0 130 87 205.5t212 75.5q126 0 213.5 -75.5t87.5 -205.5z" />
    <glyph glyph-name="divide" unicode="&#xf7;" horiz-adv-x="666" 
d="M587 230h-508v147h508v-147zM235 111q0 38 29.5 65.5t69.5 27.5t68.5 -27.5t28.5 -65.5q0 -39 -28.5 -67t-68.5 -28t-69.5 28t-29.5 67zM235 495q0 38 29.5 65.5t69.5 27.5t68.5 -27.5t28.5 -65.5q0 -40 -28.5 -67.5t-68.5 -27.5t-69.5 28t-29.5 67z" />
    <glyph glyph-name="oslash" unicode="&#xf8;" horiz-adv-x="664" 
d="M324 366q-41 0 -64.5 -25t-23.5 -65q0 -10 2 -20l107 108q-8 2 -21 2zM334 170q41 0 64.5 24.5t23.5 64.5q0 13 -3 21l-107 -107q6 -3 22 -3zM649 490l-69 -68q52 -58 52 -157q0 -127 -87.5 -206t-213.5 -79q-91 0 -155 43l-80 -80l-86 84l76 75q-54 64 -54 162
q0 127 86 204.5t213 77.5q95 0 158 -43l73 71z" />
    <glyph glyph-name="ugrave" unicode="&#xf9;" horiz-adv-x="663" 
d="M263 584l-154 144h212l111 -144h-169zM610 526v-526h-225v58h-2q-22 -31 -61.5 -51.5t-88.5 -20.5q-53 0 -91.5 19t-58.5 52t-29 69.5t-9 79.5v320h232v-278q0 -72 50 -72q24 0 38 18.5t14 53.5v278h231z" />
    <glyph glyph-name="uacute" unicode="&#xfa;" horiz-adv-x="663" 
d="M401 584h-169l111 144h212zM610 526v-526h-225v58h-2q-22 -31 -61.5 -51.5t-88.5 -20.5q-53 0 -91.5 19t-58.5 52t-29 69.5t-9 79.5v320h232v-278q0 -72 50 -72q24 0 38 18.5t14 53.5v278h231z" />
    <glyph glyph-name="ucircumflex" unicode="&#xfb;" horiz-adv-x="663" 
d="M394 584l-67 68l-67 -68h-152l137 144h169l134 -144h-154zM610 526v-526h-225v58h-2q-22 -31 -61.5 -51.5t-88.5 -20.5q-53 0 -91.5 19t-58.5 52t-29 69.5t-9 79.5v320h232v-278q0 -72 50 -72q24 0 38 18.5t14 53.5v278h231z" />
    <glyph glyph-name="udieresis" unicode="&#xfc;" horiz-adv-x="663" 
d="M104 678q0 40 30 69.5t71 29.5q40 0 69.5 -29.5t29.5 -69.5q0 -41 -29.5 -69.5t-69.5 -28.5q-42 0 -71.5 28t-29.5 70zM353 678q0 40 30 69.5t71 29.5q40 0 69.5 -29.5t29.5 -69.5q0 -41 -29.5 -69.5t-69.5 -28.5q-42 0 -71.5 28t-29.5 70zM610 526v-526h-225v58h-2
q-22 -31 -61.5 -51.5t-88.5 -20.5q-53 0 -91.5 19t-58.5 52t-29 69.5t-9 79.5v320h232v-278q0 -72 50 -72q24 0 38 18.5t14 53.5v278h231z" />
    <glyph glyph-name="yacute" unicode="&#xfd;" horiz-adv-x="638" 
d="M407 584h-169l111 144h212zM201 9l4 11l-213 506h256l78 -277h4l69 277h247l-216 -558q-41 -105 -103.5 -156.5t-172.5 -51.5q-79 0 -131 16l29 190q29 -12 65 -12q63 0 84 55z" />
    <glyph glyph-name="thorn" unicode="&#xfe;" horiz-adv-x="694" 
d="M448 265q0 37 -23 62t-63 25t-65 -25.5t-25 -61.5q0 -38 25 -63.5t65 -25.5q41 0 63.5 24.5t22.5 64.5zM422 540q111 0 175.5 -82.5t64.5 -192.5q0 -112 -64 -195.5t-175 -83.5q-40 0 -77.5 14.5t-61.5 40.5h-2v-281h-229v996h229v-271h2q24 26 61.5 40.5t76.5 14.5z" />
    <glyph glyph-name="ydieresis" unicode="&#xff;" horiz-adv-x="638" 
d="M103 678q0 40 30 69.5t71 29.5q40 0 69.5 -29.5t29.5 -69.5q0 -41 -29.5 -69.5t-69.5 -28.5q-42 0 -71.5 28t-29.5 70zM352 678q0 40 30 69.5t71 29.5q40 0 69.5 -29.5t29.5 -69.5q0 -41 -29.5 -69.5t-69.5 -28.5q-42 0 -71.5 28t-29.5 70zM201 9l4 11l-213 506h256
l78 -277h4l69 277h247l-216 -558q-41 -105 -103.5 -156.5t-172.5 -51.5q-79 0 -131 16l29 190q29 -12 65 -12q63 0 84 55z" />
    <glyph glyph-name="Amacron" unicode="&#x100;" horiz-adv-x="776" 
d="M206 791v96h360v-96h-360zM443 286l-57 175l-58 -175h115zM-16 0l279 708h253l276 -708h-259l-37 104h-225l-35 -104h-252z" />
    <glyph glyph-name="amacron" unicode="&#x101;" horiz-adv-x="591" 
d="M123 611v96h360v-96h-360zM332 332v2q0 47 -60 47q-57 0 -111 -45l-115 114q48 46 114 71t136 25q72 0 123 -20.5t78.5 -59t39.5 -84.5t12 -105v-277h-209v42h-2q-38 -56 -129 -56q-72 0 -127.5 42t-55.5 127q0 52 27 89t74.5 55t97 25.5t107.5 7.5zM347 218h-13
q-113 0 -113 -52q0 -19 17 -30t36 -11q33 0 53 21t20 54v18z" />
    <glyph glyph-name="Abreve" unicode="&#x102;" horiz-adv-x="776" 
d="M385 764q-170 0 -180 144h110q4 -39 70 -39t70 39h110q-10 -144 -180 -144zM443 286l-57 175l-58 -175h115zM-16 0l279 708h253l276 -708h-259l-37 104h-225l-35 -104h-252z" />
    <glyph glyph-name="abreve" unicode="&#x103;" horiz-adv-x="591" 
d="M305 584q-170 0 -180 144h110q4 -39 70 -39t70 39h110q-10 -144 -180 -144zM332 332v2q0 47 -60 47q-57 0 -111 -45l-115 114q48 46 114 71t136 25q72 0 123 -20.5t78.5 -59t39.5 -84.5t12 -105v-277h-209v42h-2q-38 -56 -129 -56q-72 0 -127.5 42t-55.5 127q0 52 27 89
t74.5 55t97 25.5t107.5 7.5zM347 218h-13q-113 0 -113 -52q0 -19 17 -30t36 -11q33 0 53 21t20 54v18z" />
    <glyph glyph-name="Aogonek" unicode="&#x104;" horiz-adv-x="776" 
d="M443 286l-57 175l-58 -175h115zM541 -240q-51 0 -89 21.5t-38 72.5q0 30 20.5 59.5t42 47t56.5 39.5l-37 104h-225l-35 -104h-252l279 708h253l276 -708h-122q-64 -45 -88.5 -69.5t-24.5 -42.5q0 -20 23 -20q26 0 56 18l44 -83q-66 -43 -139 -43z" />
    <glyph glyph-name="aogonek" unicode="&#x105;" horiz-adv-x="591" 
d="M347 218h-13q-113 0 -113 -52q0 -19 17 -30t36 -11q33 0 53 21t20 54v18zM347 -240q-51 0 -89 21.5t-38 72.5q0 30 20.5 59.5t42 47t56.5 39.5h1v42h-2q-38 -56 -129 -56q-72 0 -127.5 42t-55.5 127q0 52 27 89t74.5 55t97 25.5t107.5 7.5v2q0 47 -60 47q-57 0 -111 -45
l-115 114q48 46 114 71t136 25q72 0 123 -20.5t78.5 -59t39.5 -84.5t12 -105v-277h-73q-64 -45 -88.5 -69.5t-24.5 -42.5q0 -20 23 -20q26 0 56 18l44 -83q-66 -43 -139 -43z" />
    <glyph glyph-name="Cacute" unicode="&#x106;" horiz-adv-x="696" 
d="M484 764h-169l111 144h212zM34 354q0 167 110.5 270.5t274.5 103.5q81 0 154.5 -26.5t122.5 -71.5l-146 -176q-41 53 -117 53q-61 0 -102 -42t-41 -111q0 -67 41.5 -109t101.5 -42q75 0 117 57l146 -175q-105 -105 -277 -105q-163 0 -274 104.5t-111 269.5z" />
    <glyph glyph-name="cacute" unicode="&#x107;" horiz-adv-x="526" 
d="M401 584h-169l111 144h212zM339 -20q-135 0 -221 77.5t-86 205.5q0 127 88 205t222 78q52 0 106.5 -16.5t84.5 -40.5l-115 -166q-24 29 -69 29q-36 0 -63 -23.5t-27 -65.5t27 -64.5t63 -22.5q44 0 70 28l116 -162q-34 -27 -87 -44.5t-109 -17.5z" />
    <glyph glyph-name="Ccircumflex" unicode="&#x108;" horiz-adv-x="696" 
d="M499 764l-67 68l-67 -68h-152l137 144h169l134 -144h-154zM34 354q0 167 110.5 270.5t274.5 103.5q81 0 154.5 -26.5t122.5 -71.5l-146 -176q-41 53 -117 53q-61 0 -102 -42t-41 -111q0 -67 41.5 -109t101.5 -42q75 0 117 57l146 -175q-105 -105 -277 -105
q-163 0 -274 104.5t-111 269.5z" />
    <glyph glyph-name="ccircumflex" unicode="&#x109;" horiz-adv-x="526" 
d="M406 584l-67 68l-67 -68h-152l137 144h169l134 -144h-154zM339 -20q-135 0 -221 77.5t-86 205.5q0 127 88 205t222 78q52 0 106.5 -16.5t84.5 -40.5l-115 -166q-24 29 -69 29q-36 0 -63 -23.5t-27 -65.5t27 -64.5t63 -22.5q44 0 70 28l116 -162q-34 -27 -87 -44.5
t-109 -17.5z" />
    <glyph glyph-name="Cdotaccent" unicode="&#x10a;" horiz-adv-x="696" 
d="M318 858q0 44 32 75t77 31q43 0 74.5 -31.5t31.5 -74.5q0 -44 -31.5 -74.5t-74.5 -30.5q-45 0 -77 30.5t-32 74.5zM34 354q0 167 110.5 270.5t274.5 103.5q81 0 154.5 -26.5t122.5 -71.5l-146 -176q-41 53 -117 53q-61 0 -102 -42t-41 -111q0 -67 41.5 -109t101.5 -42
q75 0 117 57l146 -175q-105 -105 -277 -105q-163 0 -274 104.5t-111 269.5z" />
    <glyph glyph-name="cdotaccent" unicode="&#x10b;" horiz-adv-x="526" 
d="M232 678q0 44 32 75t77 31q43 0 74.5 -31.5t31.5 -74.5q0 -44 -31.5 -74.5t-74.5 -30.5q-45 0 -77 30.5t-32 74.5zM339 -20q-135 0 -221 77.5t-86 205.5q0 127 88 205t222 78q52 0 106.5 -16.5t84.5 -40.5l-115 -166q-24 29 -69 29q-36 0 -63 -23.5t-27 -65.5t27 -64.5
t63 -22.5q44 0 70 28l116 -162q-34 -27 -87 -44.5t-109 -17.5z" />
    <glyph glyph-name="Ccaron" unicode="&#x10c;" horiz-adv-x="696" 
d="M500 908h154l-134 -144h-169l-137 144h152l67 -68zM34 354q0 167 110.5 270.5t274.5 103.5q81 0 154.5 -26.5t122.5 -71.5l-146 -176q-41 53 -117 53q-61 0 -102 -42t-41 -111q0 -67 41.5 -109t101.5 -42q75 0 117 57l146 -175q-105 -105 -277 -105q-163 0 -274 104.5
t-111 269.5z" />
    <glyph glyph-name="ccaron" unicode="&#x10d;" horiz-adv-x="526" 
d="M406 728h154l-134 -144h-169l-137 144h152l67 -68zM339 -20q-135 0 -221 77.5t-86 205.5q0 127 88 205t222 78q52 0 106.5 -16.5t84.5 -40.5l-115 -166q-24 29 -69 29q-36 0 -63 -23.5t-27 -65.5t27 -64.5t63 -22.5q44 0 70 28l116 -162q-34 -27 -87 -44.5t-109 -17.5z
" />
    <glyph glyph-name="Dcaron" unicode="&#x10e;" horiz-adv-x="788" 
d="M427 908h154l-134 -144h-169l-137 144h152l67 -68zM348 506h-53v-302h44q86 0 130 37.5t44 118.5q0 68 -44.5 107t-120.5 39zM350 0h-284v708h264q70 0 130 -10t115.5 -35.5t94 -64t61.5 -100t23 -140.5q0 -90 -33 -160.5t-90 -112.5t-128.5 -63.5t-152.5 -21.5z" />
    <glyph glyph-name="dcaron" unicode="&#x10f;" horiz-adv-x="694" 
d="M720 708h189l-87 -177h-164zM246 265q0 -40 22.5 -64.5t63.5 -24.5q40 0 65 25.5t25 63.5q0 36 -25 61.5t-65 25.5t-63 -25t-23 -62zM32 265q0 110 64.5 192.5t175.5 82.5q39 0 76.5 -15t60.5 -41h2v272h230v-756h-207v55h-2q-23 -32 -67 -50.5t-93 -18.5
q-112 0 -176 83.5t-64 195.5z" />
    <glyph glyph-name="Dcroat" unicode="&#x110;" horiz-adv-x="788" 
d="M295 428h128v-142h-128v-82h44q86 0 130 37.5t44 118.5q0 68 -44.5 107t-120.5 39h-53v-78zM66 286h-54v142h54v280h264q70 0 130 -10t115.5 -35.5t94 -64t61.5 -100t23 -140.5q0 -90 -33 -160.5t-90 -112.5t-128.5 -63.5t-152.5 -21.5h-284v286z" />
    <glyph glyph-name="dcroat" unicode="&#x111;" horiz-adv-x="694" 
d="M246 265q0 -40 22.5 -64.5t63.5 -24.5q40 0 65 25.5t25 63.5q0 36 -25 61.5t-65 25.5t-63 -25t-23 -62zM293 570v110h118v76h230v-76h33v-110h-33v-570h-207v55h-2q-23 -32 -67 -50.5t-93 -18.5q-112 0 -176 83.5t-64 195.5q0 110 64.5 192.5t175.5 82.5q39 0 76.5 -15
t60.5 -41h2v86h-118z" />
    <glyph glyph-name="Emacron" unicode="&#x112;" horiz-adv-x="603" 
d="M126 791v96h360v-96h-360zM66 0v708h487v-198h-263v-61h247v-185h-247v-66h280v-198h-504z" />
    <glyph glyph-name="emacron" unicode="&#x113;" horiz-adv-x="630" 
d="M152 611v96h360v-96h-360zM602 258q0 -25 -2 -49h-354q2 -27 29.5 -43.5t60.5 -16.5q57 0 86 37l164 -83q-36 -58 -102.5 -90.5t-153.5 -32.5q-123 0 -210.5 75t-87.5 208q0 127 84 205t209 78q123 0 200 -81.5t77 -206.5zM244 333h159q0 28 -20.5 46t-55.5 18
t-57.5 -19.5t-25.5 -44.5z" />
    <glyph glyph-name="Ebreve" unicode="&#x114;" horiz-adv-x="603" 
d="M313 764q-170 0 -180 144h110q4 -39 70 -39t70 39h110q-10 -144 -180 -144zM66 0v708h487v-198h-263v-61h247v-185h-247v-66h280v-198h-504z" />
    <glyph glyph-name="ebreve" unicode="&#x115;" horiz-adv-x="630" 
d="M330 584q-170 0 -180 144h110q4 -39 70 -39t70 39h110q-10 -144 -180 -144zM602 258q0 -25 -2 -49h-354q2 -27 29.5 -43.5t60.5 -16.5q57 0 86 37l164 -83q-36 -58 -102.5 -90.5t-153.5 -32.5q-123 0 -210.5 75t-87.5 208q0 127 84 205t209 78q123 0 200 -81.5t77 -206.5
zM244 333h159q0 28 -20.5 46t-55.5 18t-57.5 -19.5t-25.5 -44.5z" />
    <glyph glyph-name="Edotaccent" unicode="&#x116;" horiz-adv-x="603" 
d="M207 858q0 44 32 75t77 31q43 0 74.5 -31.5t31.5 -74.5q0 -44 -31.5 -74.5t-74.5 -30.5q-45 0 -77 30.5t-32 74.5zM66 0v708h487v-198h-263v-61h247v-185h-247v-66h280v-198h-504z" />
    <glyph glyph-name="edotaccent" unicode="&#x117;" horiz-adv-x="630" 
d="M222 678q0 44 32 75t77 31q43 0 74.5 -31.5t31.5 -74.5q0 -44 -31.5 -74.5t-74.5 -30.5q-45 0 -77 30.5t-32 74.5zM602 258q0 -25 -2 -49h-354q2 -27 29.5 -43.5t60.5 -16.5q57 0 86 37l164 -83q-36 -58 -102.5 -90.5t-153.5 -32.5q-123 0 -210.5 75t-87.5 208
q0 127 84 205t209 78q123 0 200 -81.5t77 -206.5zM244 333h159q0 28 -20.5 46t-55.5 18t-57.5 -19.5t-25.5 -44.5z" />
    <glyph glyph-name="Eogonek" unicode="&#x118;" horiz-adv-x="603" 
d="M66 0v708h487v-198h-263v-61h247v-185h-247v-66h280v-198h-22q-64 -45 -88.5 -69.5t-24.5 -42.5q0 -20 23 -20q26 0 56 18l44 -83q-66 -43 -139 -43q-51 0 -89 21.5t-38 72.5q0 30 20.5 59.5t42 47t56.5 39.5h-345z" />
    <glyph glyph-name="eogonek" unicode="&#x119;" horiz-adv-x="630" 
d="M244 333h159q0 28 -20.5 46t-55.5 18t-57.5 -19.5t-25.5 -44.5zM305 -240q-51 0 -89 21.5t-38 72.5q0 68 95 131q-103 15 -172 88t-69 190q0 127 84 205t209 78q123 0 200 -81.5t77 -206.5q0 -25 -2 -49h-354q2 -27 29.5 -43.5t60.5 -16.5q57 0 86 37l164 -83
q-54 -87 -166 -112q-99 -70 -99 -103q0 -20 23 -20q26 0 56 18l44 -83q-66 -43 -139 -43z" />
    <glyph glyph-name="Ecaron" unicode="&#x11a;" horiz-adv-x="603" 
d="M379 908h154l-134 -144h-169l-137 144h152l67 -68zM66 0v708h487v-198h-263v-61h247v-185h-247v-66h280v-198h-504z" />
    <glyph glyph-name="ecaron" unicode="&#x11b;" horiz-adv-x="630" 
d="M397 728h154l-134 -144h-169l-137 144h152l67 -68zM602 258q0 -25 -2 -49h-354q2 -27 29.5 -43.5t60.5 -16.5q57 0 86 37l164 -83q-36 -58 -102.5 -90.5t-153.5 -32.5q-123 0 -210.5 75t-87.5 208q0 127 84 205t209 78q123 0 200 -81.5t77 -206.5zM244 333h159
q0 28 -20.5 46t-55.5 18t-57.5 -19.5t-25.5 -44.5z" />
    <glyph glyph-name="Gcircumflex" unicode="&#x11c;" horiz-adv-x="762" 
d="M497 764l-67 68l-67 -68h-152l137 144h169l134 -144h-154zM426 -18q-170 0 -281 102t-111 270q0 167 110.5 270.5t273.5 103.5q83 0 157.5 -27t121.5 -74l-139 -167q-47 57 -126 57q-60 0 -106 -45.5t-46 -117.5q0 -78 40 -122.5t122 -44.5q39 0 56 10v54h-114v187h325
v-387q-50 -31 -127.5 -50t-155.5 -19z" />
    <glyph glyph-name="gcircumflex" unicode="&#x11d;" horiz-adv-x="697" 
d="M427 584l-67 68l-67 -68h-152l137 144h169l134 -144h-154zM246 265q0 -40 22.5 -64.5t63.5 -24.5q40 0 65 25.5t25 63.5q0 36 -25 61.5t-65 25.5t-63 -25t-23 -62zM32 265q0 110 64.5 192.5t175.5 82.5q99 0 149 -67h3v53h217v-472q0 -83 -27.5 -142.5t-76 -91.5
t-103.5 -46t-121 -14q-168 0 -281 77l101 153q73 -56 160 -56q53 0 88.5 26.5t35.5 72.5v23h-3q-20 -24 -58.5 -40t-83.5 -16q-116 0 -178 76t-62 189z" />
    <glyph glyph-name="Gbreve" unicode="&#x11e;" horiz-adv-x="762" 
d="M421 764q-170 0 -180 144h110q4 -39 70 -39t70 39h110q-10 -144 -180 -144zM426 -18q-170 0 -281 102t-111 270q0 167 110.5 270.5t273.5 103.5q83 0 157.5 -27t121.5 -74l-139 -167q-47 57 -126 57q-60 0 -106 -45.5t-46 -117.5q0 -78 40 -122.5t122 -44.5q39 0 56 10
v54h-114v187h325v-387q-50 -31 -127.5 -50t-155.5 -19z" />
    <glyph glyph-name="gbreve" unicode="&#x11f;" horiz-adv-x="697" 
d="M353 584q-170 0 -180 144h110q4 -39 70 -39t70 39h110q-10 -144 -180 -144zM246 265q0 -40 22.5 -64.5t63.5 -24.5q40 0 65 25.5t25 63.5q0 36 -25 61.5t-65 25.5t-63 -25t-23 -62zM32 265q0 110 64.5 192.5t175.5 82.5q99 0 149 -67h3v53h217v-472q0 -83 -27.5 -142.5
t-76 -91.5t-103.5 -46t-121 -14q-168 0 -281 77l101 153q73 -56 160 -56q53 0 88.5 26.5t35.5 72.5v23h-3q-20 -24 -58.5 -40t-83.5 -16q-116 0 -178 76t-62 189z" />
    <glyph glyph-name="Gdotaccent" unicode="&#x120;" horiz-adv-x="762" 
d="M309 858q0 44 32 75t77 31q43 0 74.5 -31.5t31.5 -74.5q0 -44 -31.5 -74.5t-74.5 -30.5q-45 0 -77 30.5t-32 74.5zM426 -18q-170 0 -281 102t-111 270q0 167 110.5 270.5t273.5 103.5q83 0 157.5 -27t121.5 -74l-139 -167q-47 57 -126 57q-60 0 -106 -45.5t-46 -117.5
q0 -78 40 -122.5t122 -44.5q39 0 56 10v54h-114v187h325v-387q-50 -31 -127.5 -50t-155.5 -19z" />
    <glyph glyph-name="gdotaccent" unicode="&#x121;" horiz-adv-x="697" 
d="M251 678q0 44 32 75t77 31q43 0 74.5 -31.5t31.5 -74.5q0 -44 -31.5 -74.5t-74.5 -30.5q-45 0 -77 30.5t-32 74.5zM246 265q0 -40 22.5 -64.5t63.5 -24.5q40 0 65 25.5t25 63.5q0 36 -25 61.5t-65 25.5t-63 -25t-23 -62zM32 265q0 110 64.5 192.5t175.5 82.5
q99 0 149 -67h3v53h217v-472q0 -83 -27.5 -142.5t-76 -91.5t-103.5 -46t-121 -14q-168 0 -281 77l101 153q73 -56 160 -56q53 0 88.5 26.5t35.5 72.5v23h-3q-20 -24 -58.5 -40t-83.5 -16q-116 0 -178 76t-62 189z" />
    <glyph glyph-name="Gcommaaccent" unicode="&#x122;" horiz-adv-x="762" 
d="M337 -45h189l-93 -195h-164zM426 -18q-170 0 -281 102t-111 270q0 167 110.5 270.5t273.5 103.5q83 0 157.5 -27t121.5 -74l-139 -167q-47 57 -126 57q-60 0 -106 -45.5t-46 -117.5q0 -78 40 -122.5t122 -44.5q39 0 56 10v54h-114v187h325v-387q-50 -31 -127.5 -50
t-155.5 -19z" />
    <glyph glyph-name="gcommaaccent" unicode="&#x123;" horiz-adv-x="697" 
d="M425 584h-189l93 195h164zM246 265q0 -40 22.5 -64.5t63.5 -24.5q40 0 65 25.5t25 63.5q0 36 -25 61.5t-65 25.5t-63 -25t-23 -62zM32 265q0 110 64.5 192.5t175.5 82.5q99 0 149 -67h3v53h217v-472q0 -83 -27.5 -142.5t-76 -91.5t-103.5 -46t-121 -14q-168 0 -281 77
l101 153q73 -56 160 -56q53 0 88.5 26.5t35.5 72.5v23h-3q-20 -24 -58.5 -40t-83.5 -16q-116 0 -178 76t-62 189z" />
    <glyph glyph-name="Hcircumflex" unicode="&#x124;" horiz-adv-x="802" 
d="M468 764l-67 68l-67 -68h-152l137 144h169l134 -144h-154zM498 0v269h-194v-269h-238v708h237v-240h194v240h239v-708h-238z" />
    <glyph glyph-name="hcircumflex" unicode="&#x125;" horiz-adv-x="666" 
d="M402 796l-67 68l-67 -68h-152l137 144h169l134 -144h-154zM430 540q53 0 91.5 -19.5t58.5 -52.5t29 -69.5t9 -78.5v-320h-232v280q0 72 -50 72q-22 0 -37 -18.5t-15 -54.5v-279h-231v756h231v-288h2q50 72 144 72z" />
    <glyph glyph-name="Hbar" unicode="&#x126;" horiz-adv-x="802" 
d="M303 468h194v52h-194v-52zM498 0v269h-194v-269h-238v708h237v-78h194v78h239v-708h-238z" />
    <glyph glyph-name="hbar" unicode="&#x127;" horiz-adv-x="666" 
d="M20 570v110h33v76h231v-76h117v-110h-117v-102h2q50 72 144 72q53 0 91.5 -19.5t58.5 -52.5t29 -69.5t9 -78.5v-320h-232v280q0 72 -50 72q-22 0 -37 -18.5t-15 -54.5v-279h-231v570h-33z" />
    <glyph glyph-name="Itilde" unicode="&#x128;" horiz-adv-x="372" 
d="M295 900h79q-4 -62 -33.5 -100.5t-80.5 -38.5q-38 0 -81 23q-41 22 -63 22q-30 0 -37 -36h-80q3 59 33 97.5t80 38.5q37 0 83 -24q43 -22 65 -22q28 0 35 40zM66 0v708h240v-708h-240z" />
    <glyph glyph-name="itilde" unicode="&#x129;" horiz-adv-x="339" 
d="M279 720h79q-4 -62 -33.5 -100.5t-80.5 -38.5q-38 0 -81 23q-41 22 -63 22q-30 0 -37 -36h-80q3 59 33 97.5t80 38.5q37 0 83 -24q43 -22 65 -22q28 0 35 40zM54 0v526h231v-526h-231z" />
    <glyph glyph-name="Imacron" unicode="&#x12a;" horiz-adv-x="372" 
d="M6 791v96h360v-96h-360zM66 0v708h240v-708h-240z" />
    <glyph glyph-name="imacron" unicode="&#x12b;" horiz-adv-x="339" 
d="M-9 611v96h360v-96h-360zM54 0v526h231v-526h-231z" />
    <glyph glyph-name="Iogonek" unicode="&#x12e;" horiz-adv-x="372" 
d="M66 0v708h240v-708h-18q-64 -45 -88.5 -69.5t-24.5 -42.5q0 -20 23 -20q26 0 56 18l44 -83q-66 -43 -139 -43q-51 0 -89 21.5t-38 72.5q0 30 20.5 59.5t42 47t56.5 39.5h-85z" />
    <glyph glyph-name="iogonek" unicode="&#x12f;" horiz-adv-x="339" 
d="M50 678q0 48 35.5 83t85.5 35q47 0 82.5 -35t35.5 -83q0 -49 -35 -83t-83 -34q-51 0 -86 33.5t-35 83.5zM54 0v526h231v-526h-9q-64 -45 -88.5 -69.5t-24.5 -42.5q0 -20 23 -20q26 0 56 18l44 -83q-66 -43 -139 -43q-51 0 -89 21.5t-38 72.5q0 30 20.5 59.5t42 47
t56.5 39.5h-85z" />
    <glyph glyph-name="Idotaccent" unicode="&#x130;" horiz-adv-x="372" 
d="M78 858q0 44 32 75t77 31q43 0 74.5 -31.5t31.5 -74.5q0 -44 -31.5 -74.5t-74.5 -30.5q-45 0 -77 30.5t-32 74.5zM66 0v708h240v-708h-240z" />
    <glyph glyph-name="dotlessi" unicode="&#x131;" horiz-adv-x="339" 
d="M54 0v526h231v-526h-231z" />
    <glyph glyph-name="IJ" unicode="&#x132;" horiz-adv-x="938" 
d="M613 -20q-94 0 -168.5 51.5t-94.5 128.5l204 78q10 -41 43 -41q39 0 39 55v456h239v-446q0 -42 -6.5 -79t-24 -75.5t-45.5 -65.5t-76 -44.5t-110 -17.5zM66 0v708h240v-708h-240z" />
    <glyph glyph-name="ij" unicode="&#x133;" horiz-adv-x="675" 
d="M386 678q0 48 35.5 83t84.5 35q48 0 83.5 -35t35.5 -83q0 -50 -35 -83.5t-84 -33.5t-84.5 33.5t-35.5 83.5zM621 526v-514q0 -252 -237 -252q-56 0 -96 12l12 188q19 -5 37 -5q27 0 40 15t13 49v507h231zM50 678q0 48 35.5 83t85.5 35q47 0 82.5 -35t35.5 -83
q0 -49 -35 -83t-83 -34q-51 0 -86 33.5t-35 83.5zM54 0v526h231v-526h-231z" />
    <glyph glyph-name="Jcircumflex" unicode="&#x134;" horiz-adv-x="573" 
d="M457 764l-67 68l-67 -68h-152l137 144h169l134 -144h-154zM248 -20q-94 0 -168.5 51.5t-94.5 128.5l204 78q10 -41 43 -41q39 0 39 55v456h239v-446q0 -42 -6.5 -79t-24 -75.5t-45.5 -65.5t-76 -44.5t-110 -17.5z" />
    <glyph glyph-name="jcircumflex" unicode="&#x135;" horiz-adv-x="346" 
d="M246 584l-67 68l-67 -68h-152l137 144h169l134 -144h-154zM292 526v-514q0 -252 -237 -252q-56 0 -96 12l12 188q19 -5 37 -5q27 0 40 15t13 49v507h231z" />
    <glyph glyph-name="Kcommaaccent" unicode="&#x136;" horiz-adv-x="763" 
d="M317 -45h189l-93 -195h-164zM489 0l-189 282h-2v-282h-232v708h231v-261h2l189 261h280l-266 -324l279 -384h-292z" />
    <glyph glyph-name="kcommaaccent" unicode="&#x137;" horiz-adv-x="674" 
d="M264 -45h189l-93 -195h-164zM287 229h-3v-229h-231v756h231v-431h3l125 201h268l-170 -237l169 -289h-269z" />
    <glyph glyph-name="Lacute" unicode="&#x139;" horiz-adv-x="549" 
d="M267 764h-169l111 144h212zM66 0v708h240v-504h235v-204h-475z" />
    <glyph glyph-name="lacute" unicode="&#x13a;" horiz-adv-x="342" 
d="M222 792h-169l111 144h212zM53 0v756h236v-756h-236z" />
    <glyph glyph-name="Lcommaaccent" unicode="&#x13b;" horiz-adv-x="549" 
d="M220 -45h189l-93 -195h-164zM66 0v708h240v-504h235v-204h-475z" />
    <glyph glyph-name="lcommaaccent" unicode="&#x13c;" horiz-adv-x="342" 
d="M88 -46h189l-93 -195h-164zM53 0v756h236v-756h-236z" />
    <glyph glyph-name="Lcaron" unicode="&#x13d;" horiz-adv-x="549" 
d="M396 708h189l-87 -177h-164zM66 0v708h240v-504h235v-204h-475z" />
    <glyph glyph-name="lcaron" unicode="&#x13e;" horiz-adv-x="342" 
d="M368 708h189l-87 -177h-164zM53 0v756h236v-756h-236z" />
    <glyph glyph-name="Ldot" unicode="&#x13f;" horiz-adv-x="549" 
d="M352 388q0 44 32 75t77 31q43 0 74.5 -31.5t31.5 -74.5q0 -44 -31.5 -74.5t-74.5 -30.5q-45 0 -77 30.5t-32 74.5zM66 0v708h240v-504h235v-204h-475z" />
    <glyph glyph-name="ldot" unicode="&#x140;" horiz-adv-x="524" 
d="M325 388q0 44 32 75t77 31q43 0 74.5 -31.5t31.5 -74.5q0 -44 -31.5 -74.5t-74.5 -30.5q-45 0 -77 30.5t-32 74.5zM53 0v756h236v-756h-236z" />
    <glyph glyph-name="Lslash" unicode="&#x141;" horiz-adv-x="549" 
d="M66 142l-55 -48v190l55 48v376h240v-204l170 146v-189l-170 -145v-112h235v-204h-475v142z" />
    <glyph glyph-name="lslash" unicode="&#x142;" horiz-adv-x="342" 
d="M289 402v-402h-236v221l-41 -38v194l41 39v340h236v-159l41 38v-194z" />
    <glyph glyph-name="Nacute" unicode="&#x143;" horiz-adv-x="791" 
d="M457 764h-169l111 144h212zM66 0v708h237l202 -359h4l-10 359h226v-708h-243l-196 338h-4l10 -338h-226z" />
    <glyph glyph-name="nacute" unicode="&#x144;" horiz-adv-x="666" 
d="M392 584h-169l111 144h212zM53 0v526h225v-58h2q22 31 61.5 51.5t88.5 20.5q53 0 91.5 -19.5t58.5 -52.5t29 -69.5t9 -78.5v-320h-232v280q0 72 -50 72q-24 0 -38 -18.5t-14 -53.5v-280h-231z" />
    <glyph glyph-name="Ncommaaccent" unicode="&#x145;" horiz-adv-x="791" 
d="M315 -45h189l-93 -195h-164zM66 0v708h237l202 -359h4l-10 359h226v-708h-243l-196 338h-4l10 -338h-226z" />
    <glyph glyph-name="ncommaaccent" unicode="&#x146;" horiz-adv-x="666" 
d="M248 -45h189l-93 -195h-164zM53 0v526h225v-58h2q22 31 61.5 51.5t88.5 20.5q53 0 91.5 -19.5t58.5 -52.5t29 -69.5t9 -78.5v-320h-232v280q0 72 -50 72q-24 0 -38 -18.5t-14 -53.5v-280h-231z" />
    <glyph glyph-name="Ncaron" unicode="&#x147;" horiz-adv-x="791" 
d="M464 908h154l-134 -144h-169l-137 144h152l67 -68zM66 0v708h237l202 -359h4l-10 359h226v-708h-243l-196 338h-4l10 -338h-226z" />
    <glyph glyph-name="ncaron" unicode="&#x148;" horiz-adv-x="666" 
d="M400 728h154l-134 -144h-169l-137 144h152l67 -68zM53 0v526h225v-58h2q22 31 61.5 51.5t88.5 20.5q53 0 91.5 -19.5t58.5 -52.5t29 -69.5t9 -78.5v-320h-232v280q0 72 -50 72q-24 0 -38 -18.5t-14 -53.5v-280h-231z" />
    <glyph glyph-name="napostrophe" unicode="&#x149;" horiz-adv-x="831" 
d="M59 708h189l-87 -177h-164zM218 0v526h225v-58h2q22 31 61.5 51.5t88.5 20.5q53 0 91.5 -19.5t58.5 -52.5t29 -69.5t9 -78.5v-320h-232v280q0 72 -50 72q-24 0 -38 -18.5t-14 -53.5v-280h-231z" />
    <glyph glyph-name="Omacron" unicode="&#x14c;" horiz-adv-x="855" 
d="M248 791v96h360v-96h-360zM287 358q0 -69 39.5 -113.5t100.5 -44.5q60 0 100 44.5t40 113.5q0 68 -39.5 110t-100.5 42t-100.5 -42t-39.5 -110zM34 358q0 167 111 268.5t282 101.5t282.5 -101.5t111.5 -268.5q0 -169 -112 -273.5t-282 -104.5t-281.5 104.5t-111.5 273.5z
" />
    <glyph glyph-name="omacron" unicode="&#x14d;" horiz-adv-x="664" 
d="M153 611v96h360v-96h-360zM331 352q-37 0 -61 -25.5t-24 -61.5q0 -37 24 -63t62 -26t62 26t24 63q0 36 -24.5 61.5t-62.5 25.5zM632 265q0 -131 -87.5 -208t-213.5 -77q-124 0 -211.5 77t-87.5 208q0 130 87 205.5t212 75.5q126 0 213.5 -75.5t87.5 -205.5z" />
    <glyph glyph-name="Obreve" unicode="&#x14e;" horiz-adv-x="855" 
d="M427 764q-170 0 -180 144h110q4 -39 70 -39t70 39h110q-10 -144 -180 -144zM287 358q0 -69 39.5 -113.5t100.5 -44.5q60 0 100 44.5t40 113.5q0 68 -39.5 110t-100.5 42t-100.5 -42t-39.5 -110zM34 358q0 167 111 268.5t282 101.5t282.5 -101.5t111.5 -268.5
q0 -169 -112 -273.5t-282 -104.5t-281.5 104.5t-111.5 273.5z" />
    <glyph glyph-name="obreve" unicode="&#x14f;" horiz-adv-x="664" 
d="M333 584q-170 0 -180 144h110q4 -39 70 -39t70 39h110q-10 -144 -180 -144zM331 352q-37 0 -61 -25.5t-24 -61.5q0 -37 24 -63t62 -26t62 26t24 63q0 36 -24.5 61.5t-62.5 25.5zM632 265q0 -131 -87.5 -208t-213.5 -77q-124 0 -211.5 77t-87.5 208q0 130 87 205.5
t212 75.5q126 0 213.5 -75.5t87.5 -205.5z" />
    <glyph glyph-name="Ohungarumlaut" unicode="&#x150;" horiz-adv-x="855" 
d="M638 764h-169l111 144h212zM395 764h-169l111 144h212zM287 358q0 -69 39.5 -113.5t100.5 -44.5q60 0 100 44.5t40 113.5q0 68 -39.5 110t-100.5 42t-100.5 -42t-39.5 -110zM34 358q0 167 111 268.5t282 101.5t282.5 -101.5t111.5 -268.5q0 -169 -112 -273.5t-282 -104.5
t-281.5 104.5t-111.5 273.5z" />
    <glyph glyph-name="ohungarumlaut" unicode="&#x151;" horiz-adv-x="664" 
d="M534 584h-169l111 144h212zM291 584h-169l111 144h212zM331 352q-37 0 -61 -25.5t-24 -61.5q0 -37 24 -63t62 -26t62 26t24 63q0 36 -24.5 61.5t-62.5 25.5zM632 265q0 -131 -87.5 -208t-213.5 -77q-124 0 -211.5 77t-87.5 208q0 130 87 205.5t212 75.5
q126 0 213.5 -75.5t87.5 -205.5z" />
    <glyph glyph-name="OE" unicode="&#x152;" horiz-adv-x="1007" 
d="M444 198h43v312h-34q-80 0 -124 -40.5t-44 -121.5q0 -68 44.5 -109t114.5 -41zM452 708h505v-198h-253v-61h238v-185h-238v-66h270v-198h-522q-70 0 -129.5 11t-113.5 36.5t-92 65.5t-60.5 102t-22.5 141q0 90 33.5 159.5t92.5 110.5t132.5 61.5t159.5 20.5z" />
    <glyph glyph-name="oe" unicode="&#x153;" horiz-adv-x="995" 
d="M609 333h159q0 28 -20.5 46t-55.5 18t-57.5 -19.5t-25.5 -44.5zM331 352q-37 0 -61 -25.5t-24 -61.5q0 -37 24 -63t62 -26t62 26t24 63q0 36 -24.5 61.5t-62.5 25.5zM693 546q121 0 197.5 -81.5t76.5 -206.5q0 -25 -2 -49h-354q2 -27 29.5 -43.5t60.5 -16.5q57 0 86 37
l164 -83q-36 -58 -102 -90.5t-151 -32.5q-60 0 -109.5 20.5t-77.5 51.5q-60 -72 -180 -72q-124 0 -211.5 77t-87.5 208q0 130 87 205.5t212 75.5q117 0 180 -78q71 78 182 78z" />
    <glyph glyph-name="Racute" unicode="&#x154;" horiz-adv-x="714" 
d="M400 764h-169l111 144h212zM294 523v-114h47q83 0 83 59q0 55 -73 55h-57zM66 0v708h305q56 0 104 -11t90.5 -36t67 -71.5t24.5 -111.5q0 -135 -124 -191l180 -287h-274l-136 253h-7v-253h-230z" />
    <glyph glyph-name="racute" unicode="&#x155;" horiz-adv-x="445" 
d="M277 584h-169l111 144h212zM53 0v526h222v-60h2q40 74 129 74q26 0 44 -5l-18 -196q-22 6 -49 6q-44 0 -71.5 -25.5t-27.5 -64.5v-255h-231z" />
    <glyph glyph-name="Rcommaaccent" unicode="&#x156;" horiz-adv-x="714" 
d="M282 -45h189l-93 -195h-164zM294 523v-114h47q83 0 83 59q0 55 -73 55h-57zM66 0v708h305q56 0 104 -11t90.5 -36t67 -71.5t24.5 -111.5q0 -135 -124 -191l180 -287h-274l-136 253h-7v-253h-230z" />
    <glyph glyph-name="rcommaaccent" unicode="&#x157;" horiz-adv-x="445" 
d="M86 -46h189l-93 -195h-164zM53 0v526h222v-60h2q40 74 129 74q26 0 44 -5l-18 -196q-22 6 -49 6q-44 0 -71.5 -25.5t-27.5 -64.5v-255h-231z" />
    <glyph glyph-name="Rcaron" unicode="&#x158;" horiz-adv-x="714" 
d="M406 908h154l-134 -144h-169l-137 144h152l67 -68zM294 523v-114h47q83 0 83 59q0 55 -73 55h-57zM66 0v708h305q56 0 104 -11t90.5 -36t67 -71.5t24.5 -111.5q0 -135 -124 -191l180 -287h-274l-136 253h-7v-253h-230z" />
    <glyph glyph-name="rcaron" unicode="&#x159;" horiz-adv-x="445" 
d="M316 728h154l-134 -144h-169l-137 144h152l67 -68zM53 0v526h222v-60h2q40 74 129 74q26 0 44 -5l-18 -196q-22 6 -49 6q-44 0 -71.5 -25.5t-27.5 -64.5v-255h-231z" />
    <glyph glyph-name="Sacute" unicode="&#x15a;" horiz-adv-x="617" 
d="M396 764h-169l111 144h212zM298 -20q-84 0 -163.5 29t-134.5 78l145 158q26 -29 68 -49t84 -20q53 0 53 33q0 18 -23.5 30.5t-101.5 38.5q-84 27 -133.5 74.5t-49.5 132.5q0 63 26.5 111.5t70.5 76.5t94.5 41.5t105.5 13.5q71 0 143.5 -27.5t126.5 -77.5l-148 -151
q-23 28 -57.5 44.5t-64.5 16.5q-58 0 -58 -32q0 -15 14 -22.5t56 -21.5q40 -13 64.5 -22t62 -28.5t58.5 -41t37.5 -56t16.5 -76.5q0 -120 -87 -186.5t-205 -66.5z" />
    <glyph glyph-name="sacute" unicode="&#x15b;" horiz-adv-x="513" 
d="M333 584h-169l111 144h212zM484 167q0 -50 -22 -88t-58 -58.5t-74.5 -30.5t-78.5 -10q-147 0 -247 75l113 131q54 -49 119 -49q33 0 33 21q0 12 -17 19.5t-66 19.5q-61 15 -104.5 53.5t-43.5 106.5q0 39 15 71.5t38.5 54t54.5 36t62 21t61 6.5q128 0 229 -68l-108 -129
q-53 34 -102 34q-39 0 -39 -22q0 -10 13 -15.5t57 -14.5q71 -14 118 -54.5t47 -109.5z" />
    <glyph glyph-name="Scircumflex" unicode="&#x15c;" horiz-adv-x="617" 
d="M404 764l-67 68l-67 -68h-152l137 144h169l134 -144h-154zM298 -20q-84 0 -163.5 29t-134.5 78l145 158q26 -29 68 -49t84 -20q53 0 53 33q0 18 -23.5 30.5t-101.5 38.5q-84 27 -133.5 74.5t-49.5 132.5q0 63 26.5 111.5t70.5 76.5t94.5 41.5t105.5 13.5
q71 0 143.5 -27.5t126.5 -77.5l-148 -151q-23 28 -57.5 44.5t-64.5 16.5q-58 0 -58 -32q0 -15 14 -22.5t56 -21.5q40 -13 64.5 -22t62 -28.5t58.5 -41t37.5 -56t16.5 -76.5q0 -120 -87 -186.5t-205 -66.5z" />
    <glyph glyph-name="scircumflex" unicode="&#x15d;" horiz-adv-x="513" 
d="M350 584l-67 68l-67 -68h-152l137 144h169l134 -144h-154zM484 167q0 -50 -22 -88t-58 -58.5t-74.5 -30.5t-78.5 -10q-147 0 -247 75l113 131q54 -49 119 -49q33 0 33 21q0 12 -17 19.5t-66 19.5q-61 15 -104.5 53.5t-43.5 106.5q0 39 15 71.5t38.5 54t54.5 36t62 21
t61 6.5q128 0 229 -68l-108 -129q-53 34 -102 34q-39 0 -39 -22q0 -10 13 -15.5t57 -14.5q71 -14 118 -54.5t47 -109.5z" />
    <glyph glyph-name="Scedilla" unicode="&#x15e;" horiz-adv-x="617" 
d="M273 -240q-75 0 -133 23l34 78q33 -16 85 -16q40 0 40 21q0 18 -37 18q-23 0 -41 -6l-44 34l61 72q-142 19 -238 103l145 158q26 -29 68 -49t84 -20q53 0 53 33q0 18 -23.5 30.5t-101.5 38.5q-84 27 -133.5 74.5t-49.5 132.5q0 63 26.5 111.5t70.5 76.5t94.5 41.5
t105.5 13.5q71 0 143.5 -27.5t126.5 -77.5l-148 -151q-23 28 -57.5 44.5t-64.5 16.5q-58 0 -58 -32q0 -15 14 -22.5t56 -21.5q40 -13 64.5 -22t62 -28.5t58.5 -41t37.5 -56t16.5 -76.5q0 -105 -67.5 -168.5t-168.5 -79.5l-35 -38q3 1 16 1q41 0 71.5 -19.5t30.5 -65.5
q0 -39 -28.5 -63.5t-62.5 -32t-73 -7.5z" />
    <glyph glyph-name="scedilla" unicode="&#x15f;" horiz-adv-x="513" 
d="M227 -240q-75 0 -133 23l34 78q33 -16 85 -16q40 0 40 21q0 18 -37 18q-23 0 -41 -6l-44 34l61 72q-117 15 -188 71l113 131q54 -49 119 -49q33 0 33 21q0 12 -17 19.5t-66 19.5q-61 15 -104.5 53.5t-43.5 106.5q0 39 15 71.5t38.5 54t54.5 36t62 21t61 6.5
q128 0 229 -68l-108 -129q-53 34 -102 34q-39 0 -39 -22q0 -10 13 -15.5t57 -14.5q71 -14 118 -54.5t47 -109.5q0 -80 -50.5 -123.5t-124.5 -57.5l-36 -39q3 1 16 1q41 0 71.5 -19.5t30.5 -65.5q0 -39 -28.5 -63.5t-62.5 -32t-73 -7.5z" />
    <glyph glyph-name="Scaron" unicode="&#x160;" horiz-adv-x="617" 
d="M404 908h154l-134 -144h-169l-137 144h152l67 -68zM298 -20q-84 0 -163.5 29t-134.5 78l145 158q26 -29 68 -49t84 -20q53 0 53 33q0 18 -23.5 30.5t-101.5 38.5q-84 27 -133.5 74.5t-49.5 132.5q0 63 26.5 111.5t70.5 76.5t94.5 41.5t105.5 13.5q71 0 143.5 -27.5
t126.5 -77.5l-148 -151q-23 28 -57.5 44.5t-64.5 16.5q-58 0 -58 -32q0 -15 14 -22.5t56 -21.5q40 -13 64.5 -22t62 -28.5t58.5 -41t37.5 -56t16.5 -76.5q0 -120 -87 -186.5t-205 -66.5z" />
    <glyph glyph-name="scaron" unicode="&#x161;" horiz-adv-x="513" 
d="M342 728h154l-134 -144h-169l-137 144h152l67 -68zM484 167q0 -50 -22 -88t-58 -58.5t-74.5 -30.5t-78.5 -10q-147 0 -247 75l113 131q54 -49 119 -49q33 0 33 21q0 12 -17 19.5t-66 19.5q-61 15 -104.5 53.5t-43.5 106.5q0 39 15 71.5t38.5 54t54.5 36t62 21t61 6.5
q128 0 229 -68l-108 -129q-53 34 -102 34q-39 0 -39 -22q0 -10 13 -15.5t57 -14.5q71 -14 118 -54.5t47 -109.5z" />
    <glyph glyph-name="Tcommaaccent" unicode="&#x162;" horiz-adv-x="600" 
d="M218 -45h189l-93 -195h-164zM419 507v-507h-238v507h-174v201h586v-201h-174z" />
    <glyph glyph-name="tcommaaccent" unicode="&#x163;" horiz-adv-x="421" 
d="M163 -45h189l-93 -195h-164zM282 -14q-106 0 -157 45.5t-51 141.5v188h-74v165h73v118h224v-118h114v-165h-114v-140q0 -36 15.5 -50.5t46.5 -14.5q24 0 42 6v-158q-39 -18 -119 -18z" />
    <glyph glyph-name="Tcaron" unicode="&#x164;" horiz-adv-x="600" 
d="M367 908h154l-134 -144h-169l-137 144h152l67 -68zM419 507v-507h-238v507h-174v201h586v-201h-174z" />
    <glyph glyph-name="tcaron" unicode="&#x165;" horiz-adv-x="421" 
d="M378 731h189l-87 -177h-164zM282 -14q-106 0 -157 45.5t-51 141.5v188h-74v165h73v118h224v-118h114v-165h-114v-140q0 -36 15.5 -50.5t46.5 -14.5q24 0 42 6v-158q-39 -18 -119 -18z" />
    <glyph glyph-name="Tbar" unicode="&#x166;" horiz-adv-x="600" 
d="M76 321v110h105v76h-174v201h586v-201h-174v-76h103v-110h-103v-321h-238v321h-105z" />
    <glyph glyph-name="tbar" unicode="&#x167;" horiz-adv-x="421" 
d="M10 209v110h64v42h-74v165h73v118h224v-118h114v-165h-114v-42h82v-110h-82q5 -53 62 -53q24 0 42 6v-158q-39 -18 -119 -18q-106 0 -157 45.5t-51 141.5v36h-64z" />
    <glyph glyph-name="Utilde" unicode="&#x168;" horiz-adv-x="775" 
d="M498 900h79q-4 -62 -33.5 -100.5t-80.5 -38.5q-38 0 -81 23q-41 22 -63 22q-30 0 -37 -36h-80q3 59 33 97.5t80 38.5q37 0 83 -24q43 -22 65 -22q28 0 35 40zM384 -20q-159 0 -243.5 83t-84.5 215v430h238v-404q0 -51 24.5 -79.5t69.5 -28.5t69.5 28.5t24.5 79.5v404h237
v-430q0 -131 -87.5 -214.5t-247.5 -83.5z" />
    <glyph glyph-name="utilde" unicode="&#x169;" horiz-adv-x="663" 
d="M437 720h79q-4 -62 -33.5 -100.5t-80.5 -38.5q-38 0 -81 23q-41 22 -63 22q-30 0 -37 -36h-80q3 59 33 97.5t80 38.5q37 0 83 -24q43 -22 65 -22q28 0 35 40zM610 526v-526h-225v58h-2q-22 -31 -61.5 -51.5t-88.5 -20.5q-53 0 -91.5 19t-58.5 52t-29 69.5t-9 79.5v320
h232v-278q0 -72 50 -72q24 0 38 18.5t14 53.5v278h231z" />
    <glyph glyph-name="Umacron" unicode="&#x16a;" horiz-adv-x="775" 
d="M208 791v96h360v-96h-360zM384 -20q-159 0 -243.5 83t-84.5 215v430h238v-404q0 -51 24.5 -79.5t69.5 -28.5t69.5 28.5t24.5 79.5v404h237v-430q0 -131 -87.5 -214.5t-247.5 -83.5z" />
    <glyph glyph-name="umacron" unicode="&#x16b;" horiz-adv-x="663" 
d="M147 611v96h360v-96h-360zM610 526v-526h-225v58h-2q-22 -31 -61.5 -51.5t-88.5 -20.5q-53 0 -91.5 19t-58.5 52t-29 69.5t-9 79.5v320h232v-278q0 -72 50 -72q24 0 38 18.5t14 53.5v278h231z" />
    <glyph glyph-name="Ubreve" unicode="&#x16c;" horiz-adv-x="775" 
d="M388 764q-170 0 -180 144h110q4 -39 70 -39t70 39h110q-10 -144 -180 -144zM384 -20q-159 0 -243.5 83t-84.5 215v430h238v-404q0 -51 24.5 -79.5t69.5 -28.5t69.5 28.5t24.5 79.5v404h237v-430q0 -131 -87.5 -214.5t-247.5 -83.5z" />
    <glyph glyph-name="ubreve" unicode="&#x16d;" horiz-adv-x="663" 
d="M327 584q-170 0 -180 144h110q4 -39 70 -39t70 39h110q-10 -144 -180 -144zM610 526v-526h-225v58h-2q-22 -31 -61.5 -51.5t-88.5 -20.5q-53 0 -91.5 19t-58.5 52t-29 69.5t-9 79.5v320h232v-278q0 -72 50 -72q24 0 38 18.5t14 53.5v278h231z" />
    <glyph glyph-name="Uring" unicode="&#x16e;" horiz-adv-x="775" 
d="M449 857q0 25 -17.5 42t-42.5 17t-42.5 -17t-17.5 -42t17.5 -42t42.5 -17t42.5 17t17.5 42zM504 857q0 -48 -34 -81t-81 -33t-81 33t-34 81t34 81t81 33t81 -33t34 -81zM384 -20q-159 0 -243.5 83t-84.5 215v430h238v-404q0 -51 24.5 -79.5t69.5 -28.5t69.5 28.5
t24.5 79.5v404h237v-430q0 -131 -87.5 -214.5t-247.5 -83.5z" />
    <glyph glyph-name="uring" unicode="&#x16f;" horiz-adv-x="663" 
d="M385 677q0 25 -17.5 42t-42.5 17t-42.5 -17t-17.5 -42t17.5 -42t42.5 -17t42.5 17t17.5 42zM440 677q0 -48 -34 -81t-81 -33t-81 33t-34 81t34 81t81 33t81 -33t34 -81zM610 526v-526h-225v58h-2q-22 -31 -61.5 -51.5t-88.5 -20.5q-53 0 -91.5 19t-58.5 52t-29 69.5
t-9 79.5v320h232v-278q0 -72 50 -72q24 0 38 18.5t14 53.5v278h231z" />
    <glyph glyph-name="Uhungarumlaut" unicode="&#x170;" horiz-adv-x="775" 
d="M592 764h-169l111 144h212zM349 764h-169l111 144h212zM384 -20q-159 0 -243.5 83t-84.5 215v430h238v-404q0 -51 24.5 -79.5t69.5 -28.5t69.5 28.5t24.5 79.5v404h237v-430q0 -131 -87.5 -214.5t-247.5 -83.5z" />
    <glyph glyph-name="uhungarumlaut" unicode="&#x171;" horiz-adv-x="663" 
d="M531 584h-169l111 144h212zM288 584h-169l111 144h212zM610 526v-526h-225v58h-2q-22 -31 -61.5 -51.5t-88.5 -20.5q-53 0 -91.5 19t-58.5 52t-29 69.5t-9 79.5v320h232v-278q0 -72 50 -72q24 0 38 18.5t14 53.5v278h231z" />
    <glyph glyph-name="Uogonek" unicode="&#x172;" horiz-adv-x="775" 
d="M375 -240q-51 0 -89 21.5t-38 72.5q0 63 91 128q-138 12 -210.5 93t-72.5 203v430h238v-404q0 -51 24.5 -79.5t69.5 -28.5t69.5 28.5t24.5 79.5v404h237v-430q0 -106 -59 -183t-167 -102q-57 -41 -79.5 -64t-22.5 -41q0 -20 23 -20q26 0 56 18l44 -83q-66 -43 -139 -43z
" />
    <glyph glyph-name="uogonek" unicode="&#x173;" horiz-adv-x="663" 
d="M397 -240q-51 0 -89 21.5t-38 72.5q0 30 20.5 59.5t42 47t56.5 39.5h-4v58h-2q-22 -31 -61.5 -51.5t-88.5 -20.5q-53 0 -91.5 19t-58.5 52t-29 69.5t-9 79.5v320h232v-278q0 -72 50 -72q24 0 38 18.5t14 53.5v278h231v-526h-84q-64 -45 -88.5 -69.5t-24.5 -42.5
q0 -20 23 -20q26 0 56 18l44 -83q-66 -43 -139 -43z" />
    <glyph glyph-name="Wcircumflex" unicode="&#x174;" horiz-adv-x="1077" 
d="M604 764l-67 68l-67 -68h-152l137 144h169l134 -144h-154zM536 400l-103 -400h-240l-193 708h252l76 -398h4l82 398h249l89 -398h4l77 398h244l-197 -708h-240l-100 400h-4z" />
    <glyph glyph-name="wcircumflex" unicode="&#x175;" horiz-adv-x="973" 
d="M559 584l-67 68l-67 -68h-152l137 144h169l134 -144h-154zM483 270l-79 -270h-229l-180 526h247l66 -272h4l68 272h222l73 -272h3l64 272h236l-182 -526h-230l-81 270h-2z" />
    <glyph glyph-name="Ycircumflex" unicode="&#x176;" horiz-adv-x="738" 
d="M441 764l-67 68l-67 -68h-152l137 144h169l134 -144h-154zM481 290v-290h-238v290l-267 418h287l112 -208l107 208h280z" />
    <glyph glyph-name="ycircumflex" unicode="&#x177;" horiz-adv-x="638" 
d="M394 584l-67 68l-67 -68h-152l137 144h169l134 -144h-154zM201 9l4 11l-213 506h256l78 -277h4l69 277h247l-216 -558q-41 -105 -103.5 -156.5t-172.5 -51.5q-79 0 -131 16l29 190q29 -12 65 -12q63 0 84 55z" />
    <glyph glyph-name="Ydieresis" unicode="&#x178;" horiz-adv-x="738" 
d="M151 858q0 40 30 69.5t71 29.5q40 0 69.5 -29.5t29.5 -69.5q0 -41 -29.5 -69.5t-69.5 -28.5q-42 0 -71.5 28t-29.5 70zM400 858q0 40 30 69.5t71 29.5q40 0 69.5 -29.5t29.5 -69.5q0 -41 -29.5 -69.5t-69.5 -28.5q-42 0 -71.5 28t-29.5 70zM481 290v-290h-238v290
l-267 418h287l112 -208l107 208h280z" />
    <glyph glyph-name="Zacute" unicode="&#x179;" horiz-adv-x="672" 
d="M411 764h-169l111 144h212zM44 0v199l265 312h-254v197h565v-172l-282 -333h290v-203h-584z" />
    <glyph glyph-name="zacute" unicode="&#x17a;" horiz-adv-x="557" 
d="M344 584h-169l111 144h212zM33 0v161l197 194h-192v171h479v-150l-213 -205h219v-171h-490z" />
    <glyph glyph-name="Zdotaccent" unicode="&#x17b;" horiz-adv-x="672" 
d="M232 858q0 44 32 75t77 31q43 0 74.5 -31.5t31.5 -74.5q0 -44 -31.5 -74.5t-74.5 -30.5q-45 0 -77 30.5t-32 74.5zM44 0v199l265 312h-254v197h565v-172l-282 -333h290v-203h-584z" />
    <glyph glyph-name="zdotaccent" unicode="&#x17c;" horiz-adv-x="557" 
d="M175 678q0 44 32 75t77 31q43 0 74.5 -31.5t31.5 -74.5q0 -44 -31.5 -74.5t-74.5 -30.5q-45 0 -77 30.5t-32 74.5zM33 0v161l197 194h-192v171h479v-150l-213 -205h219v-171h-490z" />
    <glyph glyph-name="Zcaron" unicode="&#x17d;" horiz-adv-x="672" 
d="M410 908h154l-134 -144h-169l-137 144h152l67 -68zM44 0v199l265 312h-254v197h565v-172l-282 -333h290v-203h-584z" />
    <glyph glyph-name="zcaron" unicode="&#x17e;" horiz-adv-x="557" 
d="M350 728h154l-134 -144h-169l-137 144h152l67 -68zM33 0v161l197 194h-192v171h479v-150l-213 -205h219v-171h-490z" />
    <glyph glyph-name="florin" unicode="&#x192;" horiz-adv-x="700" 
d="M679 688l-82 -162q-34 21 -60 21t-40.5 -12t-21.5 -48l-7 -36h132v-147h-162l-52 -254q-39 -189 -234 -189q-89 0 -150 35l77 162q27 -20 54 -20q42 0 56 67l41 199h-114v147h139q10 52 19.5 85t28.5 73.5t44 63.5t67 39t97 16q105 0 168 -40z" />
    <glyph glyph-name="Scommaaccent" unicode="&#x218;" horiz-adv-x="617" 
d="M225 -45h189l-93 -195h-164zM298 -20q-84 0 -163.5 29t-134.5 78l145 158q26 -29 68 -49t84 -20q53 0 53 33q0 18 -23.5 30.5t-101.5 38.5q-84 27 -133.5 74.5t-49.5 132.5q0 63 26.5 111.5t70.5 76.5t94.5 41.5t105.5 13.5q71 0 143.5 -27.5t126.5 -77.5l-148 -151
q-23 28 -57.5 44.5t-64.5 16.5q-58 0 -58 -32q0 -15 14 -22.5t56 -21.5q40 -13 64.5 -22t62 -28.5t58.5 -41t37.5 -56t16.5 -76.5q0 -120 -87 -186.5t-205 -66.5z" />
    <glyph glyph-name="scommaaccent" unicode="&#x219;" horiz-adv-x="513" 
d="M167 -45h189l-93 -195h-164zM484 167q0 -50 -22 -88t-58 -58.5t-74.5 -30.5t-78.5 -10q-147 0 -247 75l113 131q54 -49 119 -49q33 0 33 21q0 12 -17 19.5t-66 19.5q-61 15 -104.5 53.5t-43.5 106.5q0 39 15 71.5t38.5 54t54.5 36t62 21t61 6.5q128 0 229 -68l-108 -129
q-53 34 -102 34q-39 0 -39 -22q0 -10 13 -15.5t57 -14.5q71 -14 118 -54.5t47 -109.5z" />
    <glyph glyph-name="uni021A" unicode="&#x21a;" horiz-adv-x="600" 
d="M218 -45h189l-93 -195h-164zM419 507v-507h-238v507h-174v201h586v-201h-174z" />
    <glyph glyph-name="uni021B" unicode="&#x21b;" horiz-adv-x="421" 
d="M163 -45h189l-93 -195h-164zM282 -14q-106 0 -157 45.5t-51 141.5v188h-74v165h73v118h224v-118h114v-165h-114v-140q0 -36 15.5 -50.5t46.5 -14.5q24 0 42 6v-158q-39 -18 -119 -18z" />
    <glyph glyph-name="circumflex" unicode="&#x2c6;" 
d="M246 584l-67 68l-67 -68h-152l137 144h169l134 -144h-154z" />
    <glyph glyph-name="caron" unicode="&#x2c7;" 
d="M246 728h154l-134 -144h-169l-137 144h152l67 -68z" />
    <glyph glyph-name="uni02C9" unicode="&#x2c9;" 
d="M0 791v96h360v-96h-360z" />
    <glyph glyph-name="breve" unicode="&#x2d8;" 
d="M180 584q-170 0 -180 144h110q4 -39 70 -39t70 39h110q-10 -144 -180 -144z" />
    <glyph glyph-name="dotaccent" unicode="&#x2d9;" 
d="M72 678q0 44 32 75t77 31q43 0 74.5 -31.5t31.5 -74.5q0 -44 -31.5 -74.5t-74.5 -30.5q-45 0 -77 30.5t-32 74.5z" />
    <glyph glyph-name="ring" unicode="&#x2da;" 
d="M240 677q0 25 -17.5 42t-42.5 17t-42.5 -17t-17.5 -42t17.5 -42t42.5 -17t42.5 17t17.5 42zM295 677q0 -48 -34 -81t-81 -33t-81 33t-34 81t34 81t81 33t81 -33t34 -81z" />
    <glyph glyph-name="ogonek" unicode="&#x2db;" 
d="M159 -240q-51 0 -89 21.5t-38 72.5q0 30 20.5 59.5t42 47t56.5 39.5h137q-64 -45 -88.5 -69.5t-24.5 -42.5q0 -20 23 -20q26 0 56 18l44 -83q-66 -43 -139 -43z" />
    <glyph glyph-name="tilde" unicode="&#x2dc;" 
d="M288 720h79q-4 -62 -33.5 -100.5t-80.5 -38.5q-38 0 -81 23q-41 22 -63 22q-30 0 -37 -36h-80q3 59 33 97.5t80 38.5q37 0 83 -24q43 -22 65 -22q28 0 35 40z" />
    <glyph glyph-name="hungarumlaut" unicode="&#x2dd;" 
d="M357 584h-169l111 144h212zM114 584h-169l111 144h212z" />
    <glyph glyph-name="uni0394" unicode="&#x394;" horiz-adv-x="735" 
d="M283 189h149l-77 230zM725 0h-715l266 708h165z" />
    <glyph glyph-name="uni03A9" unicode="&#x3a9;" horiz-adv-x="783" 
d="M733 0h-314v279q93 22 93 134q0 52 -34 86t-87 34q-51 0 -87 -35t-36 -86q0 -112 95 -133v-279h-313v181h142v11q-65 20 -103.5 83.5t-38.5 150.5q0 139 98 217t243 78q146 0 244 -78t98 -216q0 -87 -39 -151t-102 -84v-11h141v-181z" />
    <glyph glyph-name="uni03BC" unicode="&#x3bc;" horiz-adv-x="758" 
d="M80 526h234v-263q0 -37 16.5 -72t49.5 -35q72 0 72 100v270h234v-526h-226v37q-32 -39 -85 -39q-38 0 -61 16v-238h-234v750z" />
    <glyph glyph-name="pi" unicode="&#x3c0;" horiz-adv-x="739" 
d="M686 176v-153q-47 -35 -117 -35q-84 0 -126 35.5t-42 114.5v202h-84v-340h-223v340h-53v186h644v-186h-67v-150q0 -12 7.5 -20t21.5 -8q15 0 39 14z" />
    <glyph glyph-name="endash" unicode="&#x2013;" horiz-adv-x="400" 
d="M30 225v120h340v-120h-340z" />
    <glyph glyph-name="emdash" unicode="&#x2014;" horiz-adv-x="600" 
d="M30 225v120h540v-120h-540z" />
    <glyph glyph-name="quoteleft" unicode="&#x2018;" horiz-adv-x="342" 
d="M231 426h-189l99 282h164z" />
    <glyph glyph-name="quoteright" unicode="&#x2019;" horiz-adv-x="342" 
d="M111 708h189l-99 -282h-164z" />
    <glyph glyph-name="quotesinglbase" unicode="&#x201a;" horiz-adv-x="342" 
d="M111 156h189l-99 -282h-164z" />
    <glyph glyph-name="quotedblleft" unicode="&#x201c;" horiz-adv-x="568" 
d="M226 426h-184l99 282h164zM457 426h-184l94 282h164z" />
    <glyph glyph-name="quotedblright" unicode="&#x201d;" horiz-adv-x="568" 
d="M342 708h184l-99 -282h-164zM111 708h184l-94 -282h-164z" />
    <glyph glyph-name="quotedblbase" unicode="&#x201e;" horiz-adv-x="568" 
d="M342 156h184l-99 -282h-164zM111 156h184l-94 -282h-164z" />
    <glyph glyph-name="dagger" unicode="&#x2020;" horiz-adv-x="619" 
d="M399 341v-474h-184v474h-181v170h180v197h184v-197h187v-170h-186z" />
    <glyph glyph-name="daggerdbl" unicode="&#x2021;" horiz-adv-x="619" 
d="M401 36v-169h-183v169h-184v164h184v175h-184v164h183v169h183v-169h185v-164h-185v-175h185v-164h-184z" />
    <glyph glyph-name="bullet" unicode="&#x2022;" horiz-adv-x="500" 
d="M73 354q0 74 51.5 125.5t125.5 51.5t125.5 -51.5t51.5 -125.5t-51.5 -125.5t-125.5 -51.5t-125.5 51.5t-51.5 125.5z" />
    <glyph glyph-name="ellipsis" unicode="&#x2026;" horiz-adv-x="1000" 
d="M699 113q0 53 39.5 91.5t94.5 38.5q52 0 91 -38.5t39 -91.5q0 -54 -38.5 -91.5t-91.5 -37.5q-55 0 -94.5 37.5t-39.5 91.5zM366 113q0 53 39.5 91.5t94.5 38.5q52 0 91 -38.5t39 -91.5q0 -54 -38.5 -91.5t-91.5 -37.5q-55 0 -94.5 37.5t-39.5 91.5zM34 113
q0 53 39.5 91.5t94.5 38.5q52 0 91 -38.5t39 -91.5q0 -54 -38.5 -91.5t-91.5 -37.5q-55 0 -94.5 37.5t-39.5 91.5z" />
    <glyph glyph-name="perthousand" unicode="&#x2030;" horiz-adv-x="1264" 
d="M307 -27l-99 40l346 726l99 -45zM1053 225q-23 0 -39.5 -16.5t-16.5 -39.5t16.5 -38.5t39.5 -15.5q22 0 38.5 15.5t16.5 38.5t-16.5 39.5t-38.5 16.5zM1053 -12q-76 0 -130.5 53t-54.5 128q0 76 54.5 129t130.5 53t130 -53t54 -129q0 -75 -54 -128t-130 -53zM651 225
q-23 0 -39.5 -16.5t-16.5 -39.5t16.5 -38.5t39.5 -15.5q22 0 38.5 15.5t16.5 38.5t-16.5 39.5t-38.5 16.5zM651 -12q-76 0 -130.5 53t-54.5 128q0 76 54.5 129t130.5 53t130 -53t54 -129q0 -75 -54 -128t-130 -53zM212 594q-23 0 -39.5 -16.5t-16.5 -39.5t16.5 -38.5
t39.5 -15.5q22 0 38.5 15.5t16.5 38.5t-16.5 39.5t-38.5 16.5zM212 357q-76 0 -130.5 53t-54.5 128q0 76 54.5 129t130.5 53t130 -53t54 -129q0 -75 -54 -128t-130 -53z" />
    <glyph glyph-name="guilsinglleft" unicode="&#x2039;" horiz-adv-x="350" 
d="M193 26l-176 248l176 248l129 -83l-115 -165l115 -165z" />
    <glyph glyph-name="guilsinglright" unicode="&#x203a;" horiz-adv-x="350" 
d="M158 26l-130 83l115 165l-115 165l130 83l175 -248z" />
    <glyph glyph-name="fraction" unicode="&#x2044;" horiz-adv-x="100" 
d="M-64 -27l-99 40l346 726l99 -45z" />
    <glyph glyph-name="Euro" unicode="&#x20ac;" horiz-adv-x="700" 
d="M72 335h47q-1 9 -1 22q0 10 1 19h-87l47 131h58q37 106 133 163.5t226 57.5q104 0 167 -24l-66 -167q-51 17 -106 17q-38 0 -72.5 -12.5t-47.5 -34.5h232l-46 -131h-227q-1 -9 -1 -19q0 -13 1 -22h217l-43 -129h-145q12 -21 47 -34t75 -13q76 0 122 27l30 -173
q-61 -33 -175 -33q-123 0 -208 60.5t-115 165.5h-105z" />
    <glyph glyph-name="afii61289" unicode="&#x2113;" horiz-adv-x="500" 
d="M336 557q0 26 -9 44t-26 18q-15 0 -25 -19.5t-10 -49.5v-157q70 71 70 164zM413 136l52 -80q-85 -70 -181 -70q-82 0 -127.5 42.5t-45.5 108.5v25l-54 -45h-2l-54 84l109 86v233q0 85 54 143t138 58q74 0 117 -42.5t43 -112.5q0 -76 -47.5 -148.5t-148.5 -154.5v-101
q0 -33 16.5 -48t40.5 -15q36 0 88 37h2z" />
    <glyph glyph-name="trademark" unicode="&#x2122;" horiz-adv-x="1000" 
d="M446 296v412h164l89 -248l83 248h163v-412h-112v245h-2l-92 -245h-91l-89 245h-2v-245h-111zM152 296v309h-112v103h346v-103h-112v-309h-122z" />
    <glyph glyph-name="Omega" unicode="&#x2126;" horiz-adv-x="783" 
d="M733 0h-314v279q93 22 93 134q0 52 -34 86t-87 34q-51 0 -87 -35t-36 -86q0 -112 95 -133v-279h-313v181h142v11q-65 20 -103.5 83.5t-38.5 150.5q0 139 98 217t243 78q146 0 244 -78t98 -216q0 -87 -39 -151t-102 -84v-11h141v-181z" />
    <glyph glyph-name="estimated" unicode="&#x212e;" horiz-adv-x="800" 
d="M745 355h-535v-240q76 -78 192 -78q84 0 144.5 37.5t111.5 121.5l46 -28q-61 -96 -130 -138t-172 -42q-153 0 -247.5 105.5t-94.5 261.5q0 157 94.5 261t247.5 104q152 0 247.5 -102.5t95.5 -262.5zM210 402h385v193q-82 79 -194 79t-191 -79v-193z" />
    <glyph glyph-name="partialdiff" unicode="&#x2202;" horiz-adv-x="776" 
d="M456 303v2q-27 16 -67 16q-36 0 -55.5 -19.5t-19.5 -55.5q0 -38 20.5 -57.5t42.5 -19.5q43 0 61 32.5t18 101.5zM664 360q0 -49 -6 -95t-25 -98.5t-50 -90.5t-85 -63.5t-125 -25.5q-121 0 -198 67.5t-77 181.5q0 103 68 169t193 66q48 0 87 -17q-9 79 -103 79
q-78 0 -155 -63l-95 154q110 97 263 97q69 0 123.5 -22.5t88.5 -58.5t56 -84.5t31 -96.5t9 -99z" />
    <glyph glyph-name="Delta" unicode="&#x2206;" horiz-adv-x="735" 
d="M283 189h149l-77 230zM725 0h-715l266 708h165z" />
    <glyph glyph-name="product" unicode="&#x220f;" horiz-adv-x="765" 
d="M711 -214h-190v837h-277v-837h-188v1000h655v-1000z" />
    <glyph glyph-name="summation" unicode="&#x2211;" horiz-adv-x="684" 
d="M664 -214h-637v133l281 373l-270 361v133h615v-163h-382l237 -330l-253 -344h409v-163z" />
    <glyph glyph-name="minus" unicode="&#x2212;" horiz-adv-x="666" 
d="M74 376h518v-144h-518v144z" />
    <glyph glyph-name="uni2215" unicode="&#x2215;" horiz-adv-x="100" 
d="M-64 -27l-99 40l346 726l99 -45z" />
    <glyph glyph-name="uni2219" unicode="&#x2219;" 
d="M48 289q0 53 39.5 91.5t94.5 38.5q52 0 91 -38.5t39 -91.5q0 -54 -38.5 -91.5t-91.5 -37.5q-55 0 -94.5 37.5t-39.5 91.5z" />
    <glyph glyph-name="radical" unicode="&#x221a;" horiz-adv-x="601" 
d="M435 786h174l-217 -1000h-146l-138 283l-51 -23l-67 138l202 90l95 -205z" />
    <glyph glyph-name="infinity" unicode="&#x221e;" horiz-adv-x="859" 
d="M338 265q-60 56 -96 56q-22 0 -36.5 -16t-14.5 -39q0 -25 14.5 -39.5t39.5 -14.5q40 0 93 53zM668 266q0 26 -14.5 41t-39.5 15q-40 0 -93 -57q50 -54 96 -54q23 0 37 15.5t14 39.5zM814 269q0 -85 -53 -142.5t-144 -57.5q-100 0 -187 94q-43 -45 -84.5 -69t-99.5 -24
q-91 0 -146 56t-55 142q0 84 53.5 139.5t143.5 55.5q60 0 103.5 -26t84.5 -73q85 100 188 100q90 0 143 -55.5t53 -139.5z" />
    <glyph glyph-name="integral" unicode="&#x222b;" horiz-adv-x="655" 
d="M552 683q0 -34 -22.5 -58t-57.5 -24q-19 0 -31 6.5t-25 23t-14 17.5q-7 -17 -7 -46q0 -7 0.5 -18.5t0.5 -15.5q0 26 -1 41v-17q0 -12 0.5 -34t0.5 -34v-409q0 -61 -4 -108q-4 -46 -13.5 -81.5t-29.5 -69t-56.5 -51.5t-88.5 -18q-49 0 -93 27.5t-44 80.5q0 20 10 36
q24 39 71 39q18 0 30 -7t22 -20t14 -16q5 14 7 48q1 7 1 20q0 7 -0.5 19.5t-0.5 18.5v486q0 265 195 265q46 0 91 -25t45 -76z" />
    <glyph glyph-name="approxequal" unicode="&#x2248;" horiz-adv-x="666" 
d="M496 251h123q-5 -36 -15 -67t-28.5 -62t-51 -49t-75.5 -18q-44 0 -128 30.5t-114 30.5t-40 -56h-121q7 86 49 148t121 62q42 0 122 -28t122 -28q24 0 36 37zM496 485h123q-9 -110 -57 -161t-116 -51q-42 0 -124.5 29.5t-114.5 29.5q-26 0 -38 -41h-121q7 83 50 138
t128 55q40 0 117 -26t115 -26q33 0 38 53z" />
    <glyph glyph-name="notequal" unicode="&#x2260;" horiz-adv-x="666" 
d="M597 58h-282l-74 -148l-142 67l44 81h-74v152h153l24.5 44.5t23.5 45.5h-201v152h280l38.5 73.5t39.5 73.5l69.5 -33l70.5 -33l-43 -81h73v-152h-152q-8 -16 -24.5 -45.5t-23.5 -44.5h200v-152z" />
    <glyph glyph-name="lessequal" unicode="&#x2264;" horiz-adv-x="666" 
d="M588 327v-164l-510 203v134l510 203v-162l-274 -111zM588 7h-510v139h510v-139z" />
    <glyph glyph-name="greaterequal" unicode="&#x2265;" horiz-adv-x="666" 
d="M588 366l-510 -203v164l274 103l-274 111v162l510 -203v-134zM588 7h-510v139h510v-139z" />
    <glyph glyph-name="lozenge" unicode="&#x25ca;" horiz-adv-x="619" 
d="M395 356l-87 197l-84 -197l84 -196zM378 747l190 -391l-190 -391h-140l-185 391l187 391h138z" />
    <glyph glyph-name="dotlessj" unicode="&#xf6be;" horiz-adv-x="346" 
d="M292 526v-514q0 -252 -237 -252q-56 0 -96 12l12 188q19 -5 37 -5q27 0 40 15t13 49v507h231z" />
    <glyph glyph-name="commaaccent" unicode="&#xf6c3;" 
d="M101 -45h189l-93 -195h-164z" />
    <glyph glyph-name="uniF8FF" unicode="&#xf8ff;" horiz-adv-x="512" 
d="M0 718h512v-718h-512v718zM50 50h412v617h-412v-617zM271 234h-46l-2 17q0 56 13 81q17 33 46 59q30 29 40 46.5t10 36.5q0 36 -22.5 60.5t-53.5 24.5q-71 0 -82 -95l-50 8q6 69 42 103t93 34q55 0 89.5 -36t34.5 -95q0 -34 -13 -60t-50 -60q-37 -33 -43 -52
q-6 -20 -6 -72zM278 117h-56v67h56v-67z" />
    <glyph glyph-name="fi" unicode="&#xfb01;" horiz-adv-x="756" 
d="M441 771l-15 -173q-22 9 -45 9q-61 0 -61 -74v-7h111v-165h-111v-361h-230v361h-90v165h90v12q0 248 246 248q67 0 105 -15zM467 678q0 48 35.5 83t85.5 35q47 0 82.5 -35t35.5 -83q0 -49 -35 -83t-83 -34q-51 0 -86 33.5t-35 83.5zM471 0v526h231v-526h-231z" />
    <glyph glyph-name="fl" unicode="&#xfb02;" horiz-adv-x="759" 
d="M441 771l-15 -173q-22 9 -45 9q-61 0 -61 -74v-7h111v-165h-111v-361h-230v361h-90v165h90v12q0 248 246 248q67 0 105 -15zM470 0v756h236v-756h-236z" />
    <glyph glyph-name="ccedilla.sc" horiz-adv-x="579" 
d="M327 -240q-75 0 -133 23l34 78q33 -16 85 -16q40 0 40 21q0 18 -37 18q-23 0 -41 -6l-44 34l63 75q-120 20 -192 103.5t-72 207.5q0 142 96.5 229t246.5 87q59 0 119 -18.5t95 -44.5l-122 -176q-30 36 -84 36q-46 0 -79.5 -30t-33.5 -83q0 -54 33.5 -83.5t79.5 -29.5
q52 0 85 37l123 -173q-69 -56 -183 -67l-33 -35q3 1 16 1q41 0 71.5 -19.5t30.5 -65.5q0 -39 -28.5 -63.5t-62.5 -32t-73 -7.5z" />
    <glyph glyph-name="four.onum" horiz-adv-x="700" 
d="M505 614l-249 -428h120v179h219v-179h88v-186h-87v-170h-223v170h-342v194l232 420h242z" />
    <glyph glyph-name="rcommaaccent.sc" horiz-adv-x="642" 
d="M249 -45h189l-93 -195h-164zM282 438v-95h39q25 0 40.5 13t15.5 38q0 44 -50 44h-45zM61 0v594h288q114 0 181.5 -46t67.5 -147q0 -129 -98 -167l148 -234h-264l-95 202h-7v-202h-221z" />
    <glyph glyph-name="breve.cap" 
d="M180 764q-170 0 -180 144h110q4 -39 70 -39t70 39h110q-10 -144 -180 -144z" />
    <glyph glyph-name="five.onum" horiz-adv-x="600" 
d="M549 100q0 -63 -22 -112t-56.5 -78t-81.5 -48t-91.5 -25.5t-92.5 -6.5q-75 0 -164 15l33 198q62 -8 104 -8q130 0 130 66q0 63 -110 63q-57 0 -144 -17l30 447h450v-198h-243l-9 -75q12 3 32 3q106 0 170.5 -57t64.5 -167z" />
    <glyph glyph-name="d.sc" horiz-adv-x="689" 
d="M283 409v-222h15q63 0 95.5 26.5t32.5 87.5q0 53 -31.5 80.5t-89.5 27.5h-22zM312 0h-251v594h234q77 0 139 -14.5t114.5 -47t81.5 -91.5t29 -141q0 -148 -99 -224t-248 -76z" />
    <glyph glyph-name="e.sc" horiz-adv-x="543" 
d="M61 0v594h428v-166h-212v-52h199v-153h-199v-56h227v-167h-443z" />
    <glyph glyph-name="g.sc" horiz-adv-x="650" 
d="M364 -20q-146 0 -240 87.5t-94 229.5q0 141 95 229t236 88q145 0 240 -76l-129 -157q-40 37 -99 37q-46 0 -80.5 -32.5t-34.5 -91.5q0 -63 29.5 -97t84.5 -34q18 0 48 8v43h-95v142h286v-307q-44 -30 -111 -49.5t-136 -19.5z" />
    <glyph glyph-name="six.onum" horiz-adv-x="700" 
d="M361 756l227 -87q-143 -112 -204 -185l1 -2q12 4 34 4q98 0 169.5 -63.5t71.5 -172.5q0 -128 -89.5 -199t-220.5 -71q-64 0 -117.5 15t-98 46t-69.5 87t-25 131q0 72 30.5 146t85.5 141.5t99.5 112t105.5 97.5zM350 320q-32 0 -52.5 -20.5t-20.5 -50.5q0 -31 20.5 -52
t52.5 -21q33 0 54 21t21 52q0 30 -21 50.5t-54 20.5z" />
    <glyph glyph-name="h.sc" horiz-adv-x="716" 
d="M422 0v219h-128v-219h-233v594h232v-199h128v199h234v-594h-233z" />
    <glyph glyph-name="i.sc" horiz-adv-x="358" 
d="M61 0v594h236v-594h-236z" />
    <glyph glyph-name="ring.cap" 
d="M240 857q0 25 -17.5 42t-42.5 17t-42.5 -17t-17.5 -42t17.5 -42t42.5 -17t42.5 17t17.5 42zM295 857q0 -48 -34 -81t-81 -33t-81 33t-34 81t34 81t81 33t81 -33t34 -81z" />
    <glyph glyph-name="seven.onum" horiz-adv-x="620" 
d="M587 594v-169q-159 -321 -275 -603l-245 48q149 313 260 526h-287v198h547z" />
    <glyph glyph-name="l.sc" horiz-adv-x="499" 
d="M61 0v594h234v-410h184v-184h-418z" />
    <glyph glyph-name="m.sc" horiz-adv-x="883" 
d="M354 0l-82 310h-4l4 -310h-211v594h290l88 -300h5l79 300h299v-594h-224l3 310h-4l-82 -310h-161z" />
    <glyph glyph-name="o.sc" horiz-adv-x="726" 
d="M363 412q-47 0 -77 -33t-30 -79q0 -48 30 -81.5t77 -33.5t77 33.5t30 81.5q0 46 -30.5 79t-76.5 33zM696 299q0 -147 -96.5 -233t-236.5 -86q-139 0 -236 86t-97 233q0 145 97 230t236 85q140 0 236.5 -85t96.5 -230z" />
    <glyph glyph-name="eight.onum" horiz-adv-x="700" 
d="M526 371v-3q53 -19 85.5 -62.5t32.5 -101.5q0 -76 -44 -128.5t-108.5 -74t-141.5 -21.5q-78 0 -142 21t-108 73t-44 129q0 56 31.5 99t86.5 65v3q-47 18 -76.5 57.5t-29.5 91.5q0 53 24 94.5t64.5 66t89.5 36.5t104 12q54 0 103 -12t90 -36.5t65 -66t24 -94.5
q0 -54 -28.5 -93t-77.5 -55zM350 277q-29 0 -45.5 -17t-16.5 -42t16.5 -41.5t45.5 -16.5t45.5 16.5t16.5 41.5t-16.5 42t-45.5 17zM350 551q-26 0 -42 -16t-16 -36q0 -21 16 -37.5t42 -16.5t42 16.5t16 37.5q0 20 -16 36t-42 16z" />
    <glyph glyph-name="p.sc" horiz-adv-x="614" 
d="M291 438v-104h39q21 0 38 12.5t17 39.5q0 52 -58 52h-36zM291 182v-182h-230v594h282q114 0 186.5 -47.5t72.5 -155.5q0 -104 -73 -156.5t-186 -52.5h-52z" />
    <glyph glyph-name="q.sc" horiz-adv-x="734" 
d="M363 412q-47 0 -77 -33.5t-30 -79.5q0 -48 30 -82t77 -34t76.5 33.5t29.5 82.5q0 46 -29.5 79.5t-76.5 33.5zM696 312q0 -47 -17 -87.5t-44 -61.5v-3l98 7v-167h-376q-143 0 -235 77t-92 221q0 145 98 230.5t237 85.5q140 0 235.5 -81t95.5 -221z" />
    <glyph glyph-name="hungarumlaut.cap" 
d="M357 764h-169l111 144h212zM114 764h-169l111 144h212z" />
    <glyph glyph-name="nine.onum" horiz-adv-x="700" 
d="M332 -184l-227 87q134 113 211 207l-1 2q-12 -4 -34 -4q-98 0 -169.5 63.5t-71.5 172.5q0 128 89.5 199t220.5 71q64 0 118.5 -16.5t98 -49t68.5 -88t25 -128.5q0 -228 -328 -516zM350 274q32 0 52.5 20.5t20.5 50.5q0 31 -20.5 52t-52.5 21q-33 0 -54 -21t-21 -52
q0 -30 21 -50.5t54 -20.5z" />
    <glyph glyph-name="t.sc" horiz-adv-x="529" 
d="M380 413v-413h-231v413h-142v181h515v-181h-142z" />
    <glyph glyph-name="u.sc" horiz-adv-x="694" 
d="M345 -20q-139 0 -215 73t-76 188v353h236v-332q0 -77 58 -77t58 77v332h234v-353q0 -116 -75.5 -188.5t-219.5 -72.5z" />
    <glyph glyph-name="w.sc" horiz-adv-x="987" 
d="M490 305l-80 -305h-233l-183 594h251l67 -307h4l69 307h226l74 -307h3l65 307h240l-185 -594h-233l-83 305h-2z" />
    <glyph glyph-name="zero.sc" horiz-adv-x="640" 
d="M320 440q-36 0 -52 -41.5t-16 -98.5q0 -60 16 -102t52 -42q68 0 68 144q0 36 -5.5 65.5t-21.5 52t-41 22.5zM320 -20q-67 0 -120 21t-84.5 53.5t-51.5 76.5t-27.5 85t-7.5 84q0 56 13 106.5t43.5 99.5t90.5 78.5t144 29.5t144 -29.5t90.5 -78.5t43.5 -99.5t13 -106.5
q0 -43 -7.5 -84t-27.5 -85t-51.5 -76.5t-84.5 -53.5t-120 -21z" />
    <glyph glyph-name="x.sc" horiz-adv-x="690" 
d="M427 0l-81 138l-87 -138h-263l205 304l-191 289h265l77 -128l75 128h257l-191 -289l201 -304h-267z" />
    <glyph glyph-name="y.sc" horiz-adv-x="632" 
d="M426 208v-208h-231v208l-215 386h262l77 -198l77 198h256z" />
    <glyph glyph-name="dotaccent.cap" 
d="M72 858q0 44 32 75t77 31q43 0 74.5 -31.5t31.5 -74.5q0 -44 -31.5 -74.5t-74.5 -30.5q-45 0 -77 30.5t-32 74.5z" />
    <glyph glyph-name="one.sc" horiz-adv-x="640" 
d="M252 0v367l-103 -66l-105 160l214 133h232v-594h-238z" />
    <glyph glyph-name="aacute.sc" horiz-adv-x="686" 
d="M406 654h-169l111 144h212zM390 230l-48 154l-49 -154h97zM-10 0l232 594h246l228 -594h-245l-27 85h-166l-27 -85h-241z" />
    <glyph glyph-name="acircumflex.sc" horiz-adv-x="686" 
d="M410 654l-67 68l-67 -68h-152l137 144h169l134 -144h-154zM390 230l-48 154l-49 -154h97zM-10 0l232 594h246l228 -594h-245l-27 85h-166l-27 -85h-241z" />
    <glyph glyph-name="adieresis.sc" horiz-adv-x="686" 
d="M119 748q0 40 30 69.5t71 29.5q40 0 69.5 -29.5t29.5 -69.5q0 -41 -29.5 -69.5t-69.5 -28.5q-42 0 -71.5 28t-29.5 70zM368 748q0 40 30 69.5t71 29.5q40 0 69.5 -29.5t29.5 -69.5q0 -41 -29.5 -69.5t-69.5 -28.5q-42 0 -71.5 28t-29.5 70zM390 230l-48 154l-49 -154h97z
M-10 0l232 594h246l228 -594h-245l-27 85h-166l-27 -85h-241z" />
    <glyph glyph-name="two.sc" horiz-adv-x="640" 
d="M70 159l252 187q28 21 28 48q0 13 -9 23.5t-25 10.5q-20 0 -34.5 -15.5t-15.5 -48.5l-220 27q8 74 52.5 126t104 74.5t125.5 22.5q46 0 90.5 -11t85 -33.5t65.5 -63.5t25 -95q0 -57 -26.5 -96.5t-88.5 -81.5l-89 -60h204v-173h-524v159z" />
    <glyph glyph-name="aring.sc" horiz-adv-x="686" 
d="M403 747q0 25 -17.5 42t-42.5 17t-42.5 -17t-17.5 -42t17.5 -42t42.5 -17t42.5 17t17.5 42zM458 747q0 -48 -34 -81t-81 -33t-81 33t-34 81t34 81t81 33t81 -33t34 -81zM390 230l-48 154l-49 -154h97zM-10 0l232 594h246l228 -594h-245l-27 85h-166l-27 -85h-241z" />
    <glyph glyph-name="amacron.sc" horiz-adv-x="686" 
d="M163 681v96h360v-96h-360zM390 230l-48 154l-49 -154h97zM-10 0l232 594h246l228 -594h-245l-27 85h-166l-27 -85h-241z" />
    <glyph glyph-name="caron.alt" 
d="M121 708h189l-87 -177h-164z" />
    <glyph glyph-name="three.sc" horiz-adv-x="640" 
d="M489 315v-3q51 -12 78.5 -47.5t27.5 -82.5q0 -70 -41 -117t-100.5 -66t-132.5 -19q-105 0 -182 44t-100 133l211 53q4 -24 22 -38t42 -14q19 0 33.5 9.5t14.5 27.5q0 25 -20 34t-62 9h-60v132h67q68 0 68 42q0 32 -41 32q-18 0 -33.5 -12t-19.5 -33l-210 48
q20 62 65.5 100.5t96.5 52.5t113 14q69 0 125.5 -17.5t95 -59.5t38.5 -103q0 -94 -96 -119z" />
    <glyph glyph-name="ae.sc" horiz-adv-x="888" 
d="M401 428l-82 -178h89v178h-7zM834 594v-166h-212v-52h199v-153h-199v-56h227v-167h-441v95h-149l-44 -95h-253l297 594h575z" />
    <glyph glyph-name="cacute.sc" horiz-adv-x="579" 
d="M413 654h-169l111 144h212zM370 -20q-151 0 -245.5 87t-94.5 231q0 142 96.5 229t246.5 87q59 0 119 -18.5t95 -44.5l-122 -176q-30 36 -84 36q-46 0 -79.5 -30t-33.5 -83q0 -54 33.5 -83.5t79.5 -29.5q52 0 85 37l123 -173q-38 -30 -97 -49.5t-122 -19.5z" />
    <glyph glyph-name="ccaron.sc" horiz-adv-x="579" 
d="M442 798h154l-134 -144h-169l-137 144h152l67 -68zM370 -20q-151 0 -245.5 87t-94.5 231q0 142 96.5 229t246.5 87q59 0 119 -18.5t95 -44.5l-122 -176q-30 36 -84 36q-46 0 -79.5 -30t-33.5 -83q0 -54 33.5 -83.5t79.5 -29.5q52 0 85 37l123 -173q-38 -30 -97 -49.5
t-122 -19.5z" />
    <glyph glyph-name="four.sc" horiz-adv-x="640" 
d="M328 393h-3l-88 -132h91v132zM538 105v-105h-210v105h-297v178l215 311h292v-333h75v-156h-75z" />
    <glyph glyph-name="cdotaccent.sc" horiz-adv-x="579" 
d="M267 748q0 44 32 75t77 31q43 0 74.5 -31.5t31.5 -74.5q0 -44 -31.5 -74.5t-74.5 -30.5q-45 0 -77 30.5t-32 74.5zM370 -20q-151 0 -245.5 87t-94.5 231q0 142 96.5 229t246.5 87q59 0 119 -18.5t95 -44.5l-122 -176q-30 36 -84 36q-46 0 -79.5 -30t-33.5 -83
q0 -54 33.5 -83.5t79.5 -29.5q52 0 85 37l123 -173q-38 -30 -97 -49.5t-122 -19.5z" />
    <glyph glyph-name="uogonek.sc" horiz-adv-x="694" 
d="M344 -240q-51 0 -89 21.5t-38 72.5q0 63 91 128q-122 9 -188 80t-66 179v353h236v-332q0 -77 58 -77t58 77v332h234v-353q0 -87 -42.5 -150t-126.5 -92q-62 -44 -86.5 -68.5t-24.5 -42.5q0 -20 23 -20q26 0 56 18l44 -83q-66 -43 -139 -43z" />
    <glyph glyph-name="question.sc" horiz-adv-x="550" 
d="M291 -17q-52 0 -86 32t-34 83q0 48 34.5 81t85.5 33t85.5 -33t34.5 -81q0 -51 -34 -83t-86 -32zM422 295q-36 -17 -36 -41v-9h-197v20q0 44 22 71.5t67 51.5l11 6q32 18 32 34q0 14 -10 22.5t-25 8.5q-27 0 -39 -16t-12 -37l-196 22q11 96 82 141t181 45q94 0 161 -41
t67 -130q0 -57 -27 -91t-81 -57z" />
    <glyph glyph-name="five.sc" horiz-adv-x="640" 
d="M584 200q0 -59 -23.5 -103.5t-63 -69t-85.5 -36t-97 -11.5q-102 0 -176 44t-99 134l211 55q6 -26 22.5 -39t35.5 -13q24 0 36 10.5t12 26.5q0 32 -27 43.5t-75 11.5q-64 0 -166 -22l25 363h439v-166h-239l-4 -42q21 4 45 4q99 0 164 -48t65 -142z" />
    <glyph glyph-name="eth.sc" horiz-adv-x="689" 
d="M350 231h-73v-52h15q139 0 139 122q0 57 -34.5 86.5t-97.5 29.5h-22v-48h73v-138zM312 0h-251v231h-54v138h54v225h234q77 0 139 -14.5t114.5 -47t81.5 -91.5t29 -141q0 -148 -99 -224t-248 -76z" />
    <glyph glyph-name="egrave.sc" horiz-adv-x="543" 
d="M247 654l-154 144h212l111 -144h-169zM61 0v594h428v-166h-212v-52h199v-153h-199v-56h227v-167h-443z" />
    <glyph glyph-name="ecircumflex.sc" horiz-adv-x="543" 
d="M342 654l-67 68l-67 -68h-152l137 144h169l134 -144h-154zM61 0v594h428v-166h-212v-52h199v-153h-199v-56h227v-167h-443z" />
    <glyph glyph-name="six.sc" horiz-adv-x="640" 
d="M323 276q-25 0 -42.5 -17t-17.5 -44q0 -26 17.5 -43.5t42.5 -17.5t42.5 17.5t17.5 43.5q0 27 -17.5 44t-42.5 17zM384 418l-8 -10q11 0 16 -1q96 -6 152.5 -56t56.5 -141q0 -105 -76 -167.5t-202 -62.5t-203 60t-77 168q0 106 76 207l133 179h273z" />
    <glyph glyph-name="ecaron.sc" horiz-adv-x="543" 
d="M339 798h154l-134 -144h-169l-137 144h152l67 -68zM61 0v594h428v-166h-212v-52h199v-153h-199v-56h227v-167h-443z" />
    <glyph glyph-name="edieresis.sc" horiz-adv-x="543" 
d="M50 748q0 40 30 69.5t71 29.5q40 0 69.5 -29.5t29.5 -69.5q0 -41 -29.5 -69.5t-69.5 -28.5q-42 0 -71.5 28t-29.5 70zM299 748q0 40 30 69.5t71 29.5q40 0 69.5 -29.5t29.5 -69.5q0 -41 -29.5 -69.5t-69.5 -28.5q-42 0 -71.5 28t-29.5 70zM61 0v594h428v-166h-212v-52
h199v-153h-199v-56h227v-167h-443z" />
    <glyph glyph-name="commaaccent.alt" 
d="M231 584h-189l93 195h164z" />
    <glyph glyph-name="seven.sc" horiz-adv-x="640" 
d="M364 0h-260l225 418h-251v176h489v-178z" />
    <glyph glyph-name="ebreve.sc" horiz-adv-x="543" 
d="M274 654q-170 0 -180 144h110q4 -39 70 -39t70 39h110q-10 -144 -180 -144zM61 0v594h428v-166h-212v-52h199v-153h-199v-56h227v-167h-443z" />
    <glyph glyph-name="eogonek.sc" horiz-adv-x="543" 
d="M61 0v594h428v-166h-212v-52h199v-153h-199v-56h227v-167h-26q-64 -45 -88.5 -69.5t-24.5 -42.5q0 -20 23 -20q26 0 56 18l44 -83q-66 -43 -139 -43q-51 0 -89 21.5t-38 72.5q0 30 20.5 59.5t42 47t56.5 39.5h-280z" />
    <glyph glyph-name="gdotaccent.sc" horiz-adv-x="650" 
d="M258 748q0 44 32 75t77 31q43 0 74.5 -31.5t31.5 -74.5q0 -44 -31.5 -74.5t-74.5 -30.5q-45 0 -77 30.5t-32 74.5zM364 -20q-146 0 -240 87.5t-94 229.5q0 141 95 229t236 88q145 0 240 -76l-129 -157q-40 37 -99 37q-46 0 -80.5 -32.5t-34.5 -91.5q0 -63 29.5 -97
t84.5 -34q18 0 48 8v43h-95v142h286v-307q-44 -30 -111 -49.5t-136 -19.5z" />
    <glyph glyph-name="eight.sc" horiz-adv-x="640" 
d="M495 312v-3q47 -16 77.5 -53t30.5 -86q0 -65 -43 -109t-105 -62.5t-135 -18.5q-74 0 -136 18t-105 62t-43 109q0 47 30 83.5t80 55.5v3q-41 14 -69.5 47t-28.5 77q0 59 41 101t100.5 60t130.5 18q110 0 191 -46t81 -133q0 -45 -26.5 -78t-70.5 -45zM320 244
q-26 0 -41 -15.5t-15 -39.5q0 -23 15 -37.5t41 -14.5q54 0 54 52q0 55 -54 55zM320 468q-23 0 -37.5 -14.5t-14.5 -32.5q0 -20 14.5 -34.5t37.5 -14.5q24 0 38.5 14.5t14.5 34.5q0 18 -14.5 32.5t-38.5 14.5z" />
    <glyph glyph-name="gbreve.sc" horiz-adv-x="650" 
d="M365 654q-170 0 -180 144h110q4 -39 70 -39t70 39h110q-10 -144 -180 -144zM364 -20q-146 0 -240 87.5t-94 229.5q0 141 95 229t236 88q145 0 240 -76l-129 -157q-40 37 -99 37q-46 0 -80.5 -32.5t-34.5 -91.5q0 -63 29.5 -97t84.5 -34q18 0 48 8v43h-95v142h286v-307
q-44 -30 -111 -49.5t-136 -19.5z" />
    <glyph glyph-name="gcommaaccent.sc" horiz-adv-x="650" 
d="M268 -45h189l-93 -195h-164zM364 -20q-146 0 -240 87.5t-94 229.5q0 141 95 229t236 88q145 0 240 -76l-129 -157q-40 37 -99 37q-46 0 -80.5 -32.5t-34.5 -91.5q0 -63 29.5 -97t84.5 -34q18 0 48 8v43h-95v142h286v-307q-44 -30 -111 -49.5t-136 -19.5z" />
    <glyph glyph-name="grave.sc" 
d="M118 654l-154 144h212l111 -144h-169z" />
    <glyph glyph-name="nine.sc" horiz-adv-x="640" 
d="M315 324q25 0 42.5 17t17.5 44q0 26 -17.5 43.5t-42.5 17.5t-42 -17.5t-17 -43.5q0 -27 17 -44t42 -17zM255 176l7 10q-10 0 -15 1q-96 6 -152.5 56t-56.5 141q0 105 76 167.5t201 62.5t202.5 -60t77.5 -168q0 -101 -77 -207l-131 -179h-273z" />
    <glyph glyph-name="igrave.sc" horiz-adv-x="358" 
d="M111 654l-154 144h212l111 -144h-169zM61 0v594h236v-594h-236z" />
    <glyph glyph-name="iacute.sc" horiz-adv-x="358" 
d="M245 654h-169l111 144h212zM61 0v594h236v-594h-236z" />
    <glyph glyph-name="itilde.sc" horiz-adv-x="358" 
d="M287 790h79q-4 -62 -33.5 -100.5t-80.5 -38.5q-38 0 -81 23q-41 22 -63 22q-30 0 -37 -36h-80q3 59 33 97.5t80 38.5q37 0 83 -24q43 -22 65 -22q28 0 35 40zM61 0v594h236v-594h-236z" />
    <glyph glyph-name="grave.cap" 
d="M118 764l-154 144h212l111 -144h-169z" />
    <glyph glyph-name="idieresis.sc" horiz-adv-x="358" 
d="M-45 748q0 40 30 69.5t71 29.5q40 0 69.5 -29.5t29.5 -69.5q0 -41 -29.5 -69.5t-69.5 -28.5q-42 0 -71.5 28t-29.5 70zM204 748q0 40 30 69.5t71 29.5q40 0 69.5 -29.5t29.5 -69.5q0 -41 -29.5 -69.5t-69.5 -28.5q-42 0 -71.5 28t-29.5 70zM61 0v594h236v-594h-236z" />
    <glyph glyph-name="imacron.sc" horiz-adv-x="358" 
d="M-1 681v96h360v-96h-360zM61 0v594h236v-594h-236z" />
    <glyph glyph-name="acute.sc" 
d="M242 654h-169l111 144h212z" />
    <glyph glyph-name="acute.cap" 
d="M242 764h-169l111 144h212z" />
    <glyph glyph-name="jcircumflex.sc" horiz-adv-x="541" 
d="M435 654l-67 68l-67 -68h-152l137 144h169l134 -144h-154zM245 -20q-99 0 -164 43t-89 124l182 79q8 -39 41 -39q35 0 35 44v363h236v-377q0 -100 -59.5 -168.5t-181.5 -68.5z" />
    <glyph glyph-name="kcommaaccent.sc" horiz-adv-x="671" 
d="M262 -45h189l-93 -195h-164zM401 0l-115 234h-1v-234h-224v594h223v-216h2l115 216h269l-186 -271l197 -323h-280z" />
    <glyph glyph-name="lcaron.sc" horiz-adv-x="539" 
d="M384 594h189l-93 -195h-164zM61 0v594h234v-410h184v-184h-418z" />
    <glyph glyph-name="circumflex.cap" 
d="M246 764l-67 68l-67 -68h-152l137 144h169l134 -144h-154z" />
    <glyph glyph-name="lcommaaccent.sc" horiz-adv-x="499" 
d="M186 -45h189l-93 -195h-164zM61 0v594h234v-410h184v-184h-418z" />
    <glyph glyph-name="ldot.sc" horiz-adv-x="530" 
d="M337 348q0 44 32 75t77 31q43 0 74.5 -31.5t31.5 -74.5q0 -44 -31.5 -74.5t-74.5 -30.5q-45 0 -77 30.5t-32 74.5zM61 0v594h234v-410h184v-184h-418z" />
    <glyph glyph-name="circumflex.sc" 
d="M246 654l-67 68l-67 -68h-152l137 144h169l134 -144h-154z" />
    <glyph glyph-name="caron.cap" 
d="M246 908h154l-134 -144h-169l-137 144h152l67 -68z" />
    <glyph glyph-name="ncaron.sc" horiz-adv-x="710" 
d="M422 798h154l-134 -144h-169l-137 144h152l67 -68zM61 0v594h231l140 -271h4l-7 271h220v-594h-235l-135 256h-4l7 -256h-221z" />
    <glyph glyph-name="ntilde.sc" horiz-adv-x="710" 
d="M465 790h79q-4 -62 -33.5 -100.5t-80.5 -38.5q-38 0 -81 23q-41 22 -63 22q-30 0 -37 -36h-80q3 59 33 97.5t80 38.5q37 0 83 -24q43 -22 65 -22q28 0 35 40zM61 0v594h231l140 -271h4l-7 271h220v-594h-235l-135 256h-4l7 -256h-221z" />
    <glyph glyph-name="ograve.sc" horiz-adv-x="726" 
d="M302 654l-154 144h212l111 -144h-169zM363 412q-47 0 -77 -33t-30 -79q0 -48 30 -81.5t77 -33.5t77 33.5t30 81.5q0 46 -30.5 79t-76.5 33zM696 299q0 -147 -96.5 -233t-236.5 -86q-139 0 -236 86t-97 233q0 145 97 230t236 85q140 0 236.5 -85t96.5 -230z" />
    <glyph glyph-name="tilde.cap" 
d="M288 900h79q-4 -62 -33.5 -100.5t-80.5 -38.5q-38 0 -81 23q-41 22 -63 22q-30 0 -37 -36h-80q3 59 33 97.5t80 38.5q37 0 83 -24q43 -22 65 -22q28 0 35 40z" />
    <glyph glyph-name="oacute.sc" horiz-adv-x="726" 
d="M409 654h-169l111 144h212zM363 412q-47 0 -77 -33t-30 -79q0 -48 30 -81.5t77 -33.5t77 33.5t30 81.5q0 46 -30.5 79t-76.5 33zM696 299q0 -147 -96.5 -233t-236.5 -86q-139 0 -236 86t-97 233q0 145 97 230t236 85q140 0 236.5 -85t96.5 -230z" />
    <glyph glyph-name="ocircumflex.sc" horiz-adv-x="726" 
d="M429 654l-67 68l-67 -68h-152l137 144h169l134 -144h-154zM363 412q-47 0 -77 -33t-30 -79q0 -48 30 -81.5t77 -33.5t77 33.5t30 81.5q0 46 -30.5 79t-76.5 33zM696 299q0 -147 -96.5 -233t-236.5 -86q-139 0 -236 86t-97 233q0 145 97 230t236 85q140 0 236.5 -85
t96.5 -230z" />
    <glyph glyph-name="caron.sc" 
d="M246 798h154l-134 -144h-169l-137 144h152l67 -68z" />
    <glyph glyph-name="dieresis.cap" 
d="M-44 858q0 40 30 69.5t71 29.5q40 0 69.5 -29.5t29.5 -69.5q0 -41 -29.5 -69.5t-69.5 -28.5q-42 0 -71.5 28t-29.5 70zM205 858q0 40 30 69.5t71 29.5q40 0 69.5 -29.5t29.5 -69.5q0 -41 -29.5 -69.5t-69.5 -28.5q-42 0 -71.5 28t-29.5 70z" />
    <glyph glyph-name="omacron.sc" horiz-adv-x="726" 
d="M182 681v96h360v-96h-360zM363 412q-47 0 -77 -33t-30 -79q0 -48 30 -81.5t77 -33.5t77 33.5t30 81.5q0 46 -30.5 79t-76.5 33zM696 299q0 -147 -96.5 -233t-236.5 -86q-139 0 -236 86t-97 233q0 145 97 230t236 85q140 0 236.5 -85t96.5 -230z" />
    <glyph glyph-name="obreve.sc" horiz-adv-x="726" 
d="M362 654q-170 0 -180 144h110q4 -39 70 -39t70 39h110q-10 -144 -180 -144zM363 412q-47 0 -77 -33t-30 -79q0 -48 30 -81.5t77 -33.5t77 33.5t30 81.5q0 46 -30.5 79t-76.5 33zM696 299q0 -147 -96.5 -233t-236.5 -86q-139 0 -236 86t-97 233q0 145 97 230t236 85
q140 0 236.5 -85t96.5 -230z" />
    <glyph glyph-name="oslash.sc" horiz-adv-x="726" 
d="M363 412q-47 0 -77 -33t-30 -79q0 -16 3 -31l134 139q-12 4 -30 4zM470 300q0 14 -5 32l-136 -142q18 -5 34 -5q47 0 77 33.5t30 81.5zM696 299q0 -147 -96.5 -233t-236.5 -86q-101 0 -184 47l-70 -73l-85 78l68 71q-62 81 -62 196q0 145 97 230t236 85q99 0 179 -44
l80 83l85 -78l-77 -80q66 -82 66 -196z" />
    <glyph glyph-name="macron.cap" 
d="M0 791v96h360v-96h-360z" />
    <glyph glyph-name="oe.sc" horiz-adv-x="901" 
d="M284 297q0 -58 34 -88.5t82 -30.5h26v238h-26q-47 0 -81.5 -32t-34.5 -87zM847 594v-166h-212v-52h199v-153h-199v-56h227v-167h-447q-77 0 -139.5 15t-114.5 47t-81 91t-29 140q0 96 49 165.5t126 102.5t172 33h449z" />
    <glyph glyph-name="racute.sc" horiz-adv-x="642" 
d="M368 654h-169l111 144h212zM282 438v-95h39q25 0 40.5 13t15.5 38q0 44 -50 44h-45zM61 0v594h288q114 0 181.5 -46t67.5 -147q0 -129 -98 -167l148 -234h-264l-95 202h-7v-202h-221z" />
    <glyph glyph-name="tilde.sc" 
d="M288 790h79q-4 -62 -33.5 -100.5t-80.5 -38.5q-38 0 -81 23q-41 22 -63 22q-30 0 -37 -36h-80q3 59 33 97.5t80 38.5q37 0 83 -24q43 -22 65 -22q28 0 35 40z" />
    <glyph glyph-name="sacute.sc" horiz-adv-x="571" 
d="M355 654h-169l111 144h212zM542 189q0 -56 -25 -98.5t-65 -65.5t-83.5 -34t-87.5 -11q-77 0 -151 22t-126 63l126 147q60 -55 134 -55q37 0 37 23q0 14 -20 24.5t-71 21.5q-31 7 -58 19.5t-53 32.5t-41.5 52t-15.5 72q0 55 25 97.5t64.5 66.5t83 36t86.5 12
q142 0 256 -76l-121 -145q-59 38 -114 38q-44 0 -44 -24q0 -11 15 -19t62 -17q81 -17 134 -60.5t53 -121.5z" />
    <glyph glyph-name="f.sc" horiz-adv-x="513" 
d="M287 428v-66h174v-162h-173v-200h-227v594h424v-166h-198z" />
    <glyph glyph-name="scaron.sc" horiz-adv-x="571" 
d="M368 798h154l-134 -144h-169l-137 144h152l67 -68zM542 189q0 -56 -25 -98.5t-65 -65.5t-83.5 -34t-87.5 -11q-77 0 -151 22t-126 63l126 147q60 -55 134 -55q37 0 37 23q0 14 -20 24.5t-71 21.5q-31 7 -58 19.5t-53 32.5t-41.5 52t-15.5 72q0 55 25 97.5t64.5 66.5
t83 36t86.5 12q142 0 256 -76l-121 -145q-59 38 -114 38q-44 0 -44 -24q0 -11 15 -19t62 -17q81 -17 134 -60.5t53 -121.5z" />
    <glyph glyph-name="k.sc" horiz-adv-x="671" 
d="M401 0l-115 234h-1v-234h-224v594h223v-216h2l115 216h269l-186 -271l197 -323h-280z" />
    <glyph glyph-name="scommaaccent.sc" horiz-adv-x="571" 
d="M197 -45h189l-93 -195h-164zM542 189q0 -56 -25 -98.5t-65 -65.5t-83.5 -34t-87.5 -11q-77 0 -151 22t-126 63l126 147q60 -55 134 -55q37 0 37 23q0 14 -20 24.5t-71 21.5q-31 7 -58 19.5t-53 32.5t-41.5 52t-15.5 72q0 55 25 97.5t64.5 66.5t83 36t86.5 12
q142 0 256 -76l-121 -145q-59 38 -114 38q-44 0 -44 -24q0 -11 15 -19t62 -17q81 -17 134 -60.5t53 -121.5z" />
    <glyph glyph-name="n.sc" horiz-adv-x="710" 
d="M61 0v594h231l140 -271h4l-7 271h220v-594h-235l-135 256h-4l7 -256h-221z" />
    <glyph glyph-name="tcaron.sc" horiz-adv-x="529" 
d="M332 798h154l-134 -144h-169l-137 144h152l67 -68zM380 413v-413h-231v413h-142v181h515v-181h-142z" />
    <glyph glyph-name="dieresis.sc" 
d="M-44 748q0 40 30 69.5t71 29.5q40 0 69.5 -29.5t29.5 -69.5q0 -41 -29.5 -69.5t-69.5 -28.5q-42 0 -71.5 28t-29.5 70zM205 748q0 40 30 69.5t71 29.5q40 0 69.5 -29.5t29.5 -69.5q0 -41 -29.5 -69.5t-69.5 -28.5q-42 0 -71.5 28t-29.5 70z" />
    <glyph glyph-name="tbar.sc" horiz-adv-x="529" 
d="M57 235v100h92v78h-142v181h515v-181h-142v-78h92v-100h-92v-235h-231v235h-92z" />
    <glyph glyph-name="v.sc" horiz-adv-x="630" 
d="M179 0l-197 594h258l79 -334h4l76 334h249l-200 -594h-269z" />
    <glyph glyph-name="ugrave.sc" horiz-adv-x="694" 
d="M293 654l-154 144h212l111 -144h-169zM345 -20q-139 0 -215 73t-76 188v353h236v-332q0 -77 58 -77t58 77v332h234v-353q0 -116 -75.5 -188.5t-219.5 -72.5z" />
    <glyph glyph-name="agrave.sc" horiz-adv-x="686" 
d="M283 654l-154 144h212l111 -144h-169zM390 230l-48 154l-49 -154h97zM-10 0l232 594h246l228 -594h-245l-27 85h-166l-27 -85h-241z" />
    <glyph glyph-name="ucircumflex.sc" horiz-adv-x="694" 
d="M413 654l-67 68l-67 -68h-152l137 144h169l134 -144h-154zM345 -20q-139 0 -215 73t-76 188v353h236v-332q0 -77 58 -77t58 77v332h234v-353q0 -116 -75.5 -188.5t-219.5 -72.5z" />
    <glyph glyph-name="atilde.sc" horiz-adv-x="686" 
d="M451 790h79q-4 -62 -33.5 -100.5t-80.5 -38.5q-38 0 -81 23q-41 22 -63 22q-30 0 -37 -36h-80q3 59 33 97.5t80 38.5q37 0 83 -24q43 -22 65 -22q28 0 35 40zM390 230l-48 154l-49 -154h97zM-10 0l232 594h246l228 -594h-245l-27 85h-166l-27 -85h-241z" />
    <glyph glyph-name="udieresis.sc" horiz-adv-x="694" 
d="M124 748q0 40 30 69.5t71 29.5q40 0 69.5 -29.5t29.5 -69.5q0 -41 -29.5 -69.5t-69.5 -28.5q-42 0 -71.5 28t-29.5 70zM373 748q0 40 30 69.5t71 29.5q40 0 69.5 -29.5t29.5 -69.5q0 -41 -29.5 -69.5t-69.5 -28.5q-42 0 -71.5 28t-29.5 70zM345 -20q-139 0 -215 73
t-76 188v353h236v-332q0 -77 58 -77t58 77v332h234v-353q0 -116 -75.5 -188.5t-219.5 -72.5z" />
    <glyph glyph-name="macron.sc" 
d="M0 681v96h360v-96h-360z" />
    <glyph glyph-name="ubreve.sc" horiz-adv-x="694" 
d="M348 654q-170 0 -180 144h110q4 -39 70 -39t70 39h110q-10 -144 -180 -144zM345 -20q-139 0 -215 73t-76 188v353h236v-332q0 -77 58 -77t58 77v332h234v-353q0 -116 -75.5 -188.5t-219.5 -72.5z" />
    <glyph glyph-name="ccircumflex.sc" horiz-adv-x="579" 
d="M442 654l-67 68l-67 -68h-152l137 144h169l134 -144h-154zM370 -20q-151 0 -245.5 87t-94.5 231q0 142 96.5 229t246.5 87q59 0 119 -18.5t95 -44.5l-122 -176q-30 36 -84 36q-46 0 -79.5 -30t-33.5 -83q0 -54 33.5 -83.5t79.5 -29.5q52 0 85 37l123 -173
q-38 -30 -97 -49.5t-122 -19.5z" />
    <glyph glyph-name="uhungarumlaut.sc" horiz-adv-x="694" 
d="M554 654h-169l111 144h212zM311 654h-169l111 144h212zM345 -20q-139 0 -215 73t-76 188v353h236v-332q0 -77 58 -77t58 77v332h234v-353q0 -116 -75.5 -188.5t-219.5 -72.5z" />
    <glyph glyph-name="dcroat.sc" horiz-adv-x="689" 
d="M350 231h-73v-52h15q139 0 139 122q0 57 -34.5 86.5t-97.5 29.5h-22v-48h73v-138zM312 0h-251v231h-54v138h54v225h234q77 0 139 -14.5t114.5 -47t81.5 -91.5t29 -141q0 -148 -99 -224t-248 -76z" />
    <glyph glyph-name="wcircumflex.sc" horiz-adv-x="987" 
d="M562 654l-67 68l-67 -68h-152l137 144h169l134 -144h-154zM490 305l-80 -305h-233l-183 594h251l67 -307h4l69 307h226l74 -307h3l65 307h240l-185 -594h-233l-83 305h-2z" />
    <glyph glyph-name="eacute.sc" horiz-adv-x="543" 
d="M330 654h-169l111 144h212zM61 0v594h428v-166h-212v-52h199v-153h-199v-56h227v-167h-443z" />
    <glyph glyph-name="ycircumflex.sc" horiz-adv-x="632" 
d="M385 654l-67 68l-67 -68h-152l137 144h169l134 -144h-154zM426 208v-208h-231v208l-215 386h262l77 -198l77 198h256z" />
    <glyph glyph-name="breve.sc" 
d="M180 654q-170 0 -180 144h110q4 -39 70 -39t70 39h110q-10 -144 -180 -144z" />
    <glyph glyph-name="zacute.sc" horiz-adv-x="590" 
d="M352 654h-169l111 144h212zM38 0v181l216 229h-207v184h507v-169l-232 -241h242v-184h-526z" />
    <glyph glyph-name="gcircumflex.sc" horiz-adv-x="650" 
d="M432 654l-67 68l-67 -68h-152l137 144h169l134 -144h-154zM364 -20q-146 0 -240 87.5t-94 229.5q0 141 95 229t236 88q145 0 240 -76l-129 -157q-40 37 -99 37q-46 0 -80.5 -32.5t-34.5 -91.5q0 -63 29.5 -97t84.5 -34q18 0 48 8v43h-95v142h286v-307q-44 -30 -111 -49.5
t-136 -19.5z" />
    <glyph glyph-name="zdotaccent.sc" horiz-adv-x="590" 
d="M194 748q0 44 32 75t77 31q43 0 74.5 -31.5t31.5 -74.5q0 -44 -31.5 -74.5t-74.5 -30.5q-45 0 -77 30.5t-32 74.5zM38 0v181l216 229h-207v184h507v-169l-232 -241h242v-184h-526z" />
    <glyph glyph-name="hbar.sc" horiz-adv-x="716" 
d="M293 372h128v63h-128v-63zM422 0v202h-128v-202h-233v594h232v-69h128v69h234v-594h-233z" />
    <glyph glyph-name="fl.sc" horiz-adv-x="1022" 
d="M584 0v594h234v-410h184v-184h-418zM297 428v-66h174v-162h-173v-200h-227v594h424v-166h-198z" />
    <glyph glyph-name="icircumflex.sc" horiz-adv-x="358" 
d="M247 654l-67 68l-67 -68h-152l137 144h169l134 -144h-154zM61 0v594h236v-594h-236z" />
    <glyph glyph-name="exclamdown.sc" horiz-adv-x="420" 
d="M93 343h234v-343h-234v343zM210 611q52 0 86 -32t34 -83q0 -48 -34.5 -81t-85.5 -33t-85.5 33t-34.5 81q0 51 34 83t86 32z" />
    <glyph glyph-name="ring.sc" 
d="M240 747q0 25 -17.5 42t-42.5 17t-42.5 -17t-17.5 -42t17.5 -42t42.5 -17t42.5 17t17.5 42zM295 747q0 -48 -34 -81t-81 -33t-81 33t-34 81t34 81t81 33t81 -33t34 -81z" />
    <glyph glyph-name="Euro.sc" horiz-adv-x="640" 
d="M80 279h44q-1 9 -1 19q0 7 1 16h-80l37 100h54q29 99 113 149.5t200 50.5q82 0 145 -22l-58 -148q-36 17 -88 17q-67 0 -91 -47h173l-35 -100h-162q-1 -7 -1 -16q0 -12 1 -19h152l-34 -98h-95q21 -39 86 -39q56 0 101 24l27 -156q-57 -30 -155 -30q-110 0 -183 53.5
t-97 147.5h-87z" />
    <glyph glyph-name="lacute.sc" horiz-adv-x="499" 
d="M260 654h-169l111 144h212zM61 0v594h234v-410h184v-184h-418z" />
    <glyph glyph-name="sterling.sc" horiz-adv-x="640" 
d="M570 549l-106 -124q-23 26 -53 26q-23 0 -37 -12t-14 -34v-23h122v-138h-122v-77h211v-167h-481v167h77v77h-77v138h77v28q0 91 60.5 147.5t164.5 56.5q109 0 178 -65z" />
    <glyph glyph-name="nacute.sc" horiz-adv-x="710" 
d="M418 654h-169l111 144h212zM61 0v594h231l140 -271h4l-7 271h220v-594h-235l-135 256h-4l7 -256h-221z" />
    <glyph glyph-name="yen.sc" horiz-adv-x="640" 
d="M494 367h86v-100h-154v-57h154v-100h-154v-110h-214v110h-151v100h151v57h-151v100h86l-145 227h229l91 -182l92 182h224z" />
    <glyph glyph-name="ncommaaccent.sc" horiz-adv-x="710" 
d="M269 -45h189l-93 -195h-164zM61 0v594h231l140 -271h4l-7 271h220v-594h-235l-135 256h-4l7 -256h-221z" />
    <glyph glyph-name="perthousand.sc" horiz-adv-x="1200" 
d="M291 -37l-92 54l344 592l93 -54zM1009 99q22 0 36.5 13.5t14.5 36.5t-14.5 36.5t-36.5 13.5q-21 0 -36 -14t-15 -36t15 -36t36 -14zM1009 -17q-69 0 -118.5 46.5t-49.5 118.5q0 73 49.5 118.5t118.5 45.5q70 0 119.5 -45.5t49.5 -118.5t-49.5 -119t-119.5 -46zM648 99
q22 0 36.5 13.5t14.5 36.5t-14.5 36.5t-36.5 13.5q-21 0 -36 -14t-15 -36t15 -36t36 -14zM648 -17q-69 0 -118.5 46.5t-49.5 118.5q0 73 49.5 118.5t118.5 45.5q70 0 119.5 -45.5t49.5 -118.5t-49.5 -119t-119.5 -46zM203 399q22 0 36.5 13.5t14.5 36.5t-14.5 36.5
t-36.5 13.5q-21 0 -36 -14t-15 -36t15 -36t36 -14zM203 283q-69 0 -118.5 46.5t-49.5 118.5q0 73 49.5 118.5t118.5 45.5q70 0 119.5 -45.5t49.5 -118.5t-49.5 -119t-119.5 -46z" />
    <glyph glyph-name="hungarumlaut.sc" 
d="M357 654h-169l111 144h212zM114 654h-169l111 144h212z" />
    <glyph glyph-name="one.onum" horiz-adv-x="550" 
d="M212 0v367l-103 -66l-105 160l214 133h232v-594h-238z" />
    <glyph glyph-name="ohungarumlaut.sc" horiz-adv-x="726" 
d="M568 654h-169l111 144h212zM325 654h-169l111 144h212zM363 412q-47 0 -77 -33t-30 -79q0 -48 30 -81.5t77 -33.5t77 33.5t30 81.5q0 46 -30.5 79t-76.5 33zM696 299q0 -147 -96.5 -233t-236.5 -86q-139 0 -236 86t-97 233q0 145 97 230t236 85q140 0 236.5 -85
t96.5 -230z" />
    <glyph glyph-name="three.onum" horiz-adv-x="600" 
d="M535 594v-194q-78 -48 -192 -106v-3q14 2 23 2q82 0 141 -53.5t59 -150.5q0 -60 -22 -106.5t-56.5 -74.5t-81.5 -46t-93 -25t-95 -7q-81 0 -167 16l34 199q61 -11 112 -11q128 0 128 61q0 54 -119 54q-61 0 -118 -14l-39 158q98 44 222 109v4h-219v188h483z" />
    <glyph glyph-name="c.sc" horiz-adv-x="579" 
d="M370 -20q-151 0 -245.5 87t-94.5 231q0 142 96.5 229t246.5 87q59 0 119 -18.5t95 -44.5l-122 -176q-30 36 -84 36q-46 0 -79.5 -30t-33.5 -83q0 -54 33.5 -83.5t79.5 -29.5q52 0 85 37l123 -173q-38 -30 -97 -49.5t-122 -19.5z" />
    <glyph glyph-name="scircumflex.sc" horiz-adv-x="571" 
d="M367 654l-67 68l-67 -68h-152l137 144h169l134 -144h-154zM542 189q0 -56 -25 -98.5t-65 -65.5t-83.5 -34t-87.5 -11q-77 0 -151 22t-126 63l126 147q60 -55 134 -55q37 0 37 23q0 14 -20 24.5t-71 21.5q-31 7 -58 19.5t-53 32.5t-41.5 52t-15.5 72q0 55 25 97.5
t64.5 66.5t83 36t86.5 12q142 0 256 -76l-121 -145q-59 38 -114 38q-44 0 -44 -24q0 -11 15 -19t62 -17q81 -17 134 -60.5t53 -121.5z" />
    <glyph glyph-name="j.sc" horiz-adv-x="541" 
d="M245 -20q-99 0 -164 43t-89 124l182 79q8 -39 41 -39q35 0 35 44v363h236v-377q0 -100 -59.5 -168.5t-181.5 -68.5z" />
    <glyph glyph-name="germandbls.sc" horiz-adv-x="1142" 
d="M1113 189q0 -56 -25 -98.5t-65 -65.5t-83.5 -34t-87.5 -11q-77 0 -151 22t-126 63l126 147q60 -55 134 -55q37 0 37 23q0 14 -20 24.5t-71 21.5q-31 7 -58 19.5t-53 32.5t-41.5 52t-15.5 72q0 55 25 97.5t64.5 66.5t83 36t86.5 12q142 0 256 -76l-121 -145
q-59 38 -114 38q-44 0 -44 -24q0 -11 15 -19t62 -17q81 -17 134 -60.5t53 -121.5zM542 189q0 -56 -25 -98.5t-65 -65.5t-83.5 -34t-87.5 -11q-77 0 -151 22t-126 63l126 147q60 -55 134 -55q37 0 37 23q0 14 -20 24.5t-71 21.5q-31 7 -58 19.5t-53 32.5t-41.5 52t-15.5 72
q0 55 25 97.5t64.5 66.5t83 36t86.5 12q142 0 256 -76l-121 -145q-59 38 -114 38q-44 0 -44 -24q0 -11 15 -19t62 -17q81 -17 134 -60.5t53 -121.5z" />
    <glyph glyph-name="dotaccent.sc" 
d="M72 748q0 44 32 75t77 31q43 0 74.5 -31.5t31.5 -74.5q0 -44 -31.5 -74.5t-74.5 -30.5q-45 0 -77 30.5t-32 74.5z" />
    <glyph glyph-name="thorn.sc" horiz-adv-x="614" 
d="M286 371v-95h40q62 0 62 49q0 20 -15.5 33t-44.5 13h-42zM356 112h-70v-112h-225v594h225v-67h76q122 0 181 -53t59 -146q0 -100 -66 -158t-180 -58z" />
    <glyph glyph-name="z.sc" horiz-adv-x="590" 
d="M38 0v181l216 229h-207v184h507v-169l-232 -241h242v-184h-526z" />
    <glyph glyph-name="utilde.sc" horiz-adv-x="694" 
d="M458 790h79q-4 -62 -33.5 -100.5t-80.5 -38.5q-38 0 -81 23q-41 22 -63 22q-30 0 -37 -36h-80q3 59 33 97.5t80 38.5q37 0 83 -24q43 -22 65 -22q28 0 35 40zM345 -20q-139 0 -215 73t-76 188v353h236v-332q0 -77 58 -77t58 77v332h234v-353q0 -116 -75.5 -188.5
t-219.5 -72.5z" />
    <glyph glyph-name="aogonek.sc" horiz-adv-x="686" 
d="M459 -240q-51 0 -89 21.5t-38 72.5q0 30 20.5 59.5t42 47t56.5 39.5h137q-64 -45 -88.5 -69.5t-24.5 -42.5q0 -20 23 -20q26 0 56 18l44 -83q-66 -43 -139 -43zM390 230l-48 154l-49 -154h97zM-10 0l232 594h246l228 -594h-245l-27 85h-166l-27 -85h-241z" />
    <glyph glyph-name="uring.sc" horiz-adv-x="694" 
d="M408 747q0 25 -17.5 42t-42.5 17t-42.5 -17t-17.5 -42t17.5 -42t42.5 -17t42.5 17t17.5 42zM463 747q0 -48 -34 -81t-81 -33t-81 33t-34 81t34 81t81 33t81 -33t34 -81zM345 -20q-139 0 -215 73t-76 188v353h236v-332q0 -77 58 -77t58 77v332h234v-353
q0 -116 -75.5 -188.5t-219.5 -72.5z" />
    <glyph glyph-name="a.sc" horiz-adv-x="686" 
d="M390 230l-48 154l-49 -154h97zM-10 0l232 594h246l228 -594h-245l-27 85h-166l-27 -85h-241z" />
    <glyph glyph-name="yacute.sc" horiz-adv-x="632" 
d="M378 654h-169l111 144h212zM426 208v-208h-231v208l-215 386h262l77 -198l77 198h256z" />
    <glyph glyph-name="iogonek.sc" horiz-adv-x="358" 
d="M61 0v594h236v-594q-64 -45 -88.5 -69.5t-24.5 -42.5q0 -20 23 -20q26 0 56 18l44 -83q-66 -43 -139 -43q-51 0 -89 21.5t-38 72.5q0 30 20.5 59.5t42 47t56.5 39.5h-99z" />
    <glyph glyph-name="zcaron.sc" horiz-adv-x="590" 
d="M373 798h154l-134 -144h-169l-137 144h152l67 -68zM38 0v181l216 229h-207v184h507v-169l-232 -241h242v-184h-526z" />
    <glyph glyph-name="hcircumflex.sc" horiz-adv-x="716" 
d="M424 654l-67 68l-67 -68h-152l137 144h169l134 -144h-154zM422 0v219h-128v-219h-233v594h232v-199h128v199h234v-594h-233z" />
    <glyph glyph-name="ij.sc" horiz-adv-x="900" 
d="M604 -20q-99 0 -164 43t-89 124l182 79q7 -39 41 -39q35 0 35 44v363h236v-377q0 -100 -59.5 -168.5t-181.5 -68.5zM61 0v594h236v-594h-236z" />
    <glyph glyph-name="odieresis.sc" horiz-adv-x="726" 
d="M138 748q0 40 30 69.5t71 29.5q40 0 69.5 -29.5t29.5 -69.5q0 -41 -29.5 -69.5t-69.5 -28.5q-42 0 -71.5 28t-29.5 70zM387 748q0 40 30 69.5t71 29.5q40 0 69.5 -29.5t29.5 -69.5q0 -41 -29.5 -69.5t-69.5 -28.5q-42 0 -71.5 28t-29.5 70zM363 412q-47 0 -77 -33
t-30 -79q0 -48 30 -81.5t77 -33.5t77 33.5t30 81.5q0 46 -30.5 79t-76.5 33zM696 299q0 -147 -96.5 -233t-236.5 -86q-139 0 -236 86t-97 233q0 145 97 230t236 85q140 0 236.5 -85t96.5 -230z" />
    <glyph glyph-name="cent.sc" horiz-adv-x="640" 
d="M321 -72v59q-110 16 -176.5 90t-66.5 186q0 110 67 183.5t176 91.5v64h109v-61q92 -8 149 -52l-115 -166q-24 29 -69 29q-36 0 -63 -23.5t-27 -65.5t27 -64.5t63 -22.5q44 0 70 28l116 -162q-58 -46 -151 -57v-57h-109z" />
    <glyph glyph-name="lslash.sc" horiz-adv-x="499" 
d="M61 0v147l-55 -42v190l55 42v257h228v-101l96 73v-189l-96 -73v-120h190v-184h-418z" />
    <glyph glyph-name="ordfeminine.sc" horiz-adv-x="390" 
d="M220 544l-24 75l-25 -75h49zM15 431l113 291h138l111 -291h-128l-13 42h-81l-14 -42h-126z" />
    <glyph glyph-name="s.sc" horiz-adv-x="571" 
d="M542 189q0 -56 -25 -98.5t-65 -65.5t-83.5 -34t-87.5 -11q-77 0 -151 22t-126 63l126 147q60 -55 134 -55q37 0 37 23q0 14 -20 24.5t-71 21.5q-31 7 -58 19.5t-53 32.5t-41.5 52t-15.5 72q0 55 25 97.5t64.5 66.5t83 36t86.5 12q142 0 256 -76l-121 -145q-59 38 -114 38
q-44 0 -44 -24q0 -11 15 -19t62 -17q81 -17 134 -60.5t53 -121.5z" />
    <glyph glyph-name="two.onum" horiz-adv-x="660" 
d="M53 169l49 23q142 67 199 105.5t57 76.5q0 25 -15 38.5t-39 13.5q-26 0 -46 -17.5t-29 -43.5l-196 59q32 87 103.5 138.5t185.5 51.5q49 0 94 -9.5t88.5 -31t70 -65.5t26.5 -105q0 -133 -170 -213l-17 -8v-2h199v-180h-560v169z" />
    <glyph glyph-name="b.sc" horiz-adv-x="636" 
d="M276 440v-81h52q18 0 32 11t14 30q0 40 -46 40h-52zM276 241v-86h59q21 0 34 11.5t13 32.5q0 42 -50 42h-56zM61 594h279q48 0 85.5 -5.5t74.5 -21t57.5 -49t20.5 -82.5q0 -94 -89 -121v-4q54 -8 84.5 -43.5t30.5 -95.5q0 -172 -249 -172h-294v594z" />
    <glyph glyph-name="scedilla.sc" horiz-adv-x="571" 
d="M248 -240q-76 0 -133 23l34 78q33 -16 85 -16q40 0 40 21q0 18 -37 18q-23 0 -41 -6l-44 34l61 73q-129 18 -209 80l126 147q60 -55 134 -55q37 0 37 23q0 14 -20 24.5t-71 21.5q-31 7 -58 19.5t-53 32.5t-41.5 52t-15.5 72q0 55 25 97.5t64.5 66.5t83 36t86.5 12
q142 0 256 -76l-121 -145q-59 38 -114 38q-44 0 -44 -24q0 -11 15 -19t62 -17q81 -17 134 -60.5t53 -121.5q0 -49 -19 -87.5t-51 -62t-68 -37.5t-76 -19l-34 -36q3 1 16 1q41 0 71.5 -19.5t30.5 -65.5q0 -39 -28.5 -63.5t-62.5 -32t-73 -7.5z" />
    <glyph glyph-name="emacron.sc" horiz-adv-x="543" 
d="M94 681v96h360v-96h-360zM61 0v594h428v-166h-212v-52h199v-153h-199v-56h227v-167h-443z" />
    <glyph glyph-name="uacute.sc" horiz-adv-x="694" 
d="M419 654h-169l111 144h212zM345 -20q-139 0 -215 73t-76 188v353h236v-332q0 -77 58 -77t58 77v332h234v-353q0 -116 -75.5 -188.5t-219.5 -72.5z" />
    <glyph glyph-name="abreve.sc" horiz-adv-x="686" 
d="M343 654q-170 0 -180 144h110q4 -39 70 -39t70 39h110q-10 -144 -180 -144zM390 230l-48 154l-49 -154h97zM-10 0l232 594h246l228 -594h-245l-27 85h-166l-27 -85h-241z" />
    <glyph glyph-name="dcaron.sc" horiz-adv-x="689" 
d="M394 798h154l-134 -144h-169l-137 144h152l67 -68zM283 409v-222h15q63 0 95.5 26.5t32.5 87.5q0 53 -31.5 80.5t-89.5 27.5h-22zM312 0h-251v594h234q77 0 139 -14.5t114.5 -47t81.5 -91.5t29 -141q0 -148 -99 -224t-248 -76z" />
    <glyph glyph-name="idotaccent.sc" horiz-adv-x="358" 
d="M68 748q0 44 32 75t77 31q43 0 74.5 -31.5t31.5 -74.5q0 -44 -31.5 -74.5t-74.5 -30.5q-45 0 -77 30.5t-32 74.5zM61 0v594h236v-594h-236z" />
    <glyph glyph-name="fi.sc" horiz-adv-x="871" 
d="M574 0v594h236v-594h-236zM287 428v-66h174v-162h-173v-200h-227v594h424v-166h-198z" />
    <glyph glyph-name="otilde.sc" horiz-adv-x="726" 
d="M472 790h79q-4 -62 -33.5 -100.5t-80.5 -38.5q-38 0 -81 23q-41 22 -63 22q-30 0 -37 -36h-80q3 59 33 97.5t80 38.5q37 0 83 -24q43 -22 65 -22q28 0 35 40zM363 412q-47 0 -77 -33t-30 -79q0 -48 30 -81.5t77 -33.5t77 33.5t30 81.5q0 46 -30.5 79t-76.5 33zM696 299
q0 -147 -96.5 -233t-236.5 -86q-139 0 -236 86t-97 233q0 145 97 230t236 85q140 0 236.5 -85t96.5 -230z" />
    <glyph glyph-name="florin.sc" horiz-adv-x="640" 
d="M588 577l-77 -153q-18 16 -43 16q-31 0 -38 -41l-7 -40h103v-138h-128l-27 -140q-15 -78 -62.5 -122.5t-145.5 -44.5q-81 0 -131 33l60 155q18 -15 43 -15q33 0 42 46l17 88h-67v138h92l17 84q35 169 212 169q85 0 140 -35z" />
    <glyph glyph-name="r.sc" horiz-adv-x="642" 
d="M282 438v-95h39q25 0 40.5 13t15.5 38q0 44 -50 44h-45zM61 0v594h288q114 0 181.5 -46t67.5 -147q0 -129 -98 -167l148 -234h-264l-95 202h-7v-202h-221z" />
    <glyph glyph-name="rcaron.sc" horiz-adv-x="642" 
d="M385 798h154l-134 -144h-169l-137 144h152l67 -68zM282 438v-95h39q25 0 40.5 13t15.5 38q0 44 -50 44h-45zM61 0v594h288q114 0 181.5 -46t67.5 -147q0 -129 -98 -167l148 -234h-264l-95 202h-7v-202h-221z" />
    <glyph glyph-name="edotaccent.sc" horiz-adv-x="543" 
d="M168 748q0 44 32 75t77 31q43 0 74.5 -31.5t31.5 -74.5q0 -44 -31.5 -74.5t-74.5 -30.5q-45 0 -77 30.5t-32 74.5zM61 0v594h428v-166h-212v-52h199v-153h-199v-56h227v-167h-443z" />
    <glyph glyph-name="umacron.sc" horiz-adv-x="694" 
d="M167 681v96h360v-96h-360zM345 -20q-139 0 -215 73t-76 188v353h236v-332q0 -77 58 -77t58 77v332h234v-353q0 -116 -75.5 -188.5t-219.5 -72.5z" />
    <glyph glyph-name="questiondown.sc" horiz-adv-x="550" 
d="M279 611q52 0 86 -32t34 -83q0 -48 -34.5 -81t-85.5 -33t-85.5 33t-34.5 81q0 51 34 83t86 32zM148 299q36 17 36 41v9h197v-20q0 -44 -22 -71.5t-67 -51.5l-11 -6q-32 -18 -32 -34q0 -14 10 -22.5t25 -8.5q27 0 39 16t12 37l196 -22q-11 -96 -82 -141t-181 -45
q-94 0 -161 41t-67 130q0 57 27 91t81 57z" />
    <glyph glyph-name="zero.onum" horiz-adv-x="746" 
d="M373 412q-47 0 -77 -33t-30 -79q0 -48 30 -81.5t77 -33.5t77 33.5t30 81.5q0 46 -30.5 79t-76.5 33zM706 299q0 -147 -96.5 -233t-236.5 -86q-139 0 -236 86t-97 233q0 145 97 230t236 85q140 0 236.5 -85t96.5 -230z" />
    <glyph glyph-name="tcommaaccent.sc" horiz-adv-x="529" 
d="M181 -45h189l-93 -195h-164zM380 413v-413h-231v413h-142v181h515v-181h-142z" />
    <glyph glyph-name="ydieresis.sc" horiz-adv-x="632" 
d="M96 748q0 40 30 69.5t71 29.5q40 0 69.5 -29.5t29.5 -69.5q0 -41 -29.5 -69.5t-69.5 -28.5q-42 0 -71.5 28t-29.5 70zM345 748q0 40 30 69.5t71 29.5q40 0 69.5 -29.5t29.5 -69.5q0 -41 -29.5 -69.5t-69.5 -28.5q-42 0 -71.5 28t-29.5 70zM426 208v-208h-231v208
l-215 386h262l77 -198l77 198h256z" />
    <glyph glyph-name="ampersand.sc" horiz-adv-x="800" 
d="M348 159l-69 67q-13 -4 -22.5 -15t-9.5 -25q0 -22 17 -32.5t35 -10.5q32 0 49 16zM344 478q-17 0 -28 -12t-11 -27q0 -25 31 -47q47 12 47 45q0 18 -10.5 29.5t-28.5 11.5zM507 0l-28 28q-70 -48 -173 -48q-121 0 -192.5 50t-71.5 142q0 58 33 99.5t90 60.5
q-53 42 -53 109q0 75 64.5 124t168.5 49t163.5 -46t59.5 -120q0 -103 -123 -153l40 -35l45 52h256l-165 -169l160 -143h-274z" />
    <glyph glyph-name="percent.sc" horiz-adv-x="850" 
d="M291 -37l-92 54l344 592l93 -54zM648 99q22 0 36.5 13.5t14.5 36.5t-14.5 36.5t-36.5 13.5q-21 0 -36 -14t-15 -36t15 -36t36 -14zM648 -17q-69 0 -118.5 46.5t-49.5 118.5q0 73 49.5 118.5t118.5 45.5q70 0 119.5 -45.5t49.5 -118.5t-49.5 -119t-119.5 -46zM203 399
q22 0 36.5 13.5t14.5 36.5t-14.5 36.5t-36.5 13.5q-21 0 -36 -14t-15 -36t15 -36t36 -14zM203 283q-69 0 -118.5 46.5t-49.5 118.5q0 73 49.5 118.5t118.5 45.5q70 0 119.5 -45.5t49.5 -118.5t-49.5 -119t-119.5 -46z" />
    <glyph glyph-name="dollar.sc" horiz-adv-x="640" 
d="M279 590v56h97v-53q116 -13 198 -70l-115 -136q-55 36 -107 36q-42 0 -42 -24q0 -20 73 -34q76 -15 126 -56t50 -115q0 -85 -56 -131.5t-137 -60.5v-64h-98v62q-130 13 -215 78l118 138q59 -52 127 -52q35 0 35 22q0 14 -18.5 22.5t-68.5 20.5q-29 7 -54 18.5t-49.5 30.5
t-39 49t-14.5 68q0 84 56 132.5t134 62.5z" />
    <glyph glyph-name="exclam.sc" horiz-adv-x="420" 
d="M93 251v343h234v-343h-234zM210 -17q-52 0 -86 32t-34 83q0 48 34.5 81t85.5 33t85.5 -33t34.5 -81q0 -51 -34 -83t-86 -32z" />
    </font>
</defs>
</svg>
