<?xml version="1.0" standalone="no"?>
<!DOCTYPE svg PUBLIC "-//W3C//DTD SVG 1.1//EN" "http://www.w3.org/Graphics/SVG/1.1/DTD/svg11.dtd" >
<svg>
<metadata>
Created by FontForge 20090622 at Mon Oct  5 11:51:38 2020
 By deploy user
Copyright &#195;&#131;&#194;&#130;&#195;&#130;&#194;&#169; 2004 - 2007 Linotype GmbH, www.linotype.com. All rights reserved.
</metadata>
<defs>
<font id="AvenirNextLTPro-Light" horiz-adv-x="240" >
  <font-face 
    font-family="Avenir Next LT Pro Light"
    font-weight="300"
    font-stretch="normal"
    units-per-em="1000"
    panose-1="0 0 0 0 0 0 0 0 0 0"
    ascent="800"
    descent="-200"
    x-height="465"
    cap-height="708"
    bbox="-382 -411 1303 1192"
    underline-thickness="50"
    underline-position="-50"
    unicode-range="U+000D-U+FE48"
  />
<missing-glyph horiz-adv-x="512" 
d="M278 184v-67h-56v67h56zM383 478q0 -34 -13 -60t-50 -60q-37 -33 -43 -52q-6 -20 -6 -72h-46l-2 17q0 56 13 81q17 33 46 59q30 29 40 46.5t10 36.5q0 36 -22.5 60.5t-53.5 24.5q-71 0 -82 -95l-50 8q6 69 42 103t93 34q55 0 89.5 -36t34.5 -95zM50 50h412v617h-412v-617
zM512 718v-718h-512v718h512z" />
    <glyph glyph-name=".notdef" horiz-adv-x="512" 
d="M278 184v-67h-56v67h56zM383 478q0 -34 -13 -60t-50 -60q-37 -33 -43 -52q-6 -20 -6 -72h-46l-2 17q0 56 13 81q17 33 46 59q30 29 40 46.5t10 36.5q0 36 -22.5 60.5t-53.5 24.5q-71 0 -82 -95l-50 8q6 69 42 103t93 34q55 0 89.5 -36t34.5 -95zM50 50h412v617h-412v-617
zM512 718v-718h-512v718h512z" />
    <glyph glyph-name=".null" horiz-adv-x="500" 
 />
    <glyph glyph-name="nonmarkingreturn" horiz-adv-x="333" 
 />
    <glyph glyph-name="CR" unicode="&#xd;" horiz-adv-x="0" 
 />
    <glyph glyph-name="space" unicode=" " horiz-adv-x="250" 
 />
    <glyph glyph-name="exclam" unicode="!" horiz-adv-x="310" 
d="M199 38q0 -18 -13 -31t-31 -13t-30.5 13t-12.5 31t12.5 31.5t30.5 13.5t31 -13.5t13 -31.5zM183 708v-515h-55v515h55z" />
    <glyph glyph-name="quotedbl" unicode="&#x22;" horiz-adv-x="405" 
d="M154 708v-233h-48v233h48zM298 708v-233h-47v233h47z" />
    <glyph glyph-name="numbersign" unicode="#" horiz-adv-x="554" 
d="M337 268l23 174h-146l-23 -174h146zM511 487v-45h-104l-23 -174h100v-45h-106l-30 -223h-47l30 223h-146l-30 -223h-47l30 223h-105v45h111l24 174h-109v45h115l30 221h46l-29 -221h146l30 221h46l-29 -221h97z" />
    <glyph glyph-name="dollar" unicode="$" horiz-adv-x="573" 
d="M448 179q0 102 -149 149v-296q62 2 105.5 39.5t43.5 107.5zM260 394v282q-58 -3 -98 -41t-40 -98q0 -58 36.5 -91.5t101.5 -51.5zM503 176q0 -84 -57.5 -135t-146.5 -53v-72h-39v72q-129 4 -207 100l43 31q27 -40 75 -63t89 -24v306q-41 13 -71.5 27t-59.5 36.5
t-44.5 55.5t-15.5 76q0 81 54.5 131.5t136.5 55.5v72h39v-72q124 -4 187 -80l-42 -32q-49 67 -145 69v-296q47 -16 78 -30.5t62.5 -38t47.5 -57.5t16 -79z" />
    <glyph glyph-name="percent" unicode="%" horiz-adv-x="833" 
d="M214 671q-50 0 -86 -35t-36 -88t36 -88t86 -35t86 35t36 88t-36 88t-86 35zM619 283q-50 0 -86 -35t-36 -88t36 -88t86 -35t86 35t36 88t-36 88t-86 35zM214 376q-72 0 -121 49.5t-49 122.5t49 122.5t121 49.5t121 -49.5t49 -122.5t-49 -122.5t-121 -49.5zM659 715
l-444 -744l-42 22l445 744zM619 -12q-72 0 -121 49.5t-49 122.5t49 122.5t121 49.5t121 -49.5t49 -122.5t-49 -122.5t-121 -49.5z" />
    <glyph glyph-name="ampersand" unicode="&#x26;" horiz-adv-x="704" 
d="M456 148l-200 210q-142 -66 -142 -176q0 -66 46.5 -108t113.5 -42q110 0 182 116zM415 572q0 48 -31.5 78.5t-78.5 30.5q-50 0 -82.5 -32.5t-32.5 -84.5q0 -70 82 -148q68 34 105.5 69t37.5 87zM523 157l151 -157h-76l-106 111q-88 -125 -220 -125q-92 0 -153 52.5
t-61 143.5q0 74 43.5 124t123.5 88q-89 92 -89 170q0 74 48.5 118t120.5 44q69 0 116 -42.5t47 -110.5q0 -64 -42.5 -106t-122.5 -84l182 -190l104 185h62z" />
    <glyph glyph-name="quotesingle" unicode="'" horiz-adv-x="260" 
d="M154 708v-233h-48v233h48z" />
    <glyph glyph-name="parenleft" unicode="(" horiz-adv-x="300" 
d="M228 -133l-42 -25q-64 89 -102 206.5t-38 239.5t38 240t102 206l42 -25q-59 -81 -95 -195t-36 -226t36 -226t95 -195z" />
    <glyph glyph-name="parenright" unicode=")" horiz-adv-x="300" 
d="M253 288q0 -123 -38 -239.5t-102 -206.5l-41 25q59 84 94.5 197t35.5 224t-35.5 224t-94.5 197l41 25q64 -90 102 -206.5t38 -239.5z" />
    <glyph glyph-name="asterisk" unicode="*" horiz-adv-x="444" 
d="M393 603l16 -43l-150 -47l95 -128l-37 -27l-95 131l-95 -131l-37 27l95 128l-150 47l16 43l148 -48v153h46v-153z" />
    <glyph glyph-name="plus" unicode="+" horiz-adv-x="666" 
d="M581 327v-47h-224v-226h-47v226h-225v47h225v226h47v-226h224z" />
    <glyph glyph-name="comma" unicode="," horiz-adv-x="253" 
d="M117 93h55l-75 -232h-43z" />
    <glyph glyph-name="hyphen" unicode="-" horiz-adv-x="313" 
d="M261 269v-45h-209v45h209z" />
    <glyph glyph-name="period" unicode="." horiz-adv-x="253" 
d="M127 83q18 0 30.5 -13.5t12.5 -31.5t-12.5 -31t-30.5 -13q-19 0 -31.5 13t-12.5 31t12.5 31.5t31.5 13.5z" />
    <glyph glyph-name="slash" unicode="/" horiz-adv-x="370" 
d="M315 727l45 -16l-304 -728l-45 15z" />
    <glyph glyph-name="zero" unicode="0" horiz-adv-x="573" 
d="M459 353q0 55 -7.5 106t-24.5 103t-53 83.5t-87 31.5t-87.5 -31.5t-54 -83.5t-24.5 -102.5t-7 -106.5q0 -55 7 -105.5t24.5 -102t54 -82.5t87.5 -31t87 31t53 82.5t24.5 102t7.5 105.5zM515 353q0 -71 -11 -133t-36 -117t-71.5 -87t-109.5 -32q-65 0 -111.5 32t-70.5 87
t-35 116.5t-11 133.5q0 57 6 107t22.5 99.5t41.5 85t65.5 57.5t92.5 22q63 0 109.5 -32t71.5 -87.5t36 -118t11 -133.5z" />
    <glyph glyph-name="one" unicode="1" horiz-adv-x="573" 
d="M342 708v-708h-55v640l-130 -110l-33 38l169 140h49z" />
    <glyph glyph-name="two" unicode="2" horiz-adv-x="573" 
d="M489 49v-49h-434v58l275 292q48 51 73 94t25 90q0 65 -42 104t-105 39q-57 0 -97.5 -33.5t-54.5 -90.5l-54 12q16 71 73 115t133 44q87 0 145 -51t58 -136q0 -62 -30 -112t-92 -116l-248 -260h375z" />
    <glyph glyph-name="three" unicode="3" horiz-adv-x="573" 
d="M489 193q0 -93 -61.5 -151t-158.5 -58q-74 0 -130 35.5t-85 98.5l52 20q19 -49 63 -77t100 -29q71 -1 118 44.5t47 116.5q0 53 -29.5 89t-71 50.5t-90.5 14.5h-28v48h28q73 0 121.5 35.5t48.5 106.5q0 62 -42 101t-104 39q-95 0 -139 -79l-46 25q62 101 188 101
q84 0 140.5 -49.5t56.5 -134.5q0 -63 -35.5 -108t-96.5 -58v-2q71 -14 112.5 -62t41.5 -117z" />
    <glyph glyph-name="four" unicode="4" horiz-adv-x="573" 
d="M99 224h270v422h-3zM531 224v-49h-109v-175h-53v175h-327v56l307 477h73v-484h109z" />
    <glyph glyph-name="five" unicode="5" horiz-adv-x="573" 
d="M494 218q0 -104 -65 -169t-163 -65q-140 0 -206 117l49 24q48 -93 154 -93q73 0 124 50t51 131t-51.5 131.5t-134.5 50.5q-70 0 -141 -38l6 351h348v-49h-297l-5 -238q45 19 105 19q100 0 163 -62t63 -160z" />
    <glyph glyph-name="six" unicode="6" horiz-adv-x="573" 
d="M287 31q73 0 120.5 49t47.5 124t-46 123.5t-121 48.5q-74 0 -122 -49t-48 -123q0 -75 47.5 -124t121.5 -49zM510 204q0 -97 -63 -158.5t-161 -61.5q-97 0 -160 61.5t-63 158.5q0 85 63 189l191 315h64l-204 -326l2 -2q43 41 120 41q91 0 151 -61t60 -156z" />
    <glyph glyph-name="seven" unicode="7" horiz-adv-x="573" 
d="M485 708v-53l-289 -655h-61l295 659h-353v49h408z" />
    <glyph glyph-name="eight" unicode="8" horiz-adv-x="573" 
d="M287 352q-72 0 -119 -45.5t-47 -114.5t46 -115t120 -46q73 0 119 46t46 115t-46.5 114.5t-118.5 45.5zM287 677q-60 0 -100.5 -39.5t-40.5 -99.5q0 -59 40.5 -98.5t100.5 -39.5q59 0 99.5 40t40.5 98q0 60 -40 99.5t-100 39.5zM507 187q0 -91 -63.5 -147t-156.5 -56
t-157 56t-64 147q0 68 37.5 119t101.5 70v2q-51 18 -81.5 63t-30.5 99q0 82 56 133t138 51q81 0 137 -51t56 -133q0 -54 -30 -99t-82 -63v-2q65 -19 102 -70t37 -119z" />
    <glyph glyph-name="nine" unicode="9" horiz-adv-x="573" 
d="M288 677q-74 0 -121 -49t-47 -123q0 -75 46 -123t120 -48q75 0 122.5 48t47.5 123q0 74 -47.5 123t-120.5 49zM511 505q0 -84 -63 -188l-191 -317h-63l204 328l-2 2q-43 -41 -120 -41q-91 0 -151 60.5t-60 155.5q0 97 62.5 158t160.5 61t160.5 -61t62.5 -158z" />
    <glyph glyph-name="colon" unicode=":" horiz-adv-x="293" 
d="M147 83q18 0 30.5 -13.5t12.5 -31.5t-12.5 -31t-30.5 -13q-19 0 -31.5 13t-12.5 31t12.5 31.5t31.5 13.5zM147 469q18 0 30.5 -13t12.5 -31t-12.5 -31t-30.5 -13q-19 0 -31.5 13t-12.5 31t12.5 31t31.5 13z" />
    <glyph glyph-name="semicolon" unicode=";" horiz-adv-x="293" 
d="M129 93h57l-75 -232h-45zM147 469q18 0 30.5 -13t12.5 -31t-12.5 -31t-30.5 -13q-19 0 -31.5 13t-12.5 31t12.5 31t31.5 13z" />
    <glyph glyph-name="less" unicode="&#x3c;" horiz-adv-x="666" 
d="M581 97v-47l-496 234v38l496 234v-47l-438 -206z" />
    <glyph glyph-name="equal" unicode="=" horiz-adv-x="666" 
d="M581 248v-46h-496v46h496zM581 405v-46h-496v46h496z" />
    <glyph glyph-name="greater" unicode="&#x3e;" horiz-adv-x="666" 
d="M581 322v-38l-496 -234v47l438 206l-438 206v47z" />
    <glyph glyph-name="question" unicode="?" horiz-adv-x="479" 
d="M288 38q0 -18 -12.5 -31t-31.5 -13q-18 0 -30.5 13t-12.5 31t12.5 31.5t30.5 13.5t31 -13.5t13 -31.5zM436 548q0 -40 -14.5 -72.5t-30 -48.5t-47.5 -43q-47 -38 -62.5 -66t-15.5 -78v-45h-54v57q0 46 19 79.5t57 67.5l30 27q31 28 47 54t16 65q0 60 -39.5 94.5
t-98.5 34.5q-57 0 -94.5 -35t-46.5 -91l-52 9q14 78 66.5 121.5t129.5 43.5q82 0 136 -46.5t54 -127.5z" />
    <glyph glyph-name="at" unicode="@" horiz-adv-x="800" 
d="M505 402q0 43 -21 72.5t-65 29.5q-63 0 -102.5 -62t-39.5 -133q0 -41 21 -72.5t65 -31.5q45 0 79.5 36t48.5 79.5t14 81.5zM767 408q0 -114 -54.5 -181t-139.5 -67q-42 0 -64.5 21t-20.5 57h-3q-14 -29 -49 -53.5t-80 -24.5q-63 0 -98.5 43t-35.5 109q0 91 55.5 164.5
t143.5 73.5q39 0 66.5 -19t37.5 -51h4l13 54h48l-49 -203q-11 -50 -11 -73q0 -53 53 -53q63 0 98 57t35 142q0 126 -84 200.5t-216 74.5q-140 0 -230 -94.5t-90 -232.5q0 -143 91 -233.5t236 -90.5q165 0 274 114l30 -35q-120 -126 -309 -126q-169 0 -274 105.5t-105 267.5
q0 157 110 265t268 108q147 0 248.5 -86t101.5 -233z" />
    <glyph glyph-name="A" unicode="A" horiz-adv-x="688" 
d="M174 242h341l-170 408zM375 708l301 -708h-61l-80 192h-382l-80 -192h-60l306 708h56z" />
    <glyph glyph-name="B" unicode="B" horiz-adv-x="628" 
d="M507 195q0 75 -52.5 113.5t-137.5 38.5h-164v-299h151q90 0 146.5 36t56.5 111zM292 660h-139v-267h154q67 0 116.5 33t49.5 101q0 70 -50 101.5t-131 31.5zM562 194q0 -94 -70 -144t-182 -50h-212v708h205q60 0 107.5 -14.5t82.5 -55.5t35 -106q0 -61 -36.5 -102.5
t-95.5 -54.5v-2q70 -8 118 -54.5t48 -124.5z" />
    <glyph glyph-name="C" unicode="C" horiz-adv-x="721" 
d="M646 134l43 -29q-41 -56 -109 -90t-152 -34q-160 0 -263.5 105.5t-103.5 267.5t104 267.5t263 105.5q75 0 141.5 -28t104.5 -77l-44 -35q-30 40 -85 65.5t-117 25.5q-139 0 -224 -94t-85 -230t85.5 -230t223.5 -94q144 0 218 104z" />
    <glyph glyph-name="D" unicode="D" horiz-adv-x="761" 
d="M642 354q0 136 -90 220.5t-245 84.5h-154v-610h154q155 0 245 85t90 220zM700 354q0 -114 -55.5 -196.5t-139.5 -120t-183 -37.5h-224v708h224q99 0 183 -37.5t139.5 -120t55.5 -196.5z" />
    <glyph glyph-name="E" unicode="E" horiz-adv-x="591" 
d="M541 49v-49h-443v708h430v-49h-375v-267h351v-48h-351v-295h388z" />
    <glyph glyph-name="F" unicode="F" horiz-adv-x="561" 
d="M517 708v-49h-364v-268h339v-49h-339v-342h-55v708h419z" />
    <glyph glyph-name="G" unicode="G" horiz-adv-x="784" 
d="M692 363v-315q-110 -67 -260 -67q-162 0 -266.5 106t-104.5 268q0 161 104.5 266.5t264.5 105.5q154 0 250 -91l-38 -38q-78 80 -211 80q-139 0 -225.5 -94t-86.5 -229q0 -136 86.5 -230.5t227.5 -94.5q122 0 205 49v236h-172v48h226z" />
    <glyph glyph-name="H" unicode="H" horiz-adv-x="723" 
d="M625 708v-708h-55v342h-417v-342h-55v708h55v-315h417v315h55z" />
    <glyph glyph-name="I" unicode="I" horiz-adv-x="251" 
d="M153 708v-708h-55v708h55z" />
    <glyph glyph-name="J" unicode="J" horiz-adv-x="488" 
d="M395 708v-508q0 -92 -43.5 -155t-142.5 -63q-71 0 -119.5 37t-63.5 96l51 15q12 -45 45.5 -72.5t81.5 -27.5q136 0 136 175v503h55z" />
    <glyph glyph-name="K" unicode="K" horiz-adv-x="607" 
d="M218 386l378 -386h-81l-361 378h-1v-378h-55v708h55v-320h1l344 320h78z" />
    <glyph glyph-name="L" unicode="L" horiz-adv-x="506" 
d="M491 49v-49h-393v708h55v-659h338z" />
    <glyph glyph-name="M" unicode="M" horiz-adv-x="893" 
d="M795 708v-708h-55v638h-3l-275 -638h-32l-275 638h-2v-638h-55v708h86l263 -617l1 1l261 616h86z" />
    <glyph glyph-name="N" unicode="N" horiz-adv-x="768" 
d="M670 708v-708h-70l-445 633h-2v-633h-55v708h70l445 -629h2v629h55z" />
    <glyph glyph-name="O" unicode="O" horiz-adv-x="857" 
d="M738 354q0 136 -85.5 230t-223.5 94t-224 -94t-86 -230t85.5 -230t224.5 -94t224 94t85 230zM796 354q0 -162 -104.5 -267.5t-262.5 -105.5q-159 0 -263.5 105.5t-104.5 267.5t104.5 267.5t263.5 105.5q158 0 262.5 -105.5t104.5 -267.5z" />
    <glyph glyph-name="P" unicode="P" horiz-adv-x="577" 
d="M473 523q0 71 -48.5 104.5t-130.5 33.5h-141v-279h143q81 0 129 36t48 105zM528 523q0 -90 -63 -139t-167 -49h-145v-335h-55v708h197q104 0 168.5 -46t64.5 -139z" />
    <glyph glyph-name="Q" unicode="Q" horiz-adv-x="857" 
d="M725 362q0 131 -85 223.5t-219 92.5t-218 -92t-84 -224q0 -131 84.5 -222.5t218.5 -91.5t218.5 93t84.5 221zM825 49v-49h-404q-154 0 -257 102t-103 260t102.5 261.5t257.5 103.5t257.5 -103.5t102.5 -261.5q0 -103 -52.5 -187.5t-142.5 -123.5v-2h239z" />
    <glyph glyph-name="R" unicode="R" horiz-adv-x="597" 
d="M293 661h-140v-274h141q92 0 140 35t48 102q0 137 -189 137zM348 344l209 -344h-66l-202 340h-136v-340h-55v708h204q235 0 235 -184q0 -81 -54.5 -127.5t-134.5 -52.5z" />
    <glyph glyph-name="S" unicode="S" horiz-adv-x="566" 
d="M502 181q0 -96 -66.5 -148t-159.5 -52q-66 0 -124 26t-95 73l47 36q62 -87 173 -87q67 0 118 39.5t51 108.5q0 29 -11 53t-25 39t-41.5 29t-46.5 21t-55 18q-45 14 -74 27.5t-59 35.5t-45 56t-15 79q0 91 67 141.5t156 50.5q64 0 114.5 -23t79.5 -61l-43 -35
q-56 72 -153 72q-66 0 -116 -37.5t-50 -106.5q0 -28 10 -50.5t22.5 -36.5t37.5 -27.5t42 -19.5l49 -17q41 -13 64 -21.5t55.5 -26t49.5 -36.5t30 -50t13 -70z" />
    <glyph glyph-name="T" unicode="T" horiz-adv-x="560" 
d="M546 708v-49h-239v-659h-55v659h-238v49h532z" />
    <glyph glyph-name="U" unicode="U" horiz-adv-x="717" 
d="M625 708v-443q0 -53 -13 -100t-41.5 -90t-83 -68.5t-128.5 -25.5t-128.5 25.5t-83.5 68.5t-42 90t-13 100v443h55v-436q0 -46 10 -86t32.5 -76.5t66 -58t103.5 -21.5t103 21t65.5 57.5t32.5 76.5t10 87v436h55z" />
    <glyph glyph-name="V" unicode="V" horiz-adv-x="617" 
d="M550 708h59l-271 -708h-61l-269 708h60l239 -640h2z" />
    <glyph glyph-name="W" unicode="W" horiz-adv-x="967" 
d="M890 708h58l-210 -708h-67l-187 635h-2l-186 -635h-67l-210 708h58l185 -636h2l185 636h68l187 -636h2z" />
    <glyph glyph-name="X" unicode="X" horiz-adv-x="629" 
d="M349 371l257 -371h-69l-223 331l-222 -331h-69l257 372l-233 336h68l200 -298l200 298h66z" />
    <glyph glyph-name="Y" unicode="Y" horiz-adv-x="580" 
d="M511 708h64l-257 -401v-307h-55v307l-258 401h68l219 -354z" />
    <glyph glyph-name="Z" unicode="Z" horiz-adv-x="579" 
d="M545 49v-49h-506v49l431 610h-420v49h487v-49l-431 -610h439z" />
    <glyph glyph-name="bracketleft" unicode="[" horiz-adv-x="300" 
d="M220 -114v-42h-155v888h155v-42h-103v-804h103z" />
    <glyph glyph-name="backslash" unicode="\" horiz-adv-x="370" 
d="M55 727l305 -729l-45 -15l-304 728z" />
    <glyph glyph-name="bracketright" unicode="]" horiz-adv-x="300" 
d="M235 732v-888h-155v42h103v804h-103v42h155z" />
    <glyph glyph-name="asciicircum" unicode="^" horiz-adv-x="666" 
d="M353 708l227 -444h-48l-199 392l-199 -392h-48l227 444h40z" />
    <glyph glyph-name="underscore" unicode="_" horiz-adv-x="500" 
d="M500 -81v-40h-500v40h500z" />
    <glyph glyph-name="grave" unicode="`" 
d="M69 708l101 -144h-45l-125 144h69z" />
    <glyph glyph-name="a" unicode="a" horiz-adv-x="527" 
d="M389 202v38h-38q-239 0 -239 -112q0 -50 35.5 -73.5t82.5 -23.5q77 0 118 50t41 121zM446 0h-47q-7 42 -7 88h-3q-53 -101 -171 -101q-62 0 -110.5 35t-48.5 104q0 45 20.5 76t58.5 47t78 22.5t92 8.5q18 1 81 1v23q0 65 -34.5 97.5t-98.5 32.5q-82 0 -139 -55l-30 35
q67 64 174 64q80 0 128.5 -43t48.5 -126v-204q0 -53 8 -105z" />
    <glyph glyph-name="b" unicode="b" horiz-adv-x="633" 
d="M520 232q0 85 -51 143.5t-136 58.5q-82 0 -136.5 -58t-54.5 -143t54.5 -143t136.5 -58q85 0 136 57.5t51 142.5zM575 232q0 -106 -66.5 -175.5t-171.5 -69.5q-57 0 -108 28t-79 79h-2v-94h-53v756h53v-387h2q29 53 79.5 81t107.5 28q106 0 172 -70t66 -176z" />
    <glyph glyph-name="c" unicode="c" horiz-adv-x="493" 
d="M433 90l39 -30q-63 -73 -169 -73q-109 0 -177 69t-68 176t68 176.5t177 69.5q47 0 92.5 -19.5t73.5 -54.5l-41 -30q-45 60 -125 60q-85 0 -137.5 -58t-52.5 -144q0 -85 52 -142.5t138 -57.5q82 0 130 58z" />
    <glyph glyph-name="d" unicode="d" horiz-adv-x="633" 
d="M491 233q0 85 -54 143t-136 58q-86 0 -137 -58t-51 -144q0 -85 51 -142.5t137 -57.5q82 0 136 58t54 143zM538 756v-756h-53v94h-2q-29 -51 -79 -79t-108 -28q-105 0 -171.5 69.5t-66.5 175.5t66.5 176t171.5 70q58 0 108 -28t79 -81h2v387h53z" />
    <glyph glyph-name="e" unicode="e" horiz-adv-x="567" 
d="M113 265h343q-3 75 -47.5 122t-120.5 47q-75 0 -123.5 -53t-51.5 -116zM509 244q0 -3 -5.5 -10.5t-6.5 -11.5h-385q2 -78 52.5 -134t131.5 -56q100 0 156 82l39 -31q-75 -96 -195 -96q-103 0 -170.5 70t-67.5 177q0 105 66.5 174.5t163.5 69.5q101 0 158.5 -61.5
t61.5 -153.5q0 -3 0.5 -10t0.5 -9z" />
    <glyph glyph-name="f" unicode="f" horiz-adv-x="291" 
d="M312 761l-10 -45q-21 6 -44 6q-92 0 -92 -121v-136h115v-44h-115v-421h-52v421h-98v44h97v141q0 80 38.5 121t107.5 41q31 0 53 -7z" />
    <glyph glyph-name="g" unicode="g" horiz-adv-x="630" 
d="M301 434q-86 0 -137 -57.5t-51 -140.5t51 -139.5t137 -56.5q82 0 136 55.5t54 141.5q0 81 -54.5 139t-135.5 58zM538 465v-454q0 -48 -11.5 -89.5t-37.5 -80.5t-76 -61.5t-120 -22.5q-134 0 -217 91l37 39q32 -39 80.5 -61.5t101.5 -22.5q100 0 145 58t45 151v91h-2
q-25 -51 -77 -79.5t-110 -28.5q-106 0 -172 68t-66 172q0 103 66.5 173t171.5 70q58 0 108.5 -28.5t78.5 -80.5h2v96h53z" />
    <glyph glyph-name="h" unicode="h" horiz-adv-x="578" 
d="M489 284v-284h-53v265q0 169 -132 169q-65 0 -110.5 -52t-45.5 -145v-237h-53v756h53v-383h2q18 48 64 76.5t101 28.5q87 0 130.5 -53.5t43.5 -140.5z" />
    <glyph glyph-name="i" unicode="i" horiz-adv-x="242" 
d="M147 465v-465h-52v465h52zM121 692q15 0 27 -11.5t12 -28.5q0 -18 -12 -29.5t-27 -11.5q-16 0 -28 12t-12 29t12 28.5t28 11.5z" />
    <glyph glyph-name="j" unicode="j" horiz-adv-x="243" 
d="M148 465v-559q0 -68 -28 -107t-98 -39q-29 0 -46 5l8 44q20 -5 37 -5q45 0 59.5 27.5t14.5 80.5v553h53zM122 692q15 0 27 -11.5t12 -28.5t-12 -29t-27 -12q-16 0 -28 12t-12 29t12 28.5t28 11.5z" />
    <glyph glyph-name="k" unicode="k" horiz-adv-x="488" 
d="M210 252l264 -252h-77l-247 245h-2v-245h-53v756h53v-502h2l224 211h75z" />
    <glyph glyph-name="l" unicode="l" horiz-adv-x="243" 
d="M148 756v-756h-53v756h53z" />
    <glyph glyph-name="m" unicode="m" horiz-adv-x="885" 
d="M796 284v-284h-53v265q0 75 -30 122t-97 47q-71 0 -109 -54t-38 -137v-243h-52v274q0 160 -121 160q-61 0 -105 -52t-44 -145v-237h-52v358q0 67 -4 107h50q4 -33 4 -94h2q20 49 63.5 78t96.5 29q110 0 147 -113q1 0 1 1q23 54 66.5 83t101.5 29q87 0 130 -53.5
t43 -140.5z" />
    <glyph glyph-name="n" unicode="n" horiz-adv-x="578" 
d="M489 284v-284h-53v265q0 169 -133 169q-65 0 -110.5 -52t-45.5 -145v-237h-52v358q0 67 -4 107h50q4 -33 4 -94h2q20 49 67 78t101 29q87 0 130.5 -53.5t43.5 -140.5z" />
    <glyph glyph-name="o" unicode="o" horiz-adv-x="609" 
d="M304 434q-86 0 -138.5 -58t-52.5 -143t52.5 -143t138.5 -58t139 57.5t53 143.5t-53 143.5t-139 57.5zM304 478q108 0 177.5 -69t69.5 -176t-69.5 -176.5t-177.5 -69.5t-177 69.5t-69 176.5t69 176t177 69z" />
    <glyph glyph-name="p" unicode="p" horiz-adv-x="632" 
d="M519 232q0 86 -51 144t-137 58q-82 0 -136 -58t-54 -143t54 -143t136 -58q86 0 137 57.5t51 142.5zM574 232q0 -106 -66.5 -175.5t-171.5 -69.5q-57 0 -108 28.5t-79 78.5h-3v-334h-52v705h52v-96h3q29 53 79.5 81t107.5 28q106 0 172 -70t66 -176z" />
    <glyph glyph-name="q" unicode="q" horiz-adv-x="632" 
d="M491 233q0 85 -54 143t-136 58q-86 0 -137 -58t-51 -144q0 -85 51 -142.5t137 -57.5q82 0 136 58t54 143zM538 465v-705h-53v334h-3q-27 -50 -78 -78.5t-108 -28.5q-105 0 -171.5 69.5t-66.5 175.5t66 176t172 70q57 0 107.5 -28t78.5 -81h3v96h53z" />
    <glyph glyph-name="r" unicode="r" horiz-adv-x="345" 
d="M336 468l-8 -42q-12 4 -34 4q-66 0 -106.5 -52t-40.5 -139v-239h-52v358q0 67 -4 107h50q4 -33 4 -94h2q20 51 61 79t92 28q14 0 21 -1q3 0 8 -4.5t7 -4.5z" />
    <glyph glyph-name="s" unicode="s" horiz-adv-x="434" 
d="M386 129q0 -70 -49 -105.5t-118 -35.5q-117 0 -177 86l42 31q45 -72 135 -72q49 0 82 23t33 69q0 41 -34 61t-107 38q-28 7 -46.5 14t-40 21t-32.5 36t-11 53q0 63 46 96.5t112 33.5q49 0 91 -20.5t65 -57.5l-40 -30q-38 64 -118 64q-42 0 -74 -20.5t-32 -61.5
q0 -39 27.5 -57.5t91.5 -32.5q77 -17 115.5 -47.5t38.5 -85.5z" />
    <glyph glyph-name="t" unicode="t" horiz-adv-x="313" 
d="M291 50l3 -45q-34 -13 -73 -13q-49 0 -81.5 28.5t-32.5 90.5v310h-98v44h98v133h53v-133h133v-44h-133v-298q0 -47 19 -66.5t56 -19.5q27 0 56 13z" />
    <glyph glyph-name="u" unicode="u" horiz-adv-x="578" 
d="M487 0h-51q-4 33 -4 94h-2q-21 -49 -67 -78t-100 -29q-87 0 -130.5 53.5t-43.5 140.5v284h52v-264q0 -170 133 -170q65 0 110.5 52.5t45.5 145.5v236h52v-358q0 -57 5 -107z" />
    <glyph glyph-name="v" unicode="v" horiz-adv-x="470" 
d="M395 465h56l-185 -465h-60l-187 465h58l159 -410h2z" />
    <glyph glyph-name="w" unicode="w" horiz-adv-x="730" 
d="M646 465h55l-144 -465h-59l-133 398h-2l-132 -398h-59l-143 465h56l117 -399h2l134 399h54l135 -399h2z" />
    <glyph glyph-name="x" unicode="x" horiz-adv-x="473" 
d="M267 244l186 -244h-68l-150 206l-151 -206h-64l183 242l-168 223h67l134 -186l134 186h64z" />
    <glyph glyph-name="y" unicode="y" horiz-adv-x="468" 
d="M392 465h57l-231 -597q-21 -53 -52.5 -81t-82.5 -28q-24 0 -54 7l6 47q24 -7 46 -7q35 0 55.5 21.5t36.5 63.5l40 105l-194 469h58l162 -413l2 1z" />
    <glyph glyph-name="z" unicode="z" horiz-adv-x="441" 
d="M403 45v-45h-366v39l288 382h-273v44h340v-39l-287 -381h298z" />
    <glyph glyph-name="braceleft" unicode="{" horiz-adv-x="300" 
d="M243 -114v-42h-57q-48 0 -78 30t-30 95v184q0 112 -78 112v46q78 0 78 112v184q0 65 30 95t78 30h57v-42h-47q-67 0 -67 -91v-184q0 -62 -26 -92t-55 -34v-2q29 -4 55 -34t26 -92v-184q0 -91 67 -91h47z" />
    <glyph glyph-name="bar" unicode="|" horiz-adv-x="222" 
d="M135 750v-1000h-48v1000h48z" />
    <glyph glyph-name="braceright" unicode="}" horiz-adv-x="300" 
d="M300 311v-46q-78 0 -78 -112v-184q0 -65 -30 -95t-78 -30h-57v42h47q67 0 67 91v184q0 62 26 92t55 34v2q-29 4 -55 34t-26 92v184q0 91 -67 91h-47v42h57q48 0 78 -30t30 -95v-184q0 -112 78 -112z" />
    <glyph glyph-name="asciitilde" unicode="~" horiz-adv-x="666" 
d="M543 364l33 -32q-58 -92 -134 -92q-53 0 -108 36q-65 43 -107 43q-60 0 -103 -77l-34 31q60 93 135 93q53 0 107 -35q66 -44 108 -44q55 0 103 77z" />
    <glyph glyph-name="uni00A0" unicode="&#xa0;" horiz-adv-x="250" 
 />
    <glyph glyph-name="exclamdown" unicode="&#xa1;" horiz-adv-x="310" 
d="M183 288v-515h-55v515h55zM155 487q19 0 31.5 -13t12.5 -31t-12.5 -31t-31.5 -13q-18 0 -30.5 13t-12.5 31t12.5 31t30.5 13z" />
    <glyph glyph-name="cent" unicode="&#xa2;" horiz-adv-x="573" 
d="M299 36v394q-72 -10 -114.5 -65t-42.5 -133q0 -77 42.5 -131.5t114.5 -64.5zM454 92l41 -31q-61 -68 -157 -73v-60h-39v62q-96 8 -154 75.5t-58 166.5t58 167t154 77v64h39v-63q94 -3 156 -74l-41 -32q-43 57 -115 60v-397q74 5 116 58z" />
    <glyph glyph-name="sterling" unicode="&#xa3;" horiz-adv-x="573" 
d="M524 672l-36 -39q-44 46 -109 46q-42 0 -72 -17t-44.5 -46t-21 -59t-6.5 -65v-102h168v-47h-168v-297h260v-46h-420v46h105v297h-97v47h97v107q0 100 49 164.5t152 64.5q89 0 143 -54z" />
    <glyph glyph-name="currency" unicode="&#xa4;" horiz-adv-x="573" 
d="M468 287q0 78 -49.5 131t-130.5 53q-80 0 -129.5 -53t-49.5 -131q0 -79 49 -133t130 -54t130.5 54t49.5 133zM467 133l87 -86l-31 -32l-88 88q-63 -50 -147 -50q-86 0 -147 51l-90 -89l-31 32l88 89q-50 58 -50 151q0 85 47 146l-85 85l32 31l85 -84q61 53 151 53
q89 0 150 -53l84 84l32 -31l-84 -83q50 -59 50 -148q0 -92 -53 -154z" />
    <glyph glyph-name="yen" unicode="&#xa5;" horiz-adv-x="573" 
d="M492 708h66l-227 -329h155v-42h-173v-114h173v-42h-173v-181h-53v181h-173v42h173v114h-173v42h157l-229 329h68l205 -311z" />
    <glyph glyph-name="brokenbar" unicode="&#xa6;" horiz-adv-x="222" 
d="M134 169v-344h-46v344h46zM134 675v-344h-46v344h46z" />
    <glyph glyph-name="section" unicode="&#xa7;" horiz-adv-x="573" 
d="M422 279q0 44 -28.5 69.5t-81.5 47.5l-55 22q-41 -5 -72.5 -30.5t-31.5 -72.5q0 -22 7.5 -38.5t26.5 -30t33.5 -21t47.5 -22.5l58 -26q38 6 67 32.5t29 69.5zM475 286q0 -52 -29.5 -86t-75.5 -48q84 -43 84 -127q0 -76 -53 -117t-130 -41q-135 0 -187 99l49 27
q39 -80 139 -80q50 0 88.5 27t38.5 81q0 38 -24 62t-71 46l-96 46q-56 27 -82.5 56.5t-26.5 82.5q0 51 32 85.5t81 48.5q-40 21 -63 48.5t-23 75.5q0 74 52 114.5t126 40.5q58 0 99.5 -23t60.5 -61l-45 -25q-14 27 -44 45t-72 18q-52 0 -87 -27.5t-35 -76.5q0 -20 7.5 -36.5
t13.5 -25t27.5 -22t26.5 -15.5t34 -16l68 -32q57 -27 87 -59.5t30 -84.5z" />
    <glyph glyph-name="dieresis" unicode="&#xa8;" 
d="M30 693q18 0 30 -12t12 -30t-12 -30t-30 -12t-29.5 12t-11.5 30t11.5 30t29.5 12zM210 693q18 0 29.5 -12t11.5 -30t-11.5 -30t-29.5 -12t-30 12t-12 30t12 30t30 12z" />
    <glyph glyph-name="copyright" unicode="&#xa9;" horiz-adv-x="800" 
d="M533 236l39 -27q-59 -78 -160 -78q-97 0 -159.5 63.5t-62.5 161.5t62.5 162t159.5 64q46 0 87.5 -19.5t66.5 -52.5l-40 -31q-18 24 -48.5 40.5t-63.5 16.5q-77 0 -124 -52.5t-47 -127.5t46.5 -127t122.5 -52q75 0 121 59zM733 353q0 137 -97.5 235t-234.5 98t-235.5 -98
t-98.5 -235t98 -234t236 -97q137 0 234.5 97t97.5 234zM780 353q0 -156 -111 -265.5t-268 -109.5q-158 0 -269.5 109t-111.5 266t111.5 267t269.5 110q157 0 268 -110t111 -267z" />
    <glyph glyph-name="ordfeminine" unicode="&#xaa;" horiz-adv-x="357" 
d="M251 554v19h-15q-147 0 -147 -62q0 -27 19.5 -39t47.5 -12q44 0 69.5 26.5t25.5 67.5zM299 431h-41q-5 25 -5 49h-2q-34 -56 -105 -56q-40 0 -71.5 21t-31.5 65q0 31 17 51t50 29t64.5 12t76.5 3v9q0 70 -78 70q-53 0 -89 -34l-25 29q44 41 117 41q57 0 88 -29t31 -78
v-124q0 -38 4 -58z" />
    <glyph glyph-name="guillemotleft" unicode="&#xab;" horiz-adv-x="482" 
d="M118 239l115 -179l-37 -26l-134 205l134 205l37 -26zM295 239l114 -179l-36 -26l-134 205l134 205l36 -26z" />
    <glyph glyph-name="logicalnot" unicode="&#xac;" horiz-adv-x="666" 
d="M583 405v-274h-47v228h-453v46h500z" />
    <glyph glyph-name="uni00AD" unicode="&#xad;" horiz-adv-x="313" 
d="M261 269v-45h-209v45h209z" />
    <glyph glyph-name="registered" unicode="&#xae;" horiz-adv-x="600" 
d="M356 550q0 40 -54 40h-49v-84h41q62 0 62 44zM332 480l72 -112h-46l-65 108h-40v-108h-38v254h88q40 0 65.5 -18t25.5 -55q0 -29 -17 -46.5t-45 -22.5zM497 493q0 82 -57.5 139.5t-139.5 57.5t-139.5 -57.5t-57.5 -139.5q0 -81 57.5 -138.5t139.5 -57.5t139.5 57.5
t57.5 138.5zM528 493q0 -93 -67 -159t-161 -66t-161 66t-67 159q0 94 67 160.5t161 66.5t161 -66.5t67 -160.5z" />
    <glyph glyph-name="macron" unicode="&#xaf;" 
d="M249 650v-43h-258v43h258z" />
    <glyph glyph-name="degree" unicode="&#xb0;" horiz-adv-x="400" 
d="M309 571q0 45 -32 77t-77 32t-77 -32t-32 -77t32 -77t77 -32t77 32t32 77zM348 571q0 -63 -42.5 -105.5t-105.5 -42.5t-105.5 42.5t-42.5 105.5t42.5 105.5t105.5 42.5t105.5 -42.5t42.5 -105.5z" />
    <glyph glyph-name="plusminus" unicode="&#xb1;" horiz-adv-x="666" 
d="M582 94v-46h-497v46h497zM583 392v-47h-227v-165h-47v165h-226v47h225v169h48v-169h227z" />
    <glyph glyph-name="twosuperior" unicode="&#xb2;" horiz-adv-x="363" 
d="M312 331v-42h-267v45l163 169q53 56 53 101q0 34 -21 53.5t-56 19.5q-30 0 -52.5 -19t-30.5 -53l-46 8q10 49 45.5 77.5t83.5 28.5q56 0 91 -30.5t35 -82.5q0 -39 -17.5 -67.5t-58.5 -70.5l-132 -137h210z" />
    <glyph glyph-name="threesuperior" unicode="&#xb3;" horiz-adv-x="363" 
d="M308 407q0 -60 -38.5 -92.5t-96.5 -32.5q-97 0 -134 87l44 15q11 -29 35.5 -44.5t54.5 -15.5q39 0 64 22t25 61q0 41 -31 62t-74 21h-23v40h23q42 0 67 20.5t25 57.5q0 33 -21.5 52t-54.5 19q-51 0 -79 -47l-38 21q42 67 118 67q54 0 87.5 -29t33.5 -82q0 -72 -69 -97
q0 -1 1 -1q81 -21 81 -104z" />
    <glyph glyph-name="acute" unicode="&#xb4;" 
d="M171 708h69l-125 -144h-45z" />
    <glyph glyph-name="mu" unicode="&#xb5;" horiz-adv-x="556" 
d="M475 0h-55v91h-2q-23 -46 -69 -75t-97 -29q-80 0 -121 49v-264h-52v693h52v-264q0 -82 29.5 -125t102.5 -43q67 0 111.5 53t44.5 143v236h51v-358q0 -27 5 -107z" />
    <glyph glyph-name="paragraph" unicode="&#xb6;" horiz-adv-x="600" 
d="M505 708v-834h-51v793h-135v-793h-51v450q-93 0 -151.5 53t-58.5 131q0 96 59 148t166 52h222z" />
    <glyph glyph-name="periodcentered" unicode="&#xb7;" horiz-adv-x="253" 
d="M127 338q18 0 30.5 -13t12.5 -31t-12.5 -31.5t-30.5 -13.5q-19 0 -31.5 13.5t-12.5 31.5t12.5 31t31.5 13z" />
    <glyph glyph-name="cedilla" unicode="&#xb8;" 
d="M224 -144q0 -45 -35 -65t-81 -20q-50 0 -93 20l12 30q30 -15 77 -15q27 0 50 11.5t23 37.5q0 43 -60 43q-27 0 -52 -10l-15 13l64 99h36l-52 -79q16 6 42 6q33 0 58.5 -18.5t25.5 -52.5z" />
    <glyph glyph-name="onesuperior" unicode="&#xb9;" horiz-adv-x="363" 
d="M218 708v-421h-48v363l-75 -59l-29 32l111 85h41z" />
    <glyph glyph-name="ordmasculine" unicode="&#xba;" horiz-adv-x="357" 
d="M178 684q-48 0 -75.5 -32.5t-27.5 -79.5t27.5 -79.5t75.5 -32.5t76 32.5t28 79.5t-28 79.5t-76 32.5zM178 720q65 0 107 -41.5t42 -106.5t-42 -106.5t-107 -41.5q-64 0 -106 42t-42 106q0 65 41.5 106.5t106.5 41.5z" />
    <glyph glyph-name="guillemotright" unicode="&#xbb;" horiz-adv-x="482" 
d="M109 444l134 -205l-134 -205l-36 26l114 179l-115 179zM285 444l134 -205l-133 -205l-37 26l114 179l-114 179z" />
    <glyph glyph-name="onequarter" unicode="&#xbc;" horiz-adv-x="826" 
d="M520 143h142v218h-3zM218 708v-421h-48v363l-75 -59l-29 32l111 85h41zM609 738l39 -22l-446 -746l-40 22zM768 143v-42h-63v-101h-43v101h-190v42l178 280h55v-280h63z" />
    <glyph glyph-name="onehalf" unicode="&#xbd;" horiz-adv-x="826" 
d="M218 708v-421h-48v363l-75 -59l-29 32l111 85h41zM609 738l39 -22l-446 -746l-40 22zM766 42v-42h-267v44l163 169q53 56 53 102q0 34 -21 53t-56 19q-31 0 -53 -18.5t-30 -52.5l-46 8q10 49 45.5 77.5t83.5 28.5q56 0 91 -30.5t35 -82.5q0 -39 -17 -67.5t-58 -70.5
l-133 -137h210z" />
    <glyph glyph-name="threequarters" unicode="&#xbe;" horiz-adv-x="826" 
d="M520 143h142v218h-3zM308 407q0 -60 -38.5 -92.5t-96.5 -32.5q-97 0 -134 87l44 15q11 -29 35.5 -44.5t54.5 -15.5q39 0 64 22t25 61q0 41 -31 62t-74 21h-23v40h23q42 0 67 20.5t25 57.5q0 33 -21.5 52t-54.5 19q-51 0 -79 -47l-38 21q42 67 118 67q54 0 87.5 -29
t33.5 -82q0 -72 -69 -97q0 -1 1 -1q81 -21 81 -104zM609 738l39 -22l-446 -746l-40 22zM768 143v-42h-63v-101h-43v101h-190v42l178 280h55v-280h63z" />
    <glyph glyph-name="questiondown" unicode="&#xbf;" horiz-adv-x="479" 
d="M380 -66l53 -10q-15 -78 -67.5 -121.5t-129.5 -43.5q-81 0 -135 46.5t-54 127.5q0 58 22 92t69 72t62.5 66t15.5 78v46h54v-58q0 -79 -76 -147l-30 -27q-31 -28 -46.5 -54t-15.5 -65q0 -60 39 -94.5t98 -34.5q58 0 95 35t46 92zM238 487q18 0 30.5 -13t12.5 -31
t-12.5 -31t-30.5 -13q-19 0 -31.5 13t-12.5 31t12.5 31t31.5 13z" />
    <glyph glyph-name="Agrave" unicode="&#xc0;" horiz-adv-x="688" 
d="M174 242h341l-170 408zM375 708l301 -708h-61l-80 192h-382l-80 -192h-60l306 708h56zM271 908l101 -144h-45l-125 144h69z" />
    <glyph glyph-name="Aacute" unicode="&#xc1;" horiz-adv-x="688" 
d="M174 242h341l-170 408zM375 708l301 -708h-61l-80 192h-382l-80 -192h-60l306 708h56zM423 908h69l-125 -144h-45z" />
    <glyph glyph-name="Acircumflex" unicode="&#xc2;" horiz-adv-x="688" 
d="M174 242h341l-170 408zM375 708l301 -708h-61l-80 192h-382l-80 -192h-60l306 708h56zM376 908l107 -144h-51l-87 116l-86 -116h-52l107 144h62z" />
    <glyph glyph-name="Atilde" unicode="&#xc3;" horiz-adv-x="688" 
d="M174 242h341l-170 408zM375 708l301 -708h-61l-80 192h-382l-80 -192h-60l306 708h56zM459 877h34q-13 -92 -79 -92q-29 0 -70 23q-40 24 -65 24q-33 0 -46 -51h-33q13 93 79 93q27 0 70 -23q42 -24 65 -24q34 0 45 50z" />
    <glyph glyph-name="Adieresis" unicode="&#xc4;" horiz-adv-x="688" 
d="M174 242h341l-170 408zM375 708l301 -708h-61l-80 192h-382l-80 -192h-60l306 708h56zM257 893q18 0 30 -12t12 -30q0 -17 -12 -29.5t-30 -12.5t-29.5 12t-11.5 30t11.5 30t29.5 12zM436 893q18 0 30 -12t12 -30q0 -17 -12 -29.5t-30 -12.5t-29.5 12t-11.5 30t11.5 30
t29.5 12z" />
    <glyph glyph-name="Aring" unicode="&#xc5;" horiz-adv-x="688" 
d="M174 242h341l-170 408zM412 850q0 27 -19.5 46t-46.5 19t-46.5 -19t-19.5 -46t19.5 -46t46.5 -19t46.5 19t19.5 46zM375 708l301 -708h-61l-80 192h-382l-80 -192h-60l306 708h56zM442 850q0 -40 -28.5 -67.5t-67.5 -27.5t-67.5 27.5t-28.5 67.5q0 39 28.5 67t67.5 28
t67.5 -28t28.5 -67z" />
    <glyph glyph-name="AE" unicode="&#xc6;" horiz-adv-x="983" 
d="M231 249h278v410h-13zM928 49v-49h-419v201h-306l-131 -201h-63l461 708h444v-49h-350v-267h326v-48h-326v-295h364z" />
    <glyph glyph-name="Ccedilla" unicode="&#xc7;" horiz-adv-x="721" 
d="M646 134l43 -29q-41 -56 -108 -89.5t-151 -34.5l-39 -60q16 6 42 6q33 0 58.5 -18.5t25.5 -52.5q0 -45 -35 -65t-81 -20q-50 0 -93 20l12 30q30 -15 77 -15q27 0 50 11.5t23 37.5q0 43 -60 43q-29 0 -52 -10l-15 13l53 82q-148 11 -241.5 114.5t-93.5 256.5
q0 162 104 267.5t263 105.5q75 0 141.5 -28t104.5 -77l-44 -35q-30 40 -85 65.5t-117 25.5q-139 0 -224 -94t-85 -230t85.5 -230t223.5 -94q144 0 218 104z" />
    <glyph glyph-name="Egrave" unicode="&#xc8;" horiz-adv-x="591" 
d="M541 49v-49h-443v708h430v-49h-375v-267h351v-48h-351v-295h388zM261 908l101 -144h-46l-125 144h70z" />
    <glyph glyph-name="Eacute" unicode="&#xc9;" horiz-adv-x="591" 
d="M541 49v-49h-443v708h430v-49h-375v-267h351v-48h-351v-295h388zM373 908h70l-125 -144h-46z" />
    <glyph glyph-name="Ecircumflex" unicode="&#xca;" horiz-adv-x="591" 
d="M541 49v-49h-443v708h430v-49h-375v-267h351v-48h-351v-295h388zM347 908l107 -144h-52l-86 116l-87 -116h-51l106 144h63z" />
    <glyph glyph-name="Edieresis" unicode="&#xcb;" horiz-adv-x="591" 
d="M541 49v-49h-443v708h430v-49h-375v-267h351v-48h-351v-295h388zM226 893q18 0 30 -12t12 -30q0 -17 -12 -29.5t-30 -12.5t-29.5 12t-11.5 30t11.5 30t29.5 12zM405 893q18 0 30 -12t12 -30q0 -17 -12 -29.5t-30 -12.5t-29.5 12t-11.5 30t11.5 30t29.5 12z" />
    <glyph glyph-name="Igrave" unicode="&#xcc;" horiz-adv-x="251" 
d="M153 708v-708h-55v708h55zM52 908l101 -144h-46l-125 144h70z" />
    <glyph glyph-name="Iacute" unicode="&#xcd;" horiz-adv-x="251" 
d="M153 708v-708h-55v708h55zM198 908h70l-125 -144h-46z" />
    <glyph glyph-name="Icircumflex" unicode="&#xce;" horiz-adv-x="251" 
d="M153 708v-708h-55v708h55zM156 908l107 -144h-51l-87 116l-86 -116h-52l107 144h62z" />
    <glyph glyph-name="Idieresis" unicode="&#xcf;" horiz-adv-x="251" 
d="M153 708v-708h-55v708h55zM36 893q18 0 30 -12t12 -30q0 -17 -12 -29.5t-30 -12.5t-29.5 12t-11.5 30t11.5 30t29.5 12zM215 893q18 0 30 -12t12 -30q0 -17 -12 -29.5t-30 -12.5t-29.5 12t-11.5 30t11.5 30t29.5 12z" />
    <glyph glyph-name="Eth" unicode="&#xd0;" horiz-adv-x="761" 
d="M635 354q0 136 -89.5 220t-246.5 84h-151v-265h262v-42h-262v-301h151q157 0 246.5 84.5t89.5 219.5zM695 354q0 -86 -32 -155.5t-86 -112t-120.5 -64.5t-140.5 -22h-223v351h-76v42h76v315h223q74 0 140.5 -22t120.5 -64.5t86 -112t32 -155.5z" />
    <glyph glyph-name="Ntilde" unicode="&#xd1;" horiz-adv-x="768" 
d="M670 708v-708h-70l-445 633h-2v-633h-55v708h70l445 -629h2v629h55zM501 877h33q-13 -92 -79 -92q-29 0 -70 23q-40 24 -65 24q-33 0 -46 -51h-33q13 93 79 93q27 0 70 -23q42 -24 65 -24q33 0 46 50z" />
    <glyph glyph-name="Ograve" unicode="&#xd2;" horiz-adv-x="857" 
d="M738 354q0 136 -85.5 230t-223.5 94t-224 -94t-86 -230t85.5 -230t224.5 -94t224 94t85 230zM796 354q0 -162 -104.5 -267.5t-262.5 -105.5q-159 0 -263.5 105.5t-104.5 267.5t104.5 267.5t263.5 105.5q158 0 262.5 -105.5t104.5 -267.5zM388 908l101 -144h-45l-125 144
h69z" />
    <glyph glyph-name="Oacute" unicode="&#xd3;" horiz-adv-x="857" 
d="M738 354q0 136 -85.5 230t-223.5 94t-224 -94t-86 -230t85.5 -230t224.5 -94t224 94t85 230zM796 354q0 -162 -104.5 -267.5t-262.5 -105.5q-159 0 -263.5 105.5t-104.5 267.5t104.5 267.5t263.5 105.5q158 0 262.5 -105.5t104.5 -267.5zM483 908h69l-125 -144h-45z" />
    <glyph glyph-name="Ocircumflex" unicode="&#xd4;" horiz-adv-x="857" 
d="M738 354q0 136 -85.5 230t-223.5 94t-224 -94t-86 -230t85.5 -230t224.5 -94t224 94t85 230zM796 354q0 -162 -104.5 -267.5t-262.5 -105.5q-159 0 -263.5 105.5t-104.5 267.5t104.5 267.5t263.5 105.5q158 0 262.5 -105.5t104.5 -267.5zM461 908l107 -144h-52l-87 116
l-86 -116h-52l107 144h63z" />
    <glyph glyph-name="Otilde" unicode="&#xd5;" horiz-adv-x="857" 
d="M738 354q0 136 -85.5 230t-223.5 94t-224 -94t-86 -230t85.5 -230t224.5 -94t224 94t85 230zM796 354q0 -162 -104.5 -267.5t-262.5 -105.5q-159 0 -263.5 105.5t-104.5 267.5t104.5 267.5t263.5 105.5q158 0 262.5 -105.5t104.5 -267.5zM543 877h33q-13 -92 -79 -92
q-30 0 -70 23q-43 24 -65 24q-34 0 -45 -51h-34q13 93 79 93q29 0 70 -23q42 -24 65 -24q33 0 46 50z" />
    <glyph glyph-name="Odieresis" unicode="&#xd6;" horiz-adv-x="857" 
d="M738 354q0 136 -85.5 230t-223.5 94t-224 -94t-86 -230t85.5 -230t224.5 -94t224 94t85 230zM796 354q0 -162 -104.5 -267.5t-262.5 -105.5q-159 0 -263.5 105.5t-104.5 267.5t104.5 267.5t263.5 105.5q158 0 262.5 -105.5t104.5 -267.5zM340 893q18 0 29.5 -12t11.5 -30
t-11.5 -30t-29.5 -12t-30 12t-12 30t12 30t30 12zM519 893q18 0 29.5 -12t11.5 -30t-11.5 -30t-29.5 -12t-30 12t-12 30t12 30t30 12z" />
    <glyph glyph-name="multiply" unicode="&#xd7;" horiz-adv-x="666" 
d="M365 305l167 -166l-34 -33l-165 166l-165 -166l-33 33l166 166l-166 166l32 33l166 -166l166 166l33 -33z" />
    <glyph glyph-name="Oslash" unicode="&#xd8;" horiz-adv-x="850" 
d="M651 571l-424 -462q83 -74 198 -74q136 0 217.5 93t81.5 226q0 125 -73 217zM425 674q-136 0 -217.5 -93.5t-81.5 -226.5q0 -127 75 -217l424 462q-81 75 -200 75zM425 -18q-133 0 -237 85l-75 -83l-29 27l76 83q-98 106 -98 260q0 161 103.5 266.5t259.5 105.5
q134 0 237 -85l75 83l29 -27l-76 -83q98 -106 98 -260q0 -161 -103.5 -266.5t-259.5 -105.5z" />
    <glyph glyph-name="Ugrave" unicode="&#xd9;" horiz-adv-x="717" 
d="M625 708v-443q0 -53 -13 -100t-41.5 -90t-83 -68.5t-128.5 -25.5t-128.5 25.5t-83.5 68.5t-42 90t-13 100v443h55v-436q0 -46 10 -86t32.5 -76.5t66 -58t103.5 -21.5t103 21t65.5 57.5t32.5 76.5t10 87v436h55zM309 908l101 -144h-45l-125 144h69z" />
    <glyph glyph-name="Uacute" unicode="&#xda;" horiz-adv-x="717" 
d="M625 708v-443q0 -53 -13 -100t-41.5 -90t-83 -68.5t-128.5 -25.5t-128.5 25.5t-83.5 68.5t-42 90t-13 100v443h55v-436q0 -46 10 -86t32.5 -76.5t66 -58t103.5 -21.5t103 21t65.5 57.5t32.5 76.5t10 87v436h55zM413 908h69l-125 -144h-45z" />
    <glyph glyph-name="Ucircumflex" unicode="&#xdb;" horiz-adv-x="717" 
d="M625 708v-443q0 -53 -13 -100t-41.5 -90t-83 -68.5t-128.5 -25.5t-128.5 25.5t-83.5 68.5t-42 90t-13 100v443h55v-436q0 -46 10 -86t32.5 -76.5t66 -58t103.5 -21.5t103 21t65.5 57.5t32.5 76.5t10 87v436h55zM390 908l107 -144h-52l-86 116l-87 -116h-51l107 144h62z
" />
    <glyph glyph-name="Udieresis" unicode="&#xdc;" horiz-adv-x="717" 
d="M625 708v-443q0 -53 -13 -100t-41.5 -90t-83 -68.5t-128.5 -25.5t-128.5 25.5t-83.5 68.5t-42 90t-13 100v443h55v-436q0 -46 10 -86t32.5 -76.5t66 -58t103.5 -21.5t103 21t65.5 57.5t32.5 76.5t10 87v436h55zM270 893q18 0 29.5 -12t11.5 -30t-11.5 -30t-29.5 -12
t-30 12t-12 30t12 30t30 12zM449 893q18 0 29.5 -12t11.5 -30t-11.5 -30t-29.5 -12t-30 12t-12 30t12 30t30 12z" />
    <glyph glyph-name="Yacute" unicode="&#xdd;" horiz-adv-x="580" 
d="M511 708h64l-257 -401v-307h-55v307l-258 401h68l219 -354zM369 908h69l-125 -144h-45z" />
    <glyph glyph-name="Thorn" unicode="&#xde;" horiz-adv-x="577" 
d="M469 367q0 70 -48.5 103t-130.5 33h-137v-276h139q82 0 129.5 35.5t47.5 104.5zM528 367q0 -90 -63 -139t-167 -49h-145v-179h-55v708h55v-156h142q104 0 168.5 -46t64.5 -139z" />
    <glyph glyph-name="germandbls" unicode="&#xdf;" horiz-adv-x="594" 
d="M539 218q0 -104 -63.5 -166.5t-170.5 -62.5q-32 0 -53 4v45q21 -4 48 -4q85 0 135 49.5t50 135.5q0 91 -54.5 138.5t-144.5 47.5h-11v47h10q67 0 108.5 35.5t41.5 101.5q0 62 -39.5 97.5t-98.5 35.5q-44 0 -75 -16.5t-47 -44t-23 -57.5t-7 -64v-540h-52v542
q0 96 49.5 161t156.5 65q80 0 134.5 -47.5t54.5 -128.5q0 -122 -123 -161v-2q77 -10 125.5 -65t48.5 -146z" />
    <glyph glyph-name="agrave" unicode="&#xe0;" horiz-adv-x="527" 
d="M389 202v38h-38q-239 0 -239 -112q0 -50 35.5 -73.5t82.5 -23.5q77 0 118 50t41 121zM446 0h-47q-7 42 -7 88h-3q-53 -101 -171 -101q-62 0 -110.5 35t-48.5 104q0 45 20.5 76t58.5 47t78 22.5t92 8.5q18 1 81 1v23q0 65 -34.5 97.5t-98.5 32.5q-82 0 -139 -55l-30 35
q67 64 174 64q80 0 128.5 -43t48.5 -126v-204q0 -53 8 -105zM220 708l101 -144h-45l-125 144h69z" />
    <glyph glyph-name="aacute" unicode="&#xe1;" horiz-adv-x="527" 
d="M389 202v38h-38q-239 0 -239 -112q0 -50 35.5 -73.5t82.5 -23.5q77 0 118 50t41 121zM446 0h-47q-7 42 -7 88h-3q-53 -101 -171 -101q-62 0 -110.5 35t-48.5 104q0 45 20.5 76t58.5 47t78 22.5t92 8.5q18 1 81 1v23q0 65 -34.5 97.5t-98.5 32.5q-82 0 -139 -55l-30 35
q67 64 174 64q80 0 128.5 -43t48.5 -126v-204q0 -53 8 -105zM322 708h69l-124 -144h-46z" />
    <glyph glyph-name="acircumflex" unicode="&#xe2;" horiz-adv-x="527" 
d="M389 202v38h-38q-239 0 -239 -112q0 -50 35.5 -73.5t82.5 -23.5q77 0 118 50t41 121zM446 0h-47q-7 42 -7 88h-3q-53 -101 -171 -101q-62 0 -110.5 35t-48.5 104q0 45 20.5 76t58.5 47t78 22.5t92 8.5q18 1 81 1v23q0 65 -34.5 97.5t-98.5 32.5q-82 0 -139 -55l-30 35
q67 64 174 64q80 0 128.5 -43t48.5 -126v-204q0 -53 8 -105zM293 708l107 -144h-51l-87 116l-87 -116h-51l107 144h62z" />
    <glyph glyph-name="atilde" unicode="&#xe3;" horiz-adv-x="527" 
d="M389 202v38h-38q-239 0 -239 -112q0 -50 35.5 -73.5t82.5 -23.5q77 0 118 50t41 121zM446 0h-47q-7 42 -7 88h-3q-53 -101 -171 -101q-62 0 -110.5 35t-48.5 104q0 45 20.5 76t58.5 47t78 22.5t92 8.5q18 1 81 1v23q0 65 -34.5 97.5t-98.5 32.5q-82 0 -139 -55l-30 35
q67 64 174 64q80 0 128.5 -43t48.5 -126v-204q0 -53 8 -105zM373 677h34q-6 -41 -26 -66.5t-54 -25.5q-30 0 -70 23q-43 24 -64 24q-35 0 -46 -51h-34q6 41 26 67t54 26q27 0 70 -23q42 -24 64 -24q35 0 46 50z" />
    <glyph glyph-name="adieresis" unicode="&#xe4;" horiz-adv-x="527" 
d="M389 202v38h-38q-239 0 -239 -112q0 -50 35.5 -73.5t82.5 -23.5q77 0 118 50t41 121zM446 0h-47q-7 42 -7 88h-3q-53 -101 -171 -101q-62 0 -110.5 35t-48.5 104q0 45 20.5 76t58.5 47t78 22.5t92 8.5q18 1 81 1v23q0 65 -34.5 97.5t-98.5 32.5q-82 0 -139 -55l-30 35
q67 64 174 64q80 0 128.5 -43t48.5 -126v-204q0 -53 8 -105zM171 693q18 0 30 -12t12 -30t-12 -30t-30 -12t-29.5 12t-11.5 30t11.5 30t29.5 12zM350 693q18 0 30 -12t12 -30t-12 -30t-30 -12t-29.5 12t-11.5 30t11.5 30t29.5 12z" />
    <glyph glyph-name="aring" unicode="&#xe5;" horiz-adv-x="527" 
d="M389 202v38h-38q-239 0 -239 -112q0 -50 35.5 -73.5t82.5 -23.5q77 0 118 50t41 121zM326 650q0 27 -19 46t-47 19q-27 0 -46.5 -19t-19.5 -46t19.5 -46t46.5 -19q28 0 47 19t19 46zM446 0h-47q-7 42 -7 88h-3q-53 -101 -171 -101q-62 0 -110.5 35t-48.5 104
q0 45 20.5 76t58.5 47t78 22.5t92 8.5q18 1 81 1v23q0 65 -34.5 97.5t-98.5 32.5q-82 0 -139 -55l-30 35q67 64 174 64q80 0 128.5 -43t48.5 -126v-204q0 -53 8 -105zM356 650q0 -40 -28.5 -67.5t-67.5 -27.5t-67.5 27.5t-28.5 67.5q0 39 28.5 67t67.5 28t67.5 -28t28.5 -67
z" />
    <glyph glyph-name="ae" unicode="&#xe6;" horiz-adv-x="873" 
d="M389 185v37h-39q-52 0 -88 -3t-73.5 -13t-56.5 -31t-19 -54q0 -49 34.5 -70t85.5 -21q79 0 117.5 43t38.5 112zM440 265h322q-1 75 -43 122t-114 47q-70 0 -116.5 -54t-48.5 -115zM815 244q0 -4 -5.5 -12t-5.5 -10h-366q2 -78 49 -134t125 -56q97 0 149 82l38 -30
q-72 -96 -187 -96q-68 0 -118.5 33t-73.5 92q-42 -126 -195 -126q-68 0 -117 33.5t-49 100.5q0 135 248 143q18 1 82 1v26q0 67 -33.5 105t-97.5 38q-82 0 -144 -55l-30 35q69 64 180 64q64 0 105.5 -29.5t55.5 -81.5q27 51 74.5 81t105.5 30q96 0 151 -61.5t59 -153.5v-19z
" />
    <glyph glyph-name="ccedilla" unicode="&#xe7;" horiz-adv-x="493" 
d="M433 90l39 -30q-59 -69 -162 -73l-42 -66q14 6 41 6q33 0 58.5 -18.5t25.5 -52.5q0 -45 -35 -65t-81 -20q-48 0 -93 20l13 30q29 -15 76 -15q27 0 50 11.5t23 37.5q0 43 -60 43q-27 0 -52 -10l-15 13l56 88q-98 9 -157.5 75.5t-59.5 167.5q0 107 68 176.5t177 69.5
q47 0 92.5 -19.5t73.5 -54.5l-41 -30q-45 60 -125 60q-85 0 -137.5 -58t-52.5 -144q0 -85 52 -142.5t138 -57.5q82 0 130 58z" />
    <glyph glyph-name="egrave" unicode="&#xe8;" horiz-adv-x="567" 
d="M113 265h343q-3 75 -47.5 122t-120.5 47q-75 0 -123.5 -53t-51.5 -116zM509 244q0 -3 -5.5 -10.5t-6.5 -11.5h-385q2 -78 52.5 -134t131.5 -56q100 0 156 82l39 -31q-75 -96 -195 -96q-103 0 -170.5 70t-67.5 177q0 105 66.5 174.5t163.5 69.5q101 0 158.5 -61.5
t61.5 -153.5q0 -3 0.5 -10t0.5 -9zM231 708l101 -144h-45l-125 144h69z" />
    <glyph glyph-name="eacute" unicode="&#xe9;" horiz-adv-x="567" 
d="M113 265h343q-3 75 -47.5 122t-120.5 47q-75 0 -123.5 -53t-51.5 -116zM509 244q0 -3 -5.5 -10.5t-6.5 -11.5h-385q2 -78 52.5 -134t131.5 -56q100 0 156 82l39 -31q-75 -96 -195 -96q-103 0 -170.5 70t-67.5 177q0 105 66.5 174.5t163.5 69.5q101 0 158.5 -61.5
t61.5 -153.5q0 -3 0.5 -10t0.5 -9zM354 708h69l-125 -144h-45z" />
    <glyph glyph-name="ecircumflex" unicode="&#xea;" horiz-adv-x="567" 
d="M113 265h343q-3 75 -47.5 122t-120.5 47q-75 0 -123.5 -53t-51.5 -116zM509 244q0 -3 -5.5 -10.5t-6.5 -11.5h-385q2 -78 52.5 -134t131.5 -56q100 0 156 82l39 -31q-75 -96 -195 -96q-103 0 -170.5 70t-67.5 177q0 105 66.5 174.5t163.5 69.5q101 0 158.5 -61.5
t61.5 -153.5q0 -3 0.5 -10t0.5 -9zM326 708l107 -144h-52l-86 116l-87 -116h-52l107 144h63z" />
    <glyph glyph-name="edieresis" unicode="&#xeb;" horiz-adv-x="567" 
d="M113 265h343q-3 75 -47.5 122t-120.5 47q-75 0 -123.5 -53t-51.5 -116zM509 244q0 -3 -5.5 -10.5t-6.5 -11.5h-385q2 -78 52.5 -134t131.5 -56q100 0 156 82l39 -31q-75 -96 -195 -96q-103 0 -170.5 70t-67.5 177q0 105 66.5 174.5t163.5 69.5q101 0 158.5 -61.5
t61.5 -153.5q0 -3 0.5 -10t0.5 -9zM204 693q18 0 30 -12t12 -30q0 -17 -12 -29.5t-30 -12.5t-29.5 12t-11.5 30t11.5 30t29.5 12zM383 693q18 0 30 -12t12 -30q0 -17 -12 -29.5t-30 -12.5t-29.5 12t-11.5 30t11.5 30t29.5 12z" />
    <glyph glyph-name="igrave" unicode="&#xec;" horiz-adv-x="242" 
d="M147 465v-465h-52v465h52zM46 708l101 -144h-46l-124 144h69z" />
    <glyph glyph-name="iacute" unicode="&#xed;" horiz-adv-x="242" 
d="M147 465v-465h-52v465h52zM195 708h70l-125 -144h-46z" />
    <glyph glyph-name="icircumflex" unicode="&#xee;" horiz-adv-x="242" 
d="M147 465v-465h-52v465h52zM154 708l107 -144h-52l-86 116l-87 -116h-52l107 144h63z" />
    <glyph glyph-name="idieresis" unicode="&#xef;" horiz-adv-x="242" 
d="M147 465v-465h-52v465h52zM32 693q18 0 30 -12t12 -30t-12 -30t-30 -12t-29.5 12t-11.5 30t11.5 30t29.5 12zM211 693q18 0 30 -12t12 -30t-12 -30t-30 -12t-29.5 12t-11.5 30t11.5 30t29.5 12z" />
    <glyph glyph-name="eth" unicode="&#xf0;" horiz-adv-x="609" 
d="M298 432q-86 0 -138 -57t-52 -142t52 -142.5t138 -57.5t138.5 57t52.5 143q0 85 -52 142t-139 57zM544 247q0 -68 -25 -125.5t-82.5 -96t-138.5 -38.5q-107 0 -176 69.5t-69 176.5t69 176t176 69q90 0 160 -64l4 2q-62 133 -162 222l-112 -58l-27 28l110 58
q-37 36 -99 78l44 29q45 -32 100 -82l103 55l32 -28l-104 -55q79 -75 138 -187.5t59 -228.5z" />
    <glyph glyph-name="ntilde" unicode="&#xf1;" horiz-adv-x="578" 
d="M489 284v-284h-53v265q0 169 -133 169q-65 0 -110.5 -52t-45.5 -145v-237h-52v358q0 67 -4 107h50q4 -33 4 -94h2q20 49 67 78t101 29q87 0 130.5 -53.5t43.5 -140.5zM405 677h34q-6 -41 -26 -66.5t-54 -25.5q-30 0 -70 23q-43 24 -64 24q-35 0 -46 -51h-34q6 41 26 67
t54 26q27 0 70 -23q42 -24 64 -24q35 0 46 50z" />
    <glyph glyph-name="ograve" unicode="&#xf2;" horiz-adv-x="609" 
d="M304 434q-86 0 -138.5 -58t-52.5 -143t52.5 -143t138.5 -58t139 57.5t53 143.5t-53 143.5t-139 57.5zM304 478q108 0 177.5 -69t69.5 -176t-69.5 -176.5t-177.5 -69.5t-177 69.5t-69 176.5t69 176t177 69zM242 708l101 -144h-45l-125 144h69z" />
    <glyph glyph-name="oacute" unicode="&#xf3;" horiz-adv-x="609" 
d="M304 434q-86 0 -138.5 -58t-52.5 -143t52.5 -143t138.5 -58t139 57.5t53 143.5t-53 143.5t-139 57.5zM304 478q108 0 177.5 -69t69.5 -176t-69.5 -176.5t-177.5 -69.5t-177 69.5t-69 176.5t69 176t177 69zM366 708h69l-125 -144h-45z" />
    <glyph glyph-name="ocircumflex" unicode="&#xf4;" horiz-adv-x="609" 
d="M304 434q-86 0 -138.5 -58t-52.5 -143t52.5 -143t138.5 -58t139 57.5t53 143.5t-53 143.5t-139 57.5zM304 478q108 0 177.5 -69t69.5 -176t-69.5 -176.5t-177.5 -69.5t-177 69.5t-69 176.5t69 176t177 69zM336 708l107 -144h-52l-86 116l-87 -116h-51l106 144h63z" />
    <glyph glyph-name="otilde" unicode="&#xf5;" horiz-adv-x="609" 
d="M304 434q-86 0 -138.5 -58t-52.5 -143t52.5 -143t138.5 -58t139 57.5t53 143.5t-53 143.5t-139 57.5zM304 478q108 0 177.5 -69t69.5 -176t-69.5 -176.5t-177.5 -69.5t-177 69.5t-69 176.5t69 176t177 69zM418 677h34q-6 -41 -26 -66.5t-54 -25.5q-30 0 -70 23
q-43 24 -64 24q-35 0 -46 -51h-34q6 41 26 67t54 26q27 0 70 -23q42 -24 64 -24q35 0 46 50z" />
    <glyph glyph-name="odieresis" unicode="&#xf6;" horiz-adv-x="609" 
d="M304 434q-86 0 -138.5 -58t-52.5 -143t52.5 -143t138.5 -58t139 57.5t53 143.5t-53 143.5t-139 57.5zM304 478q108 0 177.5 -69t69.5 -176t-69.5 -176.5t-177.5 -69.5t-177 69.5t-69 176.5t69 176t177 69zM215 693q18 0 30 -12t12 -30q0 -17 -12 -29.5t-30 -12.5
t-29.5 12t-11.5 30t11.5 30t29.5 12zM394 693q18 0 30 -12t12 -30q0 -17 -12 -29.5t-30 -12.5t-29.5 12t-11.5 30t11.5 30t29.5 12z" />
    <glyph glyph-name="divide" unicode="&#xf7;" horiz-adv-x="666" 
d="M381 139q0 -19 -14 -33.5t-34 -14.5t-34 14.5t-14 33.5q0 21 13.5 35t34.5 14t34.5 -14.5t13.5 -34.5zM583 326v-46h-500v46h500zM381 467q0 -20 -13.5 -34.5t-34.5 -14.5t-34.5 14.5t-13.5 34.5q0 19 14 33.5t34 14.5t34 -14.5t14 -33.5z" />
    <glyph glyph-name="oslash" unicode="&#xf8;" horiz-adv-x="611" 
d="M450 363l-271 -285q57 -46 124 -46q84 0 136.5 58t52.5 144q0 79 -42 129zM305 436q-84 0 -135 -58t-51 -144q0 -79 40 -130l270 285q-46 47 -124 47zM553 470l-66 -69q62 -72 62 -167q0 -106 -69 -176t-176 -70q-90 0 -157 56l-67 -69l-24 23l66 69q-60 72 -60 167
q0 106 68.5 176t173.5 70q89 0 160 -56l65 69z" />
    <glyph glyph-name="ugrave" unicode="&#xf9;" horiz-adv-x="578" 
d="M487 0h-51q-4 33 -4 94h-2q-21 -49 -67 -78t-100 -29q-87 0 -130.5 53.5t-43.5 140.5v284h52v-264q0 -170 133 -170q65 0 110.5 52.5t45.5 145.5v236h52v-358q0 -57 5 -107zM224 708l101 -144h-45l-125 144h69z" />
    <glyph glyph-name="uacute" unicode="&#xfa;" horiz-adv-x="578" 
d="M487 0h-51q-4 33 -4 94h-2q-21 -49 -67 -78t-100 -29q-87 0 -130.5 53.5t-43.5 140.5v284h52v-264q0 -170 133 -170q65 0 110.5 52.5t45.5 145.5v236h52v-358q0 -57 5 -107zM343 708h69l-125 -144h-45z" />
    <glyph glyph-name="ucircumflex" unicode="&#xfb;" horiz-adv-x="578" 
d="M487 0h-51q-4 33 -4 94h-2q-21 -49 -67 -78t-100 -29q-87 0 -130.5 53.5t-43.5 140.5v284h52v-264q0 -170 133 -170q65 0 110.5 52.5t45.5 145.5v236h52v-358q0 -57 5 -107zM316 708l107 -144h-51l-87 116l-86 -116h-52l107 144h62z" />
    <glyph glyph-name="udieresis" unicode="&#xfc;" horiz-adv-x="578" 
d="M487 0h-51q-4 33 -4 94h-2q-21 -49 -67 -78t-100 -29q-87 0 -130.5 53.5t-43.5 140.5v284h52v-264q0 -170 133 -170q65 0 110.5 52.5t45.5 145.5v236h52v-358q0 -57 5 -107zM196 693q18 0 29.5 -12t11.5 -30t-11.5 -30t-29.5 -12t-30 12t-12 30t12 30t30 12zM375 693
q18 0 29.5 -12t11.5 -30t-11.5 -30t-29.5 -12t-30 12t-12 30t12 30t30 12z" />
    <glyph glyph-name="yacute" unicode="&#xfd;" horiz-adv-x="468" 
d="M392 465h57l-231 -597q-21 -53 -52.5 -81t-82.5 -28q-24 0 -54 7l6 47q24 -7 46 -7q35 0 55.5 21.5t36.5 63.5l40 105l-194 469h58l162 -413l2 1zM304 708h70l-125 -144h-46z" />
    <glyph glyph-name="thorn" unicode="&#xfe;" horiz-adv-x="631" 
d="M518 232q0 85 -52 142.5t-136 57.5q-83 0 -135.5 -57.5t-52.5 -141.5q0 -85 52.5 -142.5t135.5 -57.5q84 0 136 57.5t52 141.5zM573 232q0 -105 -68 -175t-171 -70q-58 0 -108 27.5t-77 79.5h-3v-334h-51v996h51v-387h3q29 53 78 81t107 28q103 0 171 -70t68 -176z" />
    <glyph glyph-name="ydieresis" unicode="&#xff;" horiz-adv-x="468" 
d="M392 465h57l-231 -597q-21 -53 -52.5 -81t-82.5 -28q-24 0 -54 7l6 47q24 -7 46 -7q35 0 55.5 21.5t36.5 63.5l40 105l-194 469h58l162 -413l2 1zM151 693q18 0 29.5 -12t11.5 -30t-11.5 -30t-29.5 -12t-30 12t-12 30t12 30t30 12zM330 693q18 0 29.5 -12t11.5 -30
t-11.5 -30t-29.5 -12t-30 12t-12 30t12 30t30 12z" />
    <glyph glyph-name="Amacron" unicode="&#x100;" horiz-adv-x="688" 
d="M174 242h341l-170 408zM375 708l301 -708h-61l-80 192h-382l-80 -192h-60l306 708h56zM475 850v-43h-257v43h257z" />
    <glyph glyph-name="amacron" unicode="&#x101;" horiz-adv-x="527" 
d="M389 202v38h-38q-239 0 -239 -112q0 -50 35.5 -73.5t82.5 -23.5q77 0 118 50t41 121zM446 0h-47q-7 42 -7 88h-3q-53 -101 -171 -101q-62 0 -110.5 35t-48.5 104q0 45 20.5 76t58.5 47t78 22.5t92 8.5q18 1 81 1v23q0 65 -34.5 97.5t-98.5 32.5q-82 0 -139 -55l-30 35
q67 64 174 64q80 0 128.5 -43t48.5 -126v-204q0 -53 8 -105zM396 650v-43h-257v43h257z" />
    <glyph glyph-name="Abreve" unicode="&#x102;" horiz-adv-x="688" 
d="M174 242h341l-170 408zM375 708l301 -708h-61l-80 192h-382l-80 -192h-60l306 708h56zM451 905h35q-5 -61 -43 -95.5t-97 -34.5t-96.5 34.5t-42.5 95.5h36q7 -42 35 -65t68 -23q89 0 105 88z" />
    <glyph glyph-name="abreve" unicode="&#x103;" horiz-adv-x="527" 
d="M389 202v38h-38q-239 0 -239 -112q0 -50 35.5 -73.5t82.5 -23.5q77 0 118 50t41 121zM446 0h-47q-7 42 -7 88h-3q-53 -101 -171 -101q-62 0 -110.5 35t-48.5 104q0 45 20.5 76t58.5 47t78 22.5t92 8.5q18 1 81 1v23q0 65 -34.5 97.5t-98.5 32.5q-82 0 -139 -55l-30 35
q67 64 174 64q80 0 128.5 -43t48.5 -126v-204q0 -53 8 -105zM374 705h35q-6 -61 -43.5 -95.5t-96.5 -34.5t-96.5 34.5t-42.5 95.5h35q8 -42 36.5 -65t67.5 -23q89 0 105 88z" />
    <glyph glyph-name="Aogonek" unicode="&#x104;" horiz-adv-x="688" 
d="M174 242h341l-170 408zM684 -157l16 -32q-36 -34 -87 -34q-37 0 -62.5 23t-25.5 60q0 60 90 140v1l-80 191h-382l-80 -192h-60l306 708h56l301 -708q-2 -2 -15 -4t-14 -3q-40 -41 -57.5 -67.5t-17.5 -53.5q0 -24 15.5 -38.5t39.5 -14.5q36 0 57 24z" />
    <glyph glyph-name="aogonek" unicode="&#x105;" horiz-adv-x="527" 
d="M389 202v38h-38q-239 0 -239 -112q0 -50 35.5 -73.5t82.5 -23.5q77 0 118 50t41 121zM469 -157l16 -32q-36 -34 -87 -34q-37 0 -62.5 23t-25.5 60q0 62 90 140l-1 1q-7 42 -7 87h-3q-53 -101 -171 -101q-62 0 -110.5 35t-48.5 104q0 45 20.5 76t58.5 47t78 22.5t92 8.5
q18 1 81 1v23q0 65 -34.5 97.5t-98.5 32.5q-82 0 -139 -55l-30 35q67 64 174 64q80 0 128.5 -43t48.5 -126v-204q0 -52 8 -104l1 -1q-1 0 -5.5 -1t-4.5 -2q-43 -42 -61.5 -69t-18.5 -56q0 -24 15.5 -38.5t39.5 -14.5q36 0 57 24z" />
    <glyph glyph-name="Cacute" unicode="&#x106;" horiz-adv-x="721" 
d="M646 134l43 -29q-41 -56 -109 -90t-152 -34q-160 0 -263.5 105.5t-103.5 267.5t104 267.5t263 105.5q75 0 141.5 -28t104.5 -77l-44 -35q-30 40 -85 65.5t-117 25.5q-139 0 -224 -94t-85 -230t85.5 -230t223.5 -94q144 0 218 104zM478 908h69l-125 -144h-45z" />
    <glyph glyph-name="cacute" unicode="&#x107;" horiz-adv-x="493" 
d="M433 90l39 -30q-63 -73 -169 -73q-109 0 -177 69t-68 176t68 176.5t177 69.5q47 0 92.5 -19.5t73.5 -54.5l-41 -30q-45 60 -125 60q-85 0 -137.5 -58t-52.5 -144q0 -85 52 -142.5t138 -57.5q82 0 130 58zM356 708h70l-125 -144h-46z" />
    <glyph glyph-name="Ccircumflex" unicode="&#x108;" horiz-adv-x="721" 
d="M646 134l43 -29q-41 -56 -109 -90t-152 -34q-160 0 -263.5 105.5t-103.5 267.5t104 267.5t263 105.5q75 0 141.5 -28t104.5 -77l-44 -35q-30 40 -85 65.5t-117 25.5q-139 0 -224 -94t-85 -230t85.5 -230t223.5 -94q144 0 218 104zM458 908l107 -144h-51l-87 116l-87 -116
h-51l107 144h62z" />
    <glyph glyph-name="ccircumflex" unicode="&#x109;" horiz-adv-x="493" 
d="M433 90l39 -30q-63 -73 -169 -73q-109 0 -177 69t-68 176t68 176.5t177 69.5q47 0 92.5 -19.5t73.5 -54.5l-41 -30q-45 60 -125 60q-85 0 -137.5 -58t-52.5 -144q0 -85 52 -142.5t138 -57.5q82 0 130 58zM332 708l107 -144h-52l-86 116l-87 -116h-52l107 144h63z" />
    <glyph glyph-name="Cdotaccent" unicode="&#x10a;" horiz-adv-x="721" 
d="M646 134l43 -29q-41 -56 -109 -90t-152 -34q-160 0 -263.5 105.5t-103.5 267.5t104 267.5t263 105.5q75 0 141.5 -28t104.5 -77l-44 -35q-30 40 -85 65.5t-117 25.5q-139 0 -224 -94t-85 -230t85.5 -230t223.5 -94q144 0 218 104zM421 892q15 0 27 -11.5t12 -28.5
t-12 -29t-27 -12q-16 0 -28 12t-12 29t12 28.5t28 11.5z" />
    <glyph glyph-name="cdotaccent" unicode="&#x10b;" horiz-adv-x="493" 
d="M433 90l39 -30q-63 -73 -169 -73q-109 0 -177 69t-68 176t68 176.5t177 69.5q47 0 92.5 -19.5t73.5 -54.5l-41 -30q-45 60 -125 60q-85 0 -137.5 -58t-52.5 -144q0 -85 52 -142.5t138 -57.5q82 0 130 58zM294 692q16 0 28 -11.5t12 -28.5t-12 -29t-28 -12t-27.5 11.5
t-11.5 29.5q0 17 12 28.5t27 11.5z" />
    <glyph glyph-name="Ccaron" unicode="&#x10c;" horiz-adv-x="721" 
d="M646 134l43 -29q-41 -56 -109 -90t-152 -34q-160 0 -263.5 105.5t-103.5 267.5t104 267.5t263 105.5q75 0 141.5 -28t104.5 -77l-44 -35q-30 40 -85 65.5t-117 25.5q-139 0 -224 -94t-85 -230t85.5 -230t223.5 -94q144 0 218 104zM513 908h52l-107 -144h-63l-107 144h52
l86 -116z" />
    <glyph glyph-name="ccaron" unicode="&#x10d;" horiz-adv-x="493" 
d="M433 90l39 -30q-63 -73 -169 -73q-109 0 -177 69t-68 176t68 176.5t177 69.5q47 0 92.5 -19.5t73.5 -54.5l-41 -30q-45 60 -125 60q-85 0 -137.5 -58t-52.5 -144q0 -85 52 -142.5t138 -57.5q82 0 130 58zM387 708h51l-107 -144h-62l-107 144h51l87 -116z" />
    <glyph glyph-name="Dcaron" unicode="&#x10e;" horiz-adv-x="761" 
d="M642 354q0 136 -90 220.5t-245 84.5h-154v-610h154q155 0 245 85t90 220zM700 354q0 -114 -55.5 -196.5t-139.5 -120t-183 -37.5h-224v708h224q99 0 183 -37.5t139.5 -120t55.5 -196.5zM436 908h52l-107 -144h-62l-107 144h51l87 -116z" />
    <glyph glyph-name="dcaron" unicode="&#x10f;" horiz-adv-x="633" 
d="M491 233q0 85 -54 143t-136 58q-86 0 -137 -58t-51 -144q0 -85 51 -142.5t137 -57.5q82 0 136 58t54 143zM538 756v-756h-53v94h-2q-29 -51 -79 -79t-108 -28q-105 0 -171.5 69.5t-66.5 175.5t66.5 176t171.5 70q58 0 108 -28t79 -81h2v387h53zM654 708h55l-70 -185h-43z
" />
    <glyph glyph-name="Dcroat" unicode="&#x110;" horiz-adv-x="761" 
d="M635 354q0 136 -89.5 220t-246.5 84h-151v-265h262v-42h-262v-301h151q157 0 246.5 84.5t89.5 219.5zM695 354q0 -86 -32 -155.5t-86 -112t-120.5 -64.5t-140.5 -22h-223v351h-76v42h76v315h223q74 0 140.5 -22t120.5 -64.5t86 -112t32 -155.5z" />
    <glyph glyph-name="dcroat" unicode="&#x111;" horiz-adv-x="633" 
d="M491 233q0 85 -54 143t-136 58q-86 0 -137 -58t-51 -144q0 -85 51 -142.5t137 -57.5q82 0 136 58t54 143zM599 609v-39h-61v-570h-53v94h-2q-29 -51 -79 -79t-108 -28q-105 0 -171.5 69.5t-66.5 175.5t66.5 176t171.5 70q58 0 108 -28t79 -81h2v201h-175v39h175v147h53
v-147h61z" />
    <glyph glyph-name="Emacron" unicode="&#x112;" horiz-adv-x="591" 
d="M541 49v-49h-443v708h430v-49h-375v-267h351v-48h-351v-295h388zM445 850v-43h-257v43h257z" />
    <glyph glyph-name="emacron" unicode="&#x113;" horiz-adv-x="567" 
d="M113 265h343q-3 75 -47.5 122t-120.5 47q-75 0 -123.5 -53t-51.5 -116zM509 244q0 -3 -5.5 -10.5t-6.5 -11.5h-385q2 -78 52.5 -134t131.5 -56q100 0 156 82l39 -31q-75 -96 -195 -96q-103 0 -170.5 70t-67.5 177q0 105 66.5 174.5t163.5 69.5q101 0 158.5 -61.5
t61.5 -153.5q0 -3 0.5 -10t0.5 -9zM421 650v-43h-257v43h257z" />
    <glyph glyph-name="Ebreve" unicode="&#x114;" horiz-adv-x="591" 
d="M541 49v-49h-443v708h430v-49h-375v-267h351v-48h-351v-295h388zM420 905h36q-6 -62 -44 -96t-97 -34t-96.5 34.5t-42.5 95.5h36q7 -42 35 -65t68 -23q89 0 105 88z" />
    <glyph glyph-name="ebreve" unicode="&#x115;" horiz-adv-x="567" 
d="M113 265h343q-3 75 -47.5 122t-120.5 47q-75 0 -123.5 -53t-51.5 -116zM509 244q0 -3 -5.5 -10.5t-6.5 -11.5h-385q2 -78 52.5 -134t131.5 -56q100 0 156 82l39 -31q-75 -96 -195 -96q-103 0 -170.5 70t-67.5 177q0 105 66.5 174.5t163.5 69.5q101 0 158.5 -61.5
t61.5 -153.5q0 -3 0.5 -10t0.5 -9zM397 705h35q-6 -61 -43.5 -95.5t-96.5 -34.5t-97 34.5t-43 95.5h36q7 -42 35.5 -65t68.5 -23q87 0 105 88z" />
    <glyph glyph-name="Edotaccent" unicode="&#x116;" horiz-adv-x="591" 
d="M541 49v-49h-443v708h430v-49h-375v-267h351v-48h-351v-295h388zM319 892q15 0 27 -11.5t12 -28.5q0 -18 -12 -29.5t-27 -11.5q-16 0 -28 12t-12 29t12 28.5t28 11.5z" />
    <glyph glyph-name="edotaccent" unicode="&#x117;" horiz-adv-x="567" 
d="M113 265h343q-3 75 -47.5 122t-120.5 47q-75 0 -123.5 -53t-51.5 -116zM509 244q0 -3 -5.5 -10.5t-6.5 -11.5h-385q2 -78 52.5 -134t131.5 -56q100 0 156 82l39 -31q-75 -96 -195 -96q-103 0 -170.5 70t-67.5 177q0 105 66.5 174.5t163.5 69.5q101 0 158.5 -61.5
t61.5 -153.5q0 -3 0.5 -10t0.5 -9zM291 692q16 0 28 -11.5t12 -28.5t-12 -29t-28 -12q-15 0 -27 11.5t-12 29.5q0 17 12 28.5t27 11.5z" />
    <glyph glyph-name="Eogonek" unicode="&#x118;" horiz-adv-x="591" 
d="M556 -157l16 -32q-37 -34 -88 -34q-37 0 -62.5 23t-25.5 60q0 60 90 140h-388v708h430v-49h-375v-267h351v-48h-351v-295h388v-49h-15q-44 -44 -63 -71.5t-19 -56.5q0 -24 15.5 -38.5t39.5 -14.5q36 0 57 24z" />
    <glyph glyph-name="eogonek" unicode="&#x119;" horiz-adv-x="567" 
d="M113 265h343q-3 75 -47.5 122t-120.5 47q-75 0 -123.5 -53t-51.5 -116zM509 244q0 -3 -5.5 -10.5t-6.5 -11.5h-385q2 -78 52.5 -134t131.5 -56q100 0 156 82l39 -31q-57 -74 -145 -91q-39 -39 -56.5 -65.5t-17.5 -54.5q0 -24 15.5 -38.5t39.5 -14.5q36 0 57 24l16 -32
q-36 -34 -87 -34q-37 0 -62.5 23t-25.5 60q0 61 75 128h-22q-97 7 -158.5 75.5t-61.5 170.5q0 105 66.5 174.5t163.5 69.5q101 0 158.5 -61.5t61.5 -153.5q0 -3 0.5 -10t0.5 -9z" />
    <glyph glyph-name="Ecaron" unicode="&#x11a;" horiz-adv-x="591" 
d="M541 49v-49h-443v708h430v-49h-375v-267h351v-48h-351v-295h388zM403 908h51l-107 -144h-62l-107 144h52l86 -116z" />
    <glyph glyph-name="ecaron" unicode="&#x11b;" horiz-adv-x="567" 
d="M113 265h343q-3 75 -47.5 122t-120.5 47q-75 0 -123.5 -53t-51.5 -116zM509 244q0 -3 -5.5 -10.5t-6.5 -11.5h-385q2 -78 52.5 -134t131.5 -56q100 0 156 82l39 -31q-75 -96 -195 -96q-103 0 -170.5 70t-67.5 177q0 105 66.5 174.5t163.5 69.5q101 0 158.5 -61.5
t61.5 -153.5q0 -3 0.5 -10t0.5 -9zM378 708h51l-107 -144h-62l-107 144h51l87 -116z" />
    <glyph glyph-name="Gcircumflex" unicode="&#x11c;" horiz-adv-x="784" 
d="M692 363v-315q-110 -67 -260 -67q-162 0 -266.5 106t-104.5 268q0 161 104.5 266.5t264.5 105.5q154 0 250 -91l-38 -38q-78 80 -211 80q-139 0 -225.5 -94t-86.5 -229q0 -136 86.5 -230.5t227.5 -94.5q122 0 205 49v236h-172v48h226zM463 908l107 -144h-52l-86 116
l-87 -116h-51l107 144h62z" />
    <glyph glyph-name="gcircumflex" unicode="&#x11d;" horiz-adv-x="630" 
d="M301 434q-86 0 -137 -57.5t-51 -140.5t51 -139.5t137 -56.5q82 0 136 55.5t54 141.5q0 81 -54.5 139t-135.5 58zM538 465v-454q0 -48 -11.5 -89.5t-37.5 -80.5t-76 -61.5t-120 -22.5q-134 0 -217 91l37 39q32 -39 80.5 -61.5t101.5 -22.5q100 0 145 58t45 151v91h-2
q-25 -51 -77 -79.5t-110 -28.5q-106 0 -172 68t-66 172q0 103 66.5 173t171.5 70q58 0 108.5 -28.5t78.5 -80.5h2v96h53zM339 708l107 -144h-52l-86 116l-87 -116h-51l106 144h63z" />
    <glyph glyph-name="Gbreve" unicode="&#x11e;" horiz-adv-x="784" 
d="M692 363v-315q-110 -67 -260 -67q-162 0 -266.5 106t-104.5 268q0 161 104.5 266.5t264.5 105.5q154 0 250 -91l-38 -38q-78 80 -211 80q-139 0 -225.5 -94t-86.5 -229q0 -136 86.5 -230.5t227.5 -94.5q122 0 205 49v236h-172v48h226zM534 905h36q-6 -62 -44 -96t-97 -34
q-58 0 -96 34.5t-43 95.5h36q7 -42 35 -65t68 -23q89 0 105 88z" />
    <glyph glyph-name="gbreve" unicode="&#x11f;" horiz-adv-x="630" 
d="M301 434q-86 0 -137 -57.5t-51 -140.5t51 -139.5t137 -56.5q82 0 136 55.5t54 141.5q0 81 -54.5 139t-135.5 58zM538 465v-454q0 -48 -11.5 -89.5t-37.5 -80.5t-76 -61.5t-120 -22.5q-134 0 -217 91l37 39q32 -39 80.5 -61.5t101.5 -22.5q100 0 145 58t45 151v91h-2
q-25 -51 -77 -79.5t-110 -28.5q-106 0 -172 68t-66 172q0 103 66.5 173t171.5 70q58 0 108.5 -28.5t78.5 -80.5h2v96h53zM413 705h35q-6 -62 -43.5 -96t-96.5 -34t-96.5 34.5t-42.5 95.5h35q8 -42 36.5 -65t67.5 -23q89 0 105 88z" />
    <glyph glyph-name="Gdotaccent" unicode="&#x120;" horiz-adv-x="784" 
d="M692 363v-315q-110 -67 -260 -67q-162 0 -266.5 106t-104.5 268q0 161 104.5 266.5t264.5 105.5q154 0 250 -91l-38 -38q-78 80 -211 80q-139 0 -225.5 -94t-86.5 -229q0 -136 86.5 -230.5t227.5 -94.5q122 0 205 49v236h-172v48h226zM428 892q16 0 28 -11.5t12 -28.5
t-12 -29t-28 -12t-27.5 11.5t-11.5 29.5q0 17 12 28.5t27 11.5z" />
    <glyph glyph-name="gdotaccent" unicode="&#x121;" horiz-adv-x="630" 
d="M301 434q-86 0 -137 -57.5t-51 -140.5t51 -139.5t137 -56.5q82 0 136 55.5t54 141.5q0 81 -54.5 139t-135.5 58zM538 465v-454q0 -48 -11.5 -89.5t-37.5 -80.5t-76 -61.5t-120 -22.5q-134 0 -217 91l37 39q32 -39 80.5 -61.5t101.5 -22.5q100 0 145 58t45 151v91h-2
q-25 -51 -77 -79.5t-110 -28.5q-106 0 -172 68t-66 172q0 103 66.5 173t171.5 70q58 0 108.5 -28.5t78.5 -80.5h2v96h53zM306 692q15 0 27 -11.5t12 -28.5q0 -18 -11.5 -29.5t-27.5 -11.5t-28 12t-12 29t12 28.5t28 11.5z" />
    <glyph glyph-name="Gcommaaccent" unicode="&#x122;" horiz-adv-x="787" 
d="M416 -45h55l-70 -185h-43zM692 363v-315q-110 -67 -260 -67q-162 0 -266.5 106t-104.5 268q0 161 104.5 266.5t264.5 105.5q154 0 250 -91l-38 -38q-78 80 -211 80q-139 0 -225.5 -94t-86.5 -229q0 -136 86.5 -230.5t227.5 -94.5q122 0 205 49v236h-172v48h226z" />
    <glyph glyph-name="gcommaaccent" unicode="&#x123;" horiz-adv-x="630" 
d="M301 434q-86 0 -137 -57.5t-51 -140.5t51 -139.5t137 -56.5q82 0 136 55.5t54 141.5q0 81 -54.5 139t-135.5 58zM538 465v-454q0 -48 -11.5 -89.5t-37.5 -80.5t-76 -61.5t-120 -22.5q-134 0 -217 91l37 39q32 -39 80.5 -61.5t101.5 -22.5q100 0 145 58t45 151v91h-2
q-25 -51 -77 -79.5t-110 -28.5q-106 0 -172 68t-66 172q0 103 66.5 173t171.5 70q58 0 108.5 -28.5t78.5 -80.5h2v96h53zM350 749h43l-58 -185h-55z" />
    <glyph glyph-name="Hcircumflex" unicode="&#x124;" horiz-adv-x="723" 
d="M625 708v-708h-55v342h-417v-342h-55v708h55v-315h417v315h55zM392 908l107 -144h-51l-87 116l-87 -116h-51l107 144h62z" />
    <glyph glyph-name="hcircumflex" unicode="&#x125;" horiz-adv-x="578" 
d="M489 284v-284h-53v265q0 169 -132 169q-65 0 -110.5 -52t-45.5 -145v-237h-53v756h53v-383h2q18 48 64 76.5t101 28.5q87 0 130.5 -53.5t43.5 -140.5zM212 940l106 -144h-51l-87 116l-86 -116h-52l107 144h63z" />
    <glyph glyph-name="Hbar" unicode="&#x126;" horiz-adv-x="723" 
d="M153 393h417v107h-417v-107zM625 708v-708h-55v342h-417v-342h-55v708h55v-169h417v169h55z" />
    <glyph glyph-name="hbar" unicode="&#x127;" horiz-adv-x="578" 
d="M489 284v-284h-53v265q0 169 -132 169q-65 0 -110.5 -52t-45.5 -145v-237h-53v570h-60v39h60v147h53v-147h176v-39h-176v-197h2q18 48 64 76.5t101 28.5q87 0 130.5 -53.5t43.5 -140.5z" />
    <glyph glyph-name="Itilde" unicode="&#x128;" horiz-adv-x="251" 
d="M153 708v-708h-55v708h55zM240 877h34q-6 -41 -26 -66.5t-54 -25.5q-30 0 -70 23q-43 24 -64 24q-35 0 -46 -51h-34q6 41 26 67t54 26q30 0 70 -23q43 -24 64 -24q34 0 46 50z" />
    <glyph glyph-name="itilde" unicode="&#x129;" horiz-adv-x="242" 
d="M147 465v-465h-52v465h52zM236 677h34q-6 -41 -26 -66.5t-54 -25.5q-30 0 -70 23q-43 24 -64 24q-35 0 -46 -51h-34q6 41 26 67t54 26q30 0 70 -23q43 -24 64 -24q34 0 46 50z" />
    <glyph glyph-name="Imacron" unicode="&#x12a;" horiz-adv-x="251" 
d="M153 708v-708h-55v708h55zM255 850v-43h-257v43h257z" />
    <glyph glyph-name="imacron" unicode="&#x12b;" horiz-adv-x="242" 
d="M147 465v-465h-52v465h52zM250 650v-43h-257v43h257z" />
    <glyph glyph-name="Ibreve" unicode="&#x12c;" horiz-adv-x="260" 
d="M160 0h-60v705h60v-705zM130 793q-59 0 -97 32t-44 90h33q9 -38 38.5 -58.5t69.5 -20.5t69.5 20.5t38.5 58.5h33q-6 -58 -44 -90t-97 -32z" />
    <glyph glyph-name="ibreve" unicode="&#x12d;" horiz-adv-x="250" 
d="M153 0h-56v464h56v-464zM125 553q-59 0 -97 32t-44 90h33q9 -38 38.5 -58.5t69.5 -20.5t69.5 20.5t38.5 58.5h33q-6 -58 -44 -90t-97 -32z" />
    <glyph glyph-name="Iogonek" unicode="&#x12e;" horiz-adv-x="251" 
d="M179 -157l16 -32q-36 -34 -87 -34q-37 0 -62.5 23t-25.5 60q0 62 90 140h-12v708h55v-708q0 -1 -3 -1l-3 -1q-43 -43 -61.5 -70t-18.5 -56q0 -24 15.5 -38.5t39.5 -14.5q36 0 57 24z" />
    <glyph glyph-name="iogonek" unicode="&#x12f;" horiz-adv-x="250" 
d="M153 465v-462q-43 -43 -62 -71t-19 -58q0 -23 16.5 -38.5t39.5 -15.5q30 0 49 18l14 -29q-35 -32 -83 -32q-34 0 -59 22.5t-25 57.5q0 65 100 146h-27v462h56zM125 611q-16 0 -29 12.5t-13 29.5q0 18 13 30.5t29 12.5t29 -12.5t13 -30.5q0 -17 -13 -29.5t-29 -12.5z" />
    <glyph glyph-name="Idotaccent" unicode="&#x130;" horiz-adv-x="251" 
d="M153 708v-708h-55v708h55zM126 892q16 0 28 -11.5t12 -28.5t-12 -29t-28 -12t-27.5 11.5t-11.5 29.5q0 17 12 28.5t27 11.5z" />
    <glyph glyph-name="dotlessi" unicode="&#x131;" horiz-adv-x="242" 
d="M147 465v-465h-52v465h52z" />
    <glyph glyph-name="IJ" unicode="&#x132;" horiz-adv-x="725" 
d="M153 708v-708h-55v708h55zM632 708v-508q0 -92 -43.5 -155t-142.5 -63q-71 0 -119.5 37t-63.5 96l51 15q12 -45 45.5 -72.5t81.5 -27.5q136 0 136 175v503h55z" />
    <glyph glyph-name="ij" unicode="&#x133;" horiz-adv-x="483" 
d="M147 465v-465h-52v465h52zM389 465v-559q0 -68 -28 -107t-98 -39q-29 0 -46 5l8 44q20 -5 37 -5q45 0 59.5 27.5t14.5 80.5v553h53zM121 692q15 0 27 -11.5t12 -28.5q0 -18 -12 -29.5t-27 -11.5q-16 0 -28 12t-12 29t12 28.5t28 11.5zM362 692q16 0 28 -11.5t12 -28.5
t-12 -29t-28 -12q-15 0 -27 12t-12 29t12 28.5t27 11.5z" />
    <glyph glyph-name="Jcircumflex" unicode="&#x134;" horiz-adv-x="488" 
d="M395 708v-508q0 -92 -43.5 -155t-142.5 -63q-71 0 -119.5 37t-63.5 96l51 15q12 -45 45.5 -72.5t81.5 -27.5q136 0 136 175v503h55zM397 908l107 -144h-51l-87 116l-86 -116h-52l107 144h62z" />
    <glyph glyph-name="jcircumflex" unicode="&#x135;" horiz-adv-x="243" 
d="M148 465v-559q0 -68 -28 -107t-98 -39q-29 0 -46 5l8 44q20 -5 37 -5q45 0 59.5 27.5t14.5 80.5v553h53zM152 708l107 -144h-51l-87 116l-87 -116h-51l107 144h62z" />
    <glyph glyph-name="Kcommaaccent" unicode="&#x136;" horiz-adv-x="607" 
d="M311 -45h55l-70 -185h-43zM218 386l378 -386h-81l-361 378h-1v-378h-55v708h55v-320h1l344 320h78z" />
    <glyph glyph-name="kcommaaccent" unicode="&#x137;" horiz-adv-x="488" 
d="M253 -45h55l-70 -185h-44zM210 252l264 -252h-77l-247 245h-2v-245h-53v756h53v-502h2l224 211h75z" />
    <glyph glyph-name="Lacute" unicode="&#x139;" horiz-adv-x="506" 
d="M491 49v-49h-393v708h55v-659h338zM203 908h69l-125 -144h-45z" />
    <glyph glyph-name="lacute" unicode="&#x13a;" horiz-adv-x="243" 
d="M148 756v-756h-53v756h53zM198 936h69l-125 -144h-45z" />
    <glyph glyph-name="Lcommaaccent" unicode="&#x13b;" horiz-adv-x="506" 
d="M279 -45h55l-70 -185h-44zM491 49v-49h-393v708h55v-659h338z" />
    <glyph glyph-name="lcommaaccent" unicode="&#x13c;" horiz-adv-x="243" 
d="M111 -45h55l-70 -185h-44zM148 756v-756h-53v756h53z" />
    <glyph glyph-name="Lcaron" unicode="&#x13d;" horiz-adv-x="506" 
d="M491 49v-49h-393v708h55v-659h338zM290 708h55l-70 -185h-44z" />
    <glyph glyph-name="lcaron" unicode="&#x13e;" horiz-adv-x="243" 
d="M148 756v-756h-53v756h53zM262 708h55l-70 -185h-43z" />
    <glyph glyph-name="Ldot" unicode="&#x13f;" horiz-adv-x="506" 
d="M491 49v-49h-393v708h55v-659h338zM373 358q16 0 27.5 -11.5t11.5 -28.5t-11.5 -28.5t-27.5 -11.5t-28 11.5t-12 28.5t12 28.5t28 11.5z" />
    <glyph glyph-name="ldot" unicode="&#x140;" horiz-adv-x="283" 
d="M148 756v-756h-53v756h53zM261 358q16 0 27.5 -11.5t11.5 -28.5t-11.5 -28.5t-27.5 -11.5t-28 11.5t-12 28.5t12 28.5t28 11.5z" />
    <glyph glyph-name="Lslash" unicode="&#x141;" horiz-adv-x="506" 
d="M491 49v-49h-393v247l-76 -66v55l76 67v405h55v-366l213 186v-55l-213 -187v-237h338z" />
    <glyph glyph-name="lslash" unicode="&#x142;" horiz-adv-x="243" 
d="M226 517v-56l-78 -77v-384h-51v342l-76 -76v58l76 74v358h51v-316z" />
    <glyph glyph-name="Nacute" unicode="&#x143;" horiz-adv-x="768" 
d="M670 708v-708h-70l-445 633h-2v-633h-55v708h70l445 -629h2v629h55zM453 908h69l-125 -144h-45z" />
    <glyph glyph-name="nacute" unicode="&#x144;" horiz-adv-x="578" 
d="M489 284v-284h-53v265q0 169 -133 169q-65 0 -110.5 -52t-45.5 -145v-237h-52v358q0 67 -4 107h50q4 -33 4 -94h2q20 49 67 78t101 29q87 0 130.5 -53.5t43.5 -140.5zM355 708h69l-125 -144h-45z" />
    <glyph glyph-name="Ncommaaccent" unicode="&#x145;" horiz-adv-x="768" 
d="M362 -45h55l-70 -185h-43zM670 708v-708h-70l-445 633h-2v-633h-55v708h70l445 -629h2v629h55z" />
    <glyph glyph-name="ncommaaccent" unicode="&#x146;" horiz-adv-x="578" 
d="M278 -45h55l-70 -185h-43zM489 284v-284h-53v265q0 169 -133 169q-65 0 -110.5 -52t-45.5 -145v-237h-52v358q0 67 -4 107h50q4 -33 4 -94h2q20 49 67 78t101 29q87 0 130.5 -53.5t43.5 -140.5z" />
    <glyph glyph-name="Ncaron" unicode="&#x147;" horiz-adv-x="768" 
d="M670 708v-708h-70l-445 633h-2v-633h-55v708h70l445 -629h2v629h55zM471 908h52l-107 -144h-62l-107 144h51l87 -116z" />
    <glyph glyph-name="ncaron" unicode="&#x148;" horiz-adv-x="578" 
d="M489 284v-284h-53v265q0 169 -133 169q-65 0 -110.5 -52t-45.5 -145v-237h-52v358q0 67 -4 107h50q4 -33 4 -94h2q20 49 67 78t101 29q87 0 130.5 -53.5t43.5 -140.5zM380 708h51l-107 -144h-62l-107 144h51l87 -116z" />
    <glyph glyph-name="napostrophe" unicode="&#x149;" horiz-adv-x="578" 
d="M489 284v-284h-53v265q0 169 -133 169q-65 0 -110.5 -52t-45.5 -145v-237h-52v358q0 67 -4 107h50q4 -33 4 -94h2q20 49 67 78t101 29q87 0 130.5 -53.5t43.5 -140.5zM60 740h55l-70 -185h-43z" />
    <glyph glyph-name="Omacron" unicode="&#x14c;" horiz-adv-x="857" 
d="M738 354q0 136 -85.5 230t-223.5 94t-224 -94t-86 -230t85.5 -230t224.5 -94t224 94t85 230zM796 354q0 -162 -104.5 -267.5t-262.5 -105.5q-159 0 -263.5 105.5t-104.5 267.5t104.5 267.5t263.5 105.5q158 0 262.5 -105.5t104.5 -267.5zM561 850v-43h-257v43h257z" />
    <glyph glyph-name="omacron" unicode="&#x14d;" horiz-adv-x="609" 
d="M304 434q-86 0 -138.5 -58t-52.5 -143t52.5 -143t138.5 -58t139 57.5t53 143.5t-53 143.5t-139 57.5zM304 478q108 0 177.5 -69t69.5 -176t-69.5 -176.5t-177.5 -69.5t-177 69.5t-69 176.5t69 176t177 69zM434 650v-43h-258v43h258z" />
    <glyph glyph-name="Obreve" unicode="&#x14e;" horiz-adv-x="857" 
d="M738 354q0 136 -85.5 230t-223.5 94t-224 -94t-86 -230t85.5 -230t224.5 -94t224 94t85 230zM796 354q0 -162 -104.5 -267.5t-262.5 -105.5q-159 0 -263.5 105.5t-104.5 267.5t104.5 267.5t263.5 105.5q158 0 262.5 -105.5t104.5 -267.5zM535 905h35q-5 -61 -43 -95.5
t-97 -34.5t-96.5 34.5t-42.5 95.5h35q8 -42 36.5 -65t67.5 -23q89 0 105 88z" />
    <glyph glyph-name="obreve" unicode="&#x14f;" horiz-adv-x="609" 
d="M304 434q-86 0 -138.5 -58t-52.5 -143t52.5 -143t138.5 -58t139 57.5t53 143.5t-53 143.5t-139 57.5zM304 478q108 0 177.5 -69t69.5 -176t-69.5 -176.5t-177.5 -69.5t-177 69.5t-69 176.5t69 176t177 69zM410 705h35q-6 -62 -43.5 -96t-96.5 -34t-96.5 34.5t-42.5 95.5
h35q8 -42 36.5 -65t67.5 -23q89 0 105 88z" />
    <glyph glyph-name="Ohungarumlaut" unicode="&#x150;" horiz-adv-x="857" 
d="M738 354q0 136 -85.5 230t-223.5 94t-224 -94t-86 -230t85.5 -230t224.5 -94t224 94t85 230zM796 354q0 -162 -104.5 -267.5t-262.5 -105.5q-159 0 -263.5 105.5t-104.5 267.5t104.5 267.5t263.5 105.5q158 0 262.5 -105.5t104.5 -267.5zM430 908h69l-126 -144h-45z
M582 908h69l-125 -144h-45z" />
    <glyph glyph-name="ohungarumlaut" unicode="&#x151;" horiz-adv-x="609" 
d="M304 434q-86 0 -138.5 -58t-52.5 -143t52.5 -143t138.5 -58t139 57.5t53 143.5t-53 143.5t-139 57.5zM304 478q108 0 177.5 -69t69.5 -176t-69.5 -176.5t-177.5 -69.5t-177 69.5t-69 176.5t69 176t177 69zM309 708h69l-125 -144h-46zM461 708h69l-125 -144h-45z" />
    <glyph glyph-name="OE" unicode="&#x152;" horiz-adv-x="987" 
d="M465 49h64v610h-64q-156 0 -246 -85t-90 -220q0 -136 90 -220.5t246 -84.5zM937 49v-49h-487q-74 0 -140.5 22t-120.5 64.5t-86 112t-32 155.5t32 155.5t86 112t120.5 64.5t140.5 22h474v-49h-340v-267h317v-48h-317v-295h353z" />
    <glyph glyph-name="oe" unicode="&#x153;" horiz-adv-x="1000" 
d="M303 434q-86 0 -138.5 -58t-52.5 -143t52.5 -143t138.5 -58q87 0 140 58t53 143t-53 143t-140 58zM547 265h342q-2 75 -47 122t-121 47q-75 0 -123 -53t-51 -116zM942 244q0 -3 -5 -10.5t-6 -11.5h-386q2 -78 53 -134t131 -56q101 0 157 82l39 -31q-76 -96 -196 -96
q-72 0 -126.5 34.5t-82.5 96.5q-29 -62 -85.5 -96.5t-131.5 -34.5q-107 0 -176 69.5t-69 176.5t69 176t176 69q75 0 131 -34t85 -95q28 61 81 95t121 34q102 0 159.5 -61.5t61.5 -153.5v-19z" />
    <glyph glyph-name="Racute" unicode="&#x154;" horiz-adv-x="597" 
d="M293 661h-140v-274h141q92 0 140 35t48 102q0 137 -189 137zM348 344l209 -344h-66l-202 340h-136v-340h-55v708h204q235 0 235 -184q0 -81 -54.5 -127.5t-134.5 -52.5zM335 908h69l-125 -144h-45z" />
    <glyph glyph-name="racute" unicode="&#x155;" horiz-adv-x="345" 
d="M336 468l-8 -42q-12 4 -34 4q-66 0 -106.5 -52t-40.5 -139v-239h-52v358q0 67 -4 107h50q4 -33 4 -94h2q20 51 61 79t92 28q14 0 21 -1q3 0 8 -4.5t7 -4.5zM220 708h69l-125 -144h-45z" />
    <glyph glyph-name="Rcommaaccent" unicode="&#x156;" horiz-adv-x="597" 
d="M293 661h-140v-274h141q92 0 140 35t48 102q0 137 -189 137zM296 -45h55l-70 -185h-43zM348 344l209 -344h-66l-202 340h-136v-340h-55v708h204q235 0 235 -184q0 -81 -54.5 -127.5t-134.5 -52.5z" />
    <glyph glyph-name="rcommaaccent" unicode="&#x157;" horiz-adv-x="345" 
d="M110 -45h55l-70 -185h-44zM336 468l-8 -42q-12 4 -34 4q-66 0 -106.5 -52t-40.5 -139v-239h-52v358q0 67 -4 107h50q4 -33 4 -94h2q20 51 61 79t92 28q14 0 21 -1q3 0 8 -4.5t7 -4.5z" />
    <glyph glyph-name="Rcaron" unicode="&#x158;" horiz-adv-x="597" 
d="M293 661h-140v-274h141q92 0 140 35t48 102q0 137 -189 137zM348 344l209 -344h-66l-202 340h-136v-340h-55v708h204q235 0 235 -184q0 -81 -54.5 -127.5t-134.5 -52.5zM368 908h52l-107 -144h-63l-107 144h52l87 -116z" />
    <glyph glyph-name="rcaron" unicode="&#x159;" horiz-adv-x="345" 
d="M336 468l-8 -42q-12 4 -34 4q-66 0 -106.5 -52t-40.5 -139v-239h-52v358q0 67 -4 107h50q4 -33 4 -94h2q20 51 61 79t92 28q14 0 21 -1q3 0 8 -4.5t7 -4.5zM295 708h51l-107 -144h-62l-107 144h51l87 -116z" />
    <glyph glyph-name="Sacute" unicode="&#x15a;" horiz-adv-x="566" 
d="M502 181q0 -96 -66.5 -148t-159.5 -52q-66 0 -124 26t-95 73l47 36q62 -87 173 -87q67 0 118 39.5t51 108.5q0 29 -11 53t-25 39t-41.5 29t-46.5 21t-55 18q-45 14 -74 27.5t-59 35.5t-45 56t-15 79q0 91 67 141.5t156 50.5q64 0 114.5 -23t79.5 -61l-43 -35
q-56 72 -153 72q-66 0 -116 -37.5t-50 -106.5q0 -28 10 -50.5t22.5 -36.5t37.5 -27.5t42 -19.5l49 -17q41 -13 64 -21.5t55.5 -26t49.5 -36.5t30 -50t13 -70zM351 908h69l-125 -144h-45z" />
    <glyph glyph-name="sacute" unicode="&#x15b;" horiz-adv-x="434" 
d="M386 129q0 -70 -49 -105.5t-118 -35.5q-117 0 -177 86l42 31q45 -72 135 -72q49 0 82 23t33 69q0 41 -34 61t-107 38q-28 7 -46.5 14t-40 21t-32.5 36t-11 53q0 63 46 96.5t112 33.5q49 0 91 -20.5t65 -57.5l-40 -30q-38 64 -118 64q-42 0 -74 -20.5t-32 -61.5
q0 -39 27.5 -57.5t91.5 -32.5q77 -17 115.5 -47.5t38.5 -85.5zM286 708h70l-125 -144h-46z" />
    <glyph glyph-name="Scircumflex" unicode="&#x15c;" horiz-adv-x="566" 
d="M502 181q0 -96 -66.5 -148t-159.5 -52q-66 0 -124 26t-95 73l47 36q62 -87 173 -87q67 0 118 39.5t51 108.5q0 29 -11 53t-25 39t-41.5 29t-46.5 21t-55 18q-45 14 -74 27.5t-59 35.5t-45 56t-15 79q0 91 67 141.5t156 50.5q64 0 114.5 -23t79.5 -61l-43 -35
q-56 72 -153 72q-66 0 -116 -37.5t-50 -106.5q0 -28 10 -50.5t22.5 -36.5t37.5 -27.5t42 -19.5l49 -17q41 -13 64 -21.5t55.5 -26t49.5 -36.5t30 -50t13 -70zM327 908l107 -144h-51l-87 116l-87 -116h-51l107 144h62z" />
    <glyph glyph-name="scircumflex" unicode="&#x15d;" horiz-adv-x="434" 
d="M386 129q0 -70 -49 -105.5t-118 -35.5q-117 0 -177 86l42 31q45 -72 135 -72q49 0 82 23t33 69q0 41 -34 61t-107 38q-28 7 -46.5 14t-40 21t-32.5 36t-11 53q0 63 46 96.5t112 33.5q49 0 91 -20.5t65 -57.5l-40 -30q-38 64 -118 64q-42 0 -74 -20.5t-32 -61.5
q0 -39 27.5 -57.5t91.5 -32.5q77 -17 115.5 -47.5t38.5 -85.5zM256 708l107 -144h-52l-86 116l-87 -116h-52l107 144h63z" />
    <glyph glyph-name="Scedilla" unicode="&#x15e;" horiz-adv-x="566" 
d="M502 181q0 -90 -60 -142t-147 -57l-39 -61q16 6 42 6q33 0 58 -18.5t25 -52.5q0 -45 -35 -65t-81 -20q-49 0 -92 20l12 30q30 -15 77 -15q27 0 50 11.5t23 37.5q0 43 -61 43q-28 0 -51 -10l-16 13l53 81q-133 7 -203 98l47 36q62 -87 173 -87q67 0 118 39.5t51 108.5
q0 29 -11 53t-25 39t-41.5 29t-46.5 21t-55 18q-45 14 -74 27.5t-59 35.5t-45 56t-15 79q0 91 67 141.5t156 50.5q64 0 114.5 -23t79.5 -61l-43 -35q-56 72 -153 72q-66 0 -116 -37.5t-50 -106.5q0 -28 10 -50.5t22.5 -36.5t37.5 -27.5t42 -19.5l49 -17q41 -13 64 -21.5
t55.5 -26t49.5 -36.5t30 -50t13 -70z" />
    <glyph glyph-name="scedilla" unicode="&#x15f;" horiz-adv-x="434" 
d="M221 478q49 0 91 -20.5t65 -57.5l-40 -30q-38 64 -118 64q-42 0 -74 -20.5t-32 -61.5q0 -39 27.5 -57.5t91.5 -32.5q77 -17 115.5 -47.5t38.5 -85.5q0 -64 -41.5 -99t-104.5 -41l-43 -68q14 6 41 6q33 0 58.5 -18.5t25.5 -52.5q0 -45 -35 -65t-81 -20q-48 0 -93 20l13 30
q29 -15 76 -15q27 0 50 11.5t23 37.5q0 43 -60 43q-27 0 -52 -10l-15 13l56 88q-107 5 -162 85l42 31q45 -72 135 -72q49 0 82 23t33 69q0 41 -34 61t-107 38q-28 7 -46.5 14t-40 21t-32.5 36t-11 53q0 63 46 96.5t112 33.5z" />
    <glyph glyph-name="Scaron" unicode="&#x160;" horiz-adv-x="566" 
d="M502 181q0 -96 -66.5 -148t-159.5 -52q-66 0 -124 26t-95 73l47 36q62 -87 173 -87q67 0 118 39.5t51 108.5q0 29 -11 53t-25 39t-41.5 29t-46.5 21t-55 18q-45 14 -74 27.5t-59 35.5t-45 56t-15 79q0 91 67 141.5t156 50.5q64 0 114.5 -23t79.5 -61l-43 -35
q-56 72 -153 72q-66 0 -116 -37.5t-50 -106.5q0 -28 10 -50.5t22.5 -36.5t37.5 -27.5t42 -19.5l49 -17q41 -13 64 -21.5t55.5 -26t49.5 -36.5t30 -50t13 -70zM377 908h52l-107 -144h-63l-107 144h52l86 -116z" />
    <glyph glyph-name="scaron" unicode="&#x161;" horiz-adv-x="434" 
d="M386 129q0 -70 -49 -105.5t-118 -35.5q-117 0 -177 86l42 31q45 -72 135 -72q49 0 82 23t33 69q0 41 -34 61t-107 38q-28 7 -46.5 14t-40 21t-32.5 36t-11 53q0 63 46 96.5t112 33.5q49 0 91 -20.5t65 -57.5l-40 -30q-38 64 -118 64q-42 0 -74 -20.5t-32 -61.5
q0 -39 27.5 -57.5t91.5 -32.5q77 -17 115.5 -47.5t38.5 -85.5zM311 708h52l-107 -144h-63l-107 144h52l87 -116z" />
    <glyph glyph-name="Tcommaaccent" unicode="&#x162;" horiz-adv-x="570" 
d="M552 655h-237v-652h-7l-58 -93q27 9 49 9q31 0 53.5 -18t22.5 -49q0 -43 -33 -62.5t-79 -19.5q-44 0 -86 17l11 26q29 -13 69 -13q22 0 46 12.5t24 38.5q0 46 -60 46q-20 0 -42 -8l-11 10l65 104h-24v652h-237v53h534v-53z" />
    <glyph glyph-name="tcommaaccent" unicode="&#x163;" horiz-adv-x="317" 
d="M199 -230q-44 0 -86 17l11 26q29 -13 69 -13q22 0 46 12.5t24 38.5q0 46 -60 46q-17 0 -42 -7l-11 9l61 98q-104 12 -104 121v302h-97v46h97v134h56v-134h132v-46h-132v-283q0 -52 20 -72.5t56 -20.5q24 0 53 12l3 -47q-27 -8 -56 -11l-53 -88q27 9 49 9q31 0 53.5 -18
t22.5 -49q0 -43 -33 -62.5t-79 -19.5z" />
    <glyph glyph-name="Tcaron" unicode="&#x164;" horiz-adv-x="560" 
d="M546 708v-49h-239v-659h-55v659h-238v49h532zM367 908h51l-107 -144h-62l-107 144h51l87 -116z" />
    <glyph glyph-name="tcaron" unicode="&#x165;" horiz-adv-x="313" 
d="M291 50l3 -45q-34 -13 -73 -13q-49 0 -81.5 28.5t-32.5 90.5v310h-98v44h98v133h53v-133h133v-44h-133v-298q0 -47 19 -66.5t56 -19.5q27 0 56 13zM285 731h55l-70 -185h-43z" />
    <glyph glyph-name="Tbar" unicode="&#x166;" horiz-adv-x="560" 
d="M546 708v-49h-239v-115h178v-39h-178v-505h-55v505h-183v39h183v115h-238v49h532z" />
    <glyph glyph-name="tbar" unicode="&#x167;" horiz-adv-x="313" 
d="M291 50l3 -45q-34 -13 -73 -13q-49 0 -81.5 28.5t-32.5 90.5v151h-90v39h90v120h-98v44h98v133h53v-133h133v-44h-133v-120h122v-39h-122v-139q0 -47 19 -66.5t56 -19.5q27 0 56 13z" />
    <glyph glyph-name="Utilde" unicode="&#x168;" horiz-adv-x="717" 
d="M625 708v-443q0 -53 -13 -100t-41.5 -90t-83 -68.5t-128.5 -25.5t-128.5 25.5t-83.5 68.5t-42 90t-13 100v443h55v-436q0 -46 10 -86t32.5 -76.5t66 -58t103.5 -21.5t103 21t65.5 57.5t32.5 76.5t10 87v436h55zM472 877h34q-6 -41 -26 -66.5t-54 -25.5q-30 0 -70 23
q-43 24 -64 24q-33 0 -46 -51h-34q6 41 26 67t54 26q27 0 70 -23q42 -24 64 -24q35 0 46 50z" />
    <glyph glyph-name="utilde" unicode="&#x169;" horiz-adv-x="578" 
d="M487 0h-51q-4 33 -4 94h-2q-21 -49 -67 -78t-100 -29q-87 0 -130.5 53.5t-43.5 140.5v284h52v-264q0 -170 133 -170q65 0 110.5 52.5t45.5 145.5v236h52v-358q0 -57 5 -107zM401 677h34q-6 -41 -26 -66.5t-54 -25.5q-30 0 -70 23q-43 24 -64 24q-35 0 -46 -51h-34
q6 41 26 67t54 26q27 0 70 -23q42 -24 64 -24q35 0 46 50z" />
    <glyph glyph-name="Umacron" unicode="&#x16a;" horiz-adv-x="717" 
d="M625 708v-443q0 -53 -13 -100t-41.5 -90t-83 -68.5t-128.5 -25.5t-128.5 25.5t-83.5 68.5t-42 90t-13 100v443h55v-436q0 -46 10 -86t32.5 -76.5t66 -58t103.5 -21.5t103 21t65.5 57.5t32.5 76.5t10 87v436h55zM488 850v-43h-257v43h257z" />
    <glyph glyph-name="umacron" unicode="&#x16b;" horiz-adv-x="578" 
d="M487 0h-51q-4 33 -4 94h-2q-21 -49 -67 -78t-100 -29q-87 0 -130.5 53.5t-43.5 140.5v284h52v-264q0 -170 133 -170q65 0 110.5 52.5t45.5 145.5v236h52v-358q0 -57 5 -107zM415 650v-43h-257v43h257z" />
    <glyph glyph-name="Ubreve" unicode="&#x16c;" horiz-adv-x="717" 
d="M625 708v-443q0 -53 -13 -100t-41.5 -90t-83 -68.5t-128.5 -25.5t-128.5 25.5t-83.5 68.5t-42 90t-13 100v443h55v-436q0 -46 10 -86t32.5 -76.5t66 -58t103.5 -21.5t103 21t65.5 57.5t32.5 76.5t10 87v436h55zM464 905h35q-6 -61 -43.5 -95.5t-96.5 -34.5t-96.5 34.5
t-42.5 95.5h35q7 -42 35.5 -65t68.5 -23q87 0 105 88z" />
    <glyph glyph-name="ubreve" unicode="&#x16d;" horiz-adv-x="578" 
d="M487 0h-51q-4 33 -4 94h-2q-21 -49 -67 -78t-100 -29q-87 0 -130.5 53.5t-43.5 140.5v284h52v-264q0 -170 133 -170q65 0 110.5 52.5t45.5 145.5v236h52v-358q0 -57 5 -107zM393 705h35q-6 -61 -43.5 -95.5t-96.5 -34.5t-97 34.5t-43 95.5h36q7 -42 35.5 -65t68.5 -23
q87 0 105 88z" />
    <glyph glyph-name="Uring" unicode="&#x16e;" horiz-adv-x="717" 
d="M427 850q0 27 -19.5 46t-46.5 19q-28 0 -47 -19t-19 -46t19 -46t47 -19q27 0 46.5 19t19.5 46zM625 708v-443q0 -53 -13 -100t-41.5 -90t-83 -68.5t-128.5 -25.5t-128.5 25.5t-83.5 68.5t-42 90t-13 100v443h55v-436q0 -46 10 -86t32.5 -76.5t66 -58t103.5 -21.5t103 21
t65.5 57.5t32.5 76.5t10 87v436h55zM457 850q0 -40 -28.5 -67.5t-67.5 -27.5t-67.5 27.5t-28.5 67.5q0 39 28.5 67t67.5 28t67.5 -28t28.5 -67z" />
    <glyph glyph-name="uring" unicode="&#x16f;" horiz-adv-x="578" 
d="M353 650q0 27 -19.5 46t-46.5 19t-46.5 -19t-19.5 -46t19.5 -46t46.5 -19t46.5 19t19.5 46zM487 0h-51q-4 33 -4 94h-2q-21 -49 -67 -78t-100 -29q-87 0 -130.5 53.5t-43.5 140.5v284h52v-264q0 -170 133 -170q65 0 110.5 52.5t45.5 145.5v236h52v-358q0 -57 5 -107z
M383 650q0 -40 -28.5 -67.5t-67.5 -27.5t-67.5 27.5t-28.5 67.5q0 39 28.5 67t67.5 28t67.5 -28t28.5 -67z" />
    <glyph glyph-name="Uhungarumlaut" unicode="&#x170;" horiz-adv-x="717" 
d="M625 708v-443q0 -53 -13 -100t-41.5 -90t-83 -68.5t-128.5 -25.5t-128.5 25.5t-83.5 68.5t-42 90t-13 100v443h55v-436q0 -46 10 -86t32.5 -76.5t66 -58t103.5 -21.5t103 21t65.5 57.5t32.5 76.5t10 87v436h55zM355 908h70l-126 -144h-45zM507 908h70l-125 -144h-46z" />
    <glyph glyph-name="uhungarumlaut" unicode="&#x171;" horiz-adv-x="578" 
d="M487 0h-51q-4 33 -4 94h-2q-21 -49 -67 -78t-100 -29q-87 0 -130.5 53.5t-43.5 140.5v284h52v-264q0 -170 133 -170q65 0 110.5 52.5t45.5 145.5v236h52v-358q0 -57 5 -107zM285 708h69l-126 -144h-45zM437 708h69l-125 -144h-45z" />
    <glyph glyph-name="Uogonek" unicode="&#x172;" horiz-adv-x="717" 
d="M625 708v-443q0 -48 -10.5 -91t-33.5 -83.5t-66 -68.5t-101 -36q-37 -38 -52.5 -62.5t-15.5 -51.5q0 -24 15.5 -38.5t39.5 -14.5q36 0 57 24l16 -32q-36 -34 -87 -34q-37 0 -62.5 23t-25.5 60q0 57 69 122q-7 -3 -9 -1q-60 -7 -107 8t-76.5 44t-49 69t-27 80.5t-7.5 82.5
v443h55v-436q0 -46 10 -86t32.5 -76.5t66 -58t103.5 -21.5t103 21t65.5 57.5t32.5 76.5t10 87v436h55z" />
    <glyph glyph-name="uogonek" unicode="&#x173;" horiz-adv-x="578" 
d="M506 -157l16 -32q-37 -34 -88 -34q-37 0 -62.5 23t-25.5 60q0 60 90 140h1q-1 0 -1 1q-4 33 -4 93h-2q-21 -49 -67 -78t-100 -29q-87 0 -130.5 53.5t-43.5 140.5v284h52v-264q0 -170 133 -170q65 0 110.5 52.5t45.5 145.5v236h52v-358q0 -57 5 -107q-1 0 -7.5 -1.5
t-7.5 -2.5q-42 -42 -60 -69t-18 -55q0 -24 15.5 -38.5t39.5 -14.5q36 0 57 24z" />
    <glyph glyph-name="Wcircumflex" unicode="&#x174;" horiz-adv-x="967" 
d="M890 708h58l-210 -708h-67l-187 635h-2l-186 -635h-67l-210 708h58l185 -636h2l185 636h68l187 -636h2zM514 908l107 -144h-52l-86 116l-87 -116h-52l107 144h63z" />
    <glyph glyph-name="wcircumflex" unicode="&#x175;" horiz-adv-x="730" 
d="M646 465h55l-144 -465h-59l-133 398h-2l-132 -398h-59l-143 465h56l117 -399h2l134 399h54l135 -399h2zM395 708l107 -144h-51l-87 116l-87 -116h-51l107 144h62z" />
    <glyph glyph-name="Ycircumflex" unicode="&#x176;" horiz-adv-x="580" 
d="M511 708h64l-257 -401v-307h-55v307l-258 401h68l219 -354zM323 908l107 -144h-51l-87 116l-87 -116h-51l107 144h62z" />
    <glyph glyph-name="ycircumflex" unicode="&#x177;" horiz-adv-x="468" 
d="M392 465h57l-231 -597q-21 -53 -52.5 -81t-82.5 -28q-24 0 -54 7l6 47q24 -7 46 -7q35 0 55.5 21.5t36.5 63.5l40 105l-194 469h58l162 -413l2 1zM272 708l107 -144h-52l-87 116l-86 -116h-52l107 144h63z" />
    <glyph glyph-name="Ydieresis" unicode="&#x178;" horiz-adv-x="580" 
d="M511 708h64l-257 -401v-307h-55v307l-258 401h68l219 -354zM202 893q18 0 30 -12t12 -30q0 -17 -12 -29.5t-30 -12.5t-29.5 12t-11.5 30t11.5 30t29.5 12zM381 893q18 0 30 -12t12 -30t-12 -30t-30 -12t-29.5 12t-11.5 30t11.5 30t29.5 12z" />
    <glyph glyph-name="Zacute" unicode="&#x179;" horiz-adv-x="579" 
d="M545 49v-49h-506v49l431 610h-420v49h487v-49l-431 -610h439zM354 908h70l-125 -144h-46z" />
    <glyph glyph-name="zacute" unicode="&#x17a;" horiz-adv-x="441" 
d="M403 45v-45h-366v39l288 382h-273v44h340v-39l-287 -381h298zM288 708h69l-124 -144h-46z" />
    <glyph glyph-name="Zdotaccent" unicode="&#x17b;" horiz-adv-x="579" 
d="M545 49v-49h-506v49l431 610h-420v49h487v-49l-431 -610h439zM292 892q15 0 27 -11.5t12 -28.5t-12 -29t-27 -12q-16 0 -28 12t-12 29t12 28.5t28 11.5z" />
    <glyph glyph-name="zdotaccent" unicode="&#x17c;" horiz-adv-x="441" 
d="M403 45v-45h-366v39l288 382h-273v44h340v-39l-287 -381h298zM222 692q16 0 28 -11.5t12 -28.5t-12 -29t-28 -12t-27.5 11.5t-11.5 29.5q0 17 12 28.5t27 11.5z" />
    <glyph glyph-name="Zcaron" unicode="&#x17d;" horiz-adv-x="579" 
d="M545 49v-49h-506v49l431 610h-420v49h487v-49l-431 -610h439zM379 908h52l-107 -144h-63l-107 144h52l86 -116z" />
    <glyph glyph-name="zcaron" unicode="&#x17e;" horiz-adv-x="441" 
d="M403 45v-45h-366v39l288 382h-273v44h340v-39l-287 -381h298zM311 708h51l-107 -144h-62l-107 144h52l86 -116z" />
    <glyph glyph-name="florin" unicode="&#x192;" horiz-adv-x="573" 
d="M519 694l-27 -37q-23 17 -56 17q-75 0 -95 -115l-25 -144h111v-42h-120l-69 -371q-27 -143 -143 -143q-45 0 -71 17l21 42q24 -12 52 -12q43 0 62 30t29 84l65 353h-109v42h117l29 154q13 69 45.5 110t98.5 41q50 0 85 -26z" />
    <glyph glyph-name="Ohorn" unicode="&#x1a0;" horiz-adv-x="857" 
d="M738 354q0 136 -85.5 230t-223.5 94t-224 -94t-86 -230t85.5 -230t224.5 -94t224 94t85 230zM747 791l47 13q14 -31 14 -70q0 -100 -102 -108q-7 -1 -19 -1q109 -104 109 -271q0 -162 -104.5 -267.5t-262.5 -105.5q-159 0 -263.5 105.5t-104.5 267.5t104.5 267.5
t263.5 105.5q61 0 110 -16t84 -32t62 -16q77 0 77 71q0 29 -15 57z" />
    <glyph glyph-name="ohorn" unicode="&#x1a1;" horiz-adv-x="611" 
d="M304 434q-86 0 -138.5 -58t-52.5 -143t52.5 -143t138.5 -58t139 57.5t53 143.5t-53 143.5t-139 57.5zM617 507q0 -48 -26 -75.5t-74 -32.5h-27q61 -67 61 -166q0 -107 -69.5 -176.5t-177.5 -69.5t-177 69.5t-69 176.5t69 176t177 69q51 0 107.5 -21t82.5 -21q77 0 77 71
q0 29 -15 57l47 13q14 -31 14 -70z" />
    <glyph glyph-name="Uhorn" unicode="&#x1af;" horiz-adv-x="717" 
d="M743 779q0 -53 -31 -81t-87 -28v-405q0 -53 -13 -100t-41.5 -90t-83 -68.5t-128.5 -25.5t-128.5 25.5t-83.5 68.5t-42 90t-13 100v443h55v-436q0 -46 10 -86t32.5 -76.5t66 -58t103.5 -21.5t103 21t65.5 57.5t32.5 76.5t10 87v436h49q78 0 78 71q0 29 -15 57l47 13
q14 -31 14 -70z" />
    <glyph glyph-name="uhorn" unicode="&#x1b0;" horiz-adv-x="586" 
d="M599 536q0 -52 -30.5 -80.5t-86.5 -28.5v-320q0 -57 5 -107h-51q-4 33 -4 94h-2q-21 -49 -67 -78t-100 -29q-87 0 -130.5 53.5t-43.5 140.5v284h52v-264q0 -170 133 -170q65 0 110.5 52.5t45.5 145.5v236h46q78 0 78 71q0 29 -15 57l47 13q13 -27 13 -70z" />
    <glyph glyph-name="clickdental" unicode="&#x1c0;" horiz-adv-x="222" 
d="M81 750h60v-1000h-60v1000z" />
    <glyph glyph-name="clicklateral" unicode="&#x1c1;" horiz-adv-x="444" 
d="M303 750h60v-1000h-60v1000zM81 750h60v-1000h-60v1000z" />
    <glyph glyph-name="clickretroflex" unicode="&#x1c3;" horiz-adv-x="328" 
d="M164 -6q-21 0 -34.5 14.5t-13.5 34.5q0 19 14 34t34 15t34 -15t14 -34q0 -20 -13.5 -34.5t-34.5 -14.5zM194 195h-60v513h60v-513z" />
    <glyph glyph-name="DZcaron" unicode="&#x1c4;" horiz-adv-x="1569" 
d="M309 652h-149v-599h149q154 0 238 88.5t84 211.5q0 78 -34 144.5t-109 110.5t-179 44zM329 0h-229v705h229q67 0 131 -22.5t117 -65t85.5 -111.5t32.5 -153q0 -85 -32.5 -154t-85.5 -111.5t-117 -65t-131 -22.5zM1292 0h-498v53l420 599h-409v53h481v-53l-419 -599h425
v-53zM1190 927l-100 -134h-74l-100 134h51l86 -113l86 113h51z" />
    <glyph glyph-name="Dzcaron" unicode="&#x1c5;" horiz-adv-x="1439" 
d="M309 655h-149v-602h149q104 0 179 44.5t109 111t34 145.5t-34 145.5t-109 111t-179 44.5zM329 0h-229v708h229q67 0 131 -22.5t117 -65t85.5 -112t32.5 -154.5t-32.5 -154.5t-85.5 -112t-117 -65t-131 -22.5zM1162 0h-368v41l285 377h-271v46h344v-41l-286 -375h296v-48z
M1125 687l-100 -135h-74l-100 135h51l86 -114l86 114h51z" />
    <glyph glyph-name="dzcaron" unicode="&#x1c6;" horiz-adv-x="1319" 
d="M305 430q-84 0 -133.5 -57t-49.5 -141q0 -85 49 -141t134 -56q81 0 133.5 56.5t52.5 140.5q0 85 -52.5 141.5t-133.5 56.5zM539 0h-56v80h-11q-30 -45 -76.5 -68.5t-97.5 -23.5q-105 0 -170.5 69.5t-65.5 174.5t65.5 174.5t170.5 69.5q51 0 97.5 -24.5t76.5 -70.5h11v375
h56v-756zM1042 0h-368v41l285 377h-271v45h344v-40l-286 -375h296v-48zM1005 686l-100 -134h-74l-100 134h51l86 -114l86 114h51z" />
    <glyph glyph-name="LJ" unicode="&#x1c7;" horiz-adv-x="1002" 
d="M490 0h-390v708h60v-655h330v-53zM725 -18q-72 0 -120.5 37.5t-62.5 98.5l55 15q11 -44 42 -71.5t78 -27.5q131 0 131 173v501h60v-506q0 -40 -8 -75t-27 -69.5t-57 -55t-91 -20.5z" />
    <glyph glyph-name="Lj" unicode="&#x1c8;" horiz-adv-x="761" 
d="M490 3h-390v705h60v-652h330v-53zM537 -240q-22 0 -47 5l8 46q16 -4 38 -4q43 0 57.5 27.5t14.5 79.5v551h56v-562q0 -143 -127 -143zM636 611q-16 0 -29 12.5t-13 29.5q0 18 13 30.5t29 12.5t29 -12.5t13 -30.5q0 -17 -13 -29.5t-29 -12.5z" />
    <glyph glyph-name="lj" unicode="&#x1c9;" horiz-adv-x="503" 
d="M279 -240q-22 0 -47 5l8 46q16 -4 38 -4q43 0 57.5 27.5t14.5 79.5v550h56v-561q0 -143 -127 -143zM154 3h-56v753h56v-753zM378 610q-16 0 -29 12.5t-13 30.5q0 17 13 29.5t29 12.5t29 -12.5t13 -29.5q0 -18 -13 -30.5t-29 -12.5z" />
    <glyph glyph-name="NJ" unicode="&#x1ca;" horiz-adv-x="1256" 
d="M664 0h-81l-412 620h-11v-620h-60v708h81l412 -613h11v613h60v-708zM979 -18q-72 0 -120.5 37.5t-62.5 98.5l55 15q11 -44 42 -71.5t78 -27.5q131 0 131 173v501h60v-506q0 -40 -8 -75t-27 -69.5t-57 -55t-91 -20.5z" />
    <glyph glyph-name="Nj" unicode="&#x1cb;" horiz-adv-x="1015" 
d="M664 3h-81l-412 617h-11v-617h-60v705h81l412 -611h11v611h60v-705zM791 -240q-22 0 -47 5l8 46q16 -4 38 -4q43 0 57.5 27.5t14.5 79.5v551h56v-562q0 -143 -127 -143zM890 611q-16 0 -29 12.5t-13 29.5q0 18 13 30.5t29 12.5t29 -12.5t13 -30.5q0 -17 -13 -29.5
t-29 -12.5z" />
    <glyph glyph-name="nj" unicode="&#x1cc;" horiz-adv-x="832" 
d="M489 3h-56v256q0 83 -30 128t-103 45q-61 0 -104.5 -50t-43.5 -142v-237h-56v364q0 50 -3 98h53q3 -38 3 -81h12q20 42 63.5 67.5t92.5 25.5q84 0 128 -50.5t44 -138.5v-285zM608 -240q-22 0 -47 5l8 46q16 -4 38 -4q43 0 57.5 27.5t14.5 79.5v551h56v-562
q0 -143 -127 -143zM707 611q-16 0 -29 12.5t-13 29.5q0 18 13 30.5t29 12.5t29 -12.5t13 -30.5q0 -17 -13 -29.5t-29 -12.5z" />
    <glyph glyph-name="Acaron" unicode="&#x1cd;" horiz-adv-x="700" 
d="M514 243l-165 403l-165 -403h330zM681 0h-67l-78 188h-374l-77 -188h-66l301 705h62zM487 927l-100 -134h-74l-100 134h51l86 -113l86 113h51z" />
    <glyph glyph-name="acaron" unicode="&#x1ce;" horiz-adv-x="534" 
d="M391 197v41h-26q-246 0 -246 -109q0 -50 34.5 -73t81.5 -23q72 0 114 47.5t42 116.5zM450 0h-49q-6 44 -6 78h-11q-33 -48 -72 -69t-95 -21q-61 0 -108.5 34.5t-47.5 103.5q0 41 18 70t45.5 45t73.5 25t88.5 11.5t104.5 2.5v21q0 129 -131 129q-81 0 -139 -53l-30 37
q65 62 176 62q78 0 127 -43t49 -124v-208q0 -52 7 -101zM393 699l-100 -134h-74l-100 134h51l86 -114l86 114h51z" />
    <glyph glyph-name="Icaron" unicode="&#x1cf;" horiz-adv-x="260" 
d="M160 0h-60v705h60v-705zM267 927l-100 -134h-74l-100 134h51l86 -113l86 113h51z" />
    <glyph glyph-name="icaron" unicode="&#x1d0;" horiz-adv-x="250" 
d="M153 0h-56v464h56v-464zM262 687l-100 -134h-74l-100 134h51l86 -114l86 114h51z" />
    <glyph glyph-name="Ocaron" unicode="&#x1d1;" horiz-adv-x="850" 
d="M425 672q-135 0 -217 -93.5t-82 -225.5q0 -133 82 -225.5t217 -92.5t217 92.5t82 225.5q0 132 -82 225.5t-217 93.5zM425 -18q-156 0 -259.5 105t-103.5 266q0 160 103.5 265t259.5 105t259.5 -105t103.5 -265q0 -161 -103.5 -266t-259.5 -105zM562 945l-100 -134h-74
l-100 134h51l86 -113l86 113h51z" />
    <glyph glyph-name="ocaron" unicode="&#x1d2;" horiz-adv-x="611" 
d="M305 430q-82 0 -132.5 -57t-50.5 -141t50.5 -140.5t132.5 -56.5q83 0 133.5 56.5t50.5 140.5t-50.5 141t-133.5 57zM305 -12q-106 0 -174.5 69.5t-68.5 174.5t68.5 174.5t174.5 69.5q107 0 175.5 -69t68.5 -175t-68.5 -175t-175.5 -69zM442 699l-100 -134h-74l-100 134
h51l86 -114l86 114h51z" />
    <glyph glyph-name="Ucaron" unicode="&#x1d3;" horiz-adv-x="710" 
d="M355 -18q-60 0 -106.5 18t-74.5 46.5t-46 66.5t-25 74.5t-7 74.5v443h60v-435q0 -100 48 -167.5t151 -67.5t151 67.5t48 167.5v435h60v-443q0 -38 -7 -74.5t-25 -74.5t-46 -66.5t-74.5 -46.5t-106.5 -18zM492 927l-100 -134h-74l-100 134h51l86 -113l86 113h51z" />
    <glyph glyph-name="ucaron" unicode="&#x1d4;" horiz-adv-x="581" 
d="M488 0h-53q-3 38 -3 82h-12q-20 -42 -63.5 -68t-92.5 -26q-84 0 -128 50.5t-44 139.5v286h56v-257q0 -83 30 -128t103 -45q62 0 105 50t43 142v238h56v-365q0 -51 3 -99zM427 687l-100 -134h-74l-100 134h51l86 -114l86 114h51z" />
    <glyph glyph-name="Udieresismacron" unicode="&#x1d5;" horiz-adv-x="710" 
d="M355 -18q-60 0 -106.5 18t-74.5 46t-46 66.5t-25 74.5t-7 74v443h60v-435q0 -99 48 -166.5t151 -67.5t151 67.5t48 166.5v435h60v-443q0 -38 -7 -74t-25 -74.5t-46 -66.5t-74.5 -46t-106.5 -18zM259 792q-20 0 -32.5 13.5t-12.5 32.5t12.5 32t32.5 13t32.5 -13t12.5 -32
t-12.5 -32.5t-32.5 -13.5zM451 792q-20 0 -32.5 13.5t-12.5 32.5t12.5 32t32.5 13t32.5 -13t12.5 -32t-12.5 -32.5t-32.5 -13.5zM484 972h-258v42h258v-42z" />
    <glyph glyph-name="udieresismacron" unicode="&#x1d6;" horiz-adv-x="581" 
d="M488 0h-53q-3 38 -3 81h-12q-20 -42 -63.5 -67.5t-92.5 -25.5q-84 0 -128 50.5t-44 139.5v285h56v-257q0 -82 30 -127t103 -45q62 0 105 50t43 142v237h56v-364q0 -51 3 -99zM194 552q-20 0 -32.5 13t-12.5 32t12.5 32.5t32.5 13.5t32.5 -13.5t12.5 -32.5t-12.5 -32
t-32.5 -13zM386 552q-20 0 -32.5 13t-12.5 32t12.5 32.5t32.5 13.5t32.5 -13.5t12.5 -32.5t-12.5 -32t-32.5 -13zM419 731h-258v43h258v-43z" />
    <glyph glyph-name="Udieresisacute" unicode="&#x1d7;" horiz-adv-x="710" 
d="M355 -18q-60 0 -106.5 18t-74.5 46t-46 66.5t-25 74.5t-7 74v443h60v-435q0 -99 48 -166.5t151 -67.5t151 67.5t48 166.5v435h60v-443q0 -38 -7 -74t-25 -74.5t-46 -66.5t-74.5 -46t-106.5 -18zM259 792q-20 0 -32.5 13t-12.5 32t12.5 32.5t32.5 13.5t32.5 -13.5
t12.5 -32.5t-12.5 -32t-32.5 -13zM451 792q-20 0 -32.5 13t-12.5 32t12.5 32.5t32.5 13.5t32.5 -13.5t12.5 -32.5t-12.5 -32t-32.5 -13zM497 1104l-121 -133h-45l92 133h74z" />
    <glyph glyph-name="udieresisacute" unicode="&#x1d8;" horiz-adv-x="581" 
d="M488 0h-53q-3 38 -3 81h-12q-20 -42 -63.5 -67.5t-92.5 -25.5q-84 0 -128 50.5t-44 139.5v284h56v-256q0 -82 30 -127t103 -45q62 0 105 49.5t43 141.5v237h56v-363q0 -51 3 -99zM194 551q-20 0 -32.5 13t-12.5 32t12.5 32.5t32.5 13.5t32.5 -13.5t12.5 -32.5t-12.5 -32
t-32.5 -13zM386 551q-20 0 -32.5 13t-12.5 32t12.5 32.5t32.5 13.5t32.5 -13.5t12.5 -32.5t-12.5 -32t-32.5 -13zM432 864l-121 -134h-45l92 134h74z" />
    <glyph glyph-name="Udieresiscaron" unicode="&#x1d9;" horiz-adv-x="710" 
d="M355 -18q-60 0 -106.5 18t-74.5 46t-46 66.5t-25 74.5t-7 74v443h60v-435q0 -99 48 -166.5t151 -67.5t151 67.5t48 166.5v435h60v-443q0 -38 -7 -74t-25 -74.5t-46 -66.5t-74.5 -46t-106.5 -18zM259 792q-20 0 -32.5 13t-12.5 32t12.5 32.5t32.5 13.5t32.5 -13.5
t12.5 -32.5t-12.5 -32t-32.5 -13zM451 792q-20 0 -32.5 13t-12.5 32t12.5 32.5t32.5 13.5t32.5 -13.5t12.5 -32.5t-12.5 -32t-32.5 -13zM492 1104l-100 -133h-74l-100 133h51l86 -113l86 113h51z" />
    <glyph glyph-name="udieresiscaron" unicode="&#x1da;" horiz-adv-x="581" 
d="M488 0h-53q-3 38 -3 81h-12q-20 -42 -63.5 -67.5t-92.5 -25.5q-84 0 -128 50.5t-44 139.5v284h56v-256q0 -82 30 -127t103 -45q62 0 105 49.5t43 141.5v237h56v-363q0 -51 3 -99zM194 551q-20 0 -32.5 13t-12.5 32t12.5 32.5t32.5 13.5t32.5 -13.5t12.5 -32.5t-12.5 -32
t-32.5 -13zM386 551q-20 0 -32.5 13t-12.5 32t12.5 32.5t32.5 13.5t32.5 -13.5t12.5 -32.5t-12.5 -32t-32.5 -13zM427 864l-100 -134h-74l-100 134h51l86 -113l86 113h51z" />
    <glyph glyph-name="Udieresisgrave" unicode="&#x1db;" horiz-adv-x="710" 
d="M355 -18q-60 0 -106.5 18t-74.5 46t-46 66.5t-25 74.5t-7 74v443h60v-435q0 -99 48 -166.5t151 -67.5t151 67.5t48 166.5v435h60v-443q0 -38 -7 -74t-25 -74.5t-46 -66.5t-74.5 -46t-106.5 -18zM259 792q-20 0 -32.5 13t-12.5 32t12.5 32.5t32.5 13.5t32.5 -13.5
t12.5 -32.5t-12.5 -32t-32.5 -13zM451 792q-20 0 -32.5 13t-12.5 32t12.5 32.5t32.5 13.5t32.5 -13.5t12.5 -32.5t-12.5 -32t-32.5 -13zM372 971h-45l-121 133h74z" />
    <glyph glyph-name="udieresisgrave" unicode="&#x1dc;" horiz-adv-x="581" 
d="M488 0h-53q-3 38 -3 81h-12q-20 -42 -63.5 -67.5t-92.5 -25.5q-84 0 -128 50.5t-44 139.5v284h56v-256q0 -82 30 -127t103 -45q62 0 105 49.5t43 141.5v237h56v-363q0 -51 3 -99zM194 551q-20 0 -32.5 13t-12.5 32t12.5 32.5t32.5 13.5t32.5 -13.5t12.5 -32.5t-12.5 -32
t-32.5 -13zM386 551q-20 0 -32.5 13t-12.5 32t12.5 32.5t32.5 13.5t32.5 -13.5t12.5 -32.5t-12.5 -32t-32.5 -13zM325 730h-45l-121 134h74z" />
    <glyph glyph-name="Adieresismacron" unicode="&#x1de;" horiz-adv-x="700" 
d="M514 243l-165 402l-165 -402h330zM681 0h-67l-78 188h-374l-77 -188h-66l301 704h62zM254 792q-20 0 -32.5 13.5t-12.5 32.5t12.5 32t32.5 13t32.5 -13t12.5 -32t-12.5 -32.5t-32.5 -13.5zM446 792q-20 0 -32.5 13.5t-12.5 32.5t12.5 32t32.5 13t32.5 -13t12.5 -32
t-12.5 -32.5t-32.5 -13.5zM479 971h-258v43h258v-43z" />
    <glyph glyph-name="adieresismacron" unicode="&#x1df;" horiz-adv-x="534" 
d="M391 196v42h-26q-246 0 -246 -109q0 -50 34.5 -73t81.5 -23q72 0 114 47.5t42 115.5zM450 0h-49q-6 44 -6 77h-11q-33 -48 -72 -68.5t-95 -20.5q-61 0 -108.5 34.5t-47.5 103.5q0 34 11.5 59.5t35 42t50.5 27t68 15.5t77.5 7t87.5 2v22q0 129 -131 129q-81 0 -139 -53
l-30 36q65 62 176 62q78 0 127 -42.5t49 -123.5v-208q0 -52 7 -101zM160 564q-20 0 -32.5 13t-12.5 32t12.5 32.5t32.5 13.5t32.5 -13.5t12.5 -32.5t-12.5 -32t-32.5 -13zM352 564q-20 0 -32.5 13t-12.5 32t12.5 32.5t32.5 13.5t32.5 -13.5t12.5 -32.5t-12.5 -32t-32.5 -13z
M385 743h-258v43h258v-43z" />
    <glyph glyph-name="Adotmacron" unicode="&#x1e0;" horiz-adv-x="700" 
d="M514 243l-165 402l-165 -402h330zM681 0h-67l-78 188h-374l-77 -188h-66l301 704h62zM350 792q-16 0 -29 12.5t-13 30.5t13 30t29 12t29 -12t13 -30t-13 -30.5t-29 -12.5zM479 965h-258v43h258v-43z" />
    <glyph glyph-name="adotmacron" unicode="&#x1e1;" horiz-adv-x="534" 
d="M391 196v42h-26q-246 0 -246 -109q0 -50 34.5 -73t81.5 -23q72 0 114 47.5t42 115.5zM450 0h-49q-6 44 -6 77h-11q-33 -48 -72 -68.5t-95 -20.5q-61 0 -108.5 34.5t-47.5 103.5q0 34 11.5 59.5t35 42t50.5 27t68 15.5t77.5 7t87.5 2v22q0 129 -131 129q-81 0 -139 -53
l-30 36q65 62 176 62q78 0 127 -42.5t49 -123.5v-208q0 -52 7 -101zM256 564q-16 0 -29 12t-13 30t13 30.5t29 12.5t29 -12.5t13 -30.5t-13 -30t-29 -12zM385 737h-258v43h258v-43z" />
    <glyph glyph-name="AEmacron" unicode="&#x1e2;" horiz-adv-x="990" 
d="M525 253v400h-23l-255 -400h278zM930 0h-405v201h-307l-128 -201h-68l453 706h443v-53h-333v-259h309v-52h-309v-289h345v-53zM862 794h-258v43h258v-43z" />
    <glyph glyph-name="aemacron" unicode="&#x1e3;" horiz-adv-x="870" 
d="M386 180v40h-26q-43 0 -71 -1t-63 -6.5t-56 -15.5t-35.5 -28.5t-14.5 -45.5q0 -91 117 -91q73 0 111 40t38 108zM601 432q-64 0 -111.5 -50.5t-49.5 -118.5h311q0 76 -40 122.5t-110 46.5zM808 220h-371q2 -79 50 -132.5t119 -53.5q47 0 85 22.5t60 56.5l39 -31
q-70 -94 -184 -94q-133 0 -186 120q-51 -120 -195 -120q-67 0 -115 33t-48 101q0 46 25 75.5t75 43t100 18t124 4.5v22q0 66 -32.5 106.5t-93.5 40.5q-82 0 -143 -54l-32 36q70 63 185 63q113 0 153 -107q64 107 178 107q98 0 152.5 -65t54.5 -165v-27zM564 566h-258v43h258
v-43z" />
    <glyph glyph-name="Gcaron" unicode="&#x1e6;" horiz-adv-x="779" 
d="M425 -18q-158 0 -260.5 105t-102.5 266q0 160 103.5 265t259.5 105q155 0 247 -90l-41 -42q-79 81 -205 81q-134 0 -217 -93.5t-83 -225.5t82.5 -225t217.5 -93q124 0 197 49v227h-165v52h225v-314q-112 -67 -258 -67zM569 945l-100 -134h-74l-100 134h51l86 -113l86 113
h51z" />
    <glyph glyph-name="gcaron" unicode="&#x1e7;" horiz-adv-x="632" 
d="M305 432q-84 0 -133.5 -56t-49.5 -136t49.5 -135t133.5 -55q81 0 133.5 52.5t52.5 137.5q0 78 -53.5 135t-132.5 57zM291 -240q-130 0 -217 89l41 44q30 -37 78.5 -60.5t100.5 -23.5q97 0 143 53.5t46 138.5v95h-11q-27 -44 -75 -68.5t-99 -24.5q-106 0 -171 66t-65 169
q0 101 66 170t170 69q52 0 99 -24.5t75 -69.5h11v82h56v-464q0 -42 -11 -80.5t-36.5 -76.5t-77 -61t-123.5 -23zM437 699l-100 -134h-74l-100 134h51l86 -113l86 113h51z" />
    <glyph glyph-name="Kcaron" unicode="&#x1e8;" horiz-adv-x="628" 
d="M613 0h-89l-354 382h-10v-382h-60v705h60v-322h9l337 322h85l-350 -319zM457 927l-100 -134h-74l-100 134h51l86 -113l86 113h51z" />
    <glyph glyph-name="kcaron" unicode="&#x1e9;" horiz-adv-x="510" 
d="M486 0h-82l-238 249h-12v-1v-248h-56v753h56v-504v-1h11l216 214h80l-229 -211zM268 975l-100 -134h-74l-100 134h51l86 -113l86 113h51z" />
    <glyph glyph-name="Oogonek" unicode="&#x1ea;" horiz-adv-x="850" 
d="M425 674q-135 0 -217 -93t-82 -226q0 -132 82 -225t217 -93t217 93t82 225q0 133 -82 226t-217 93zM465 -13q-76 -78 -76 -131q0 -23 16.5 -38.5t39.5 -15.5q29 0 49 17l14 -28q-35 -32 -83 -32q-34 0 -59 22.5t-25 57.5q0 67 92 147q-164 2 -267.5 106t-103.5 263
q0 161 103.5 266t259.5 105t259.5 -105t103.5 -266q0 -148 -91 -251t-232 -117z" />
    <glyph glyph-name="oogonek" unicode="&#x1eb;" horiz-adv-x="611" 
d="M305 434q-82 0 -132.5 -57.5t-50.5 -140.5q0 -84 50.5 -140.5t132.5 -56.5q83 0 133.5 56.5t50.5 140.5q0 83 -50.5 140.5t-133.5 57.5zM346 -5q-77 -80 -77 -132q0 -24 16.5 -39.5t39.5 -15.5q30 0 49 18l14 -29q-35 -32 -83 -32q-34 0 -59 22.5t-25 57.5q0 72 93 146
q-114 3 -183 72t-69 173q0 105 68.5 174.5t174.5 69.5q107 0 175.5 -69t68.5 -175q0 -94 -55.5 -160t-147.5 -81z" />
    <glyph glyph-name="Oogonekmacron" unicode="&#x1ec;" horiz-adv-x="850" 
d="M425 673q-135 0 -217 -93t-82 -225q0 -133 82 -225.5t217 -92.5t217 92.5t82 225.5q0 132 -82 225t-217 93zM465 -14q-76 -78 -76 -130q0 -24 16.5 -39.5t39.5 -15.5q28 0 49 18l14 -28q-34 -32 -83 -32q-34 0 -59 22.5t-25 57.5q0 68 92 146q-164 2 -267.5 106.5
t-103.5 263.5q0 160 103.5 265t259.5 105t259.5 -105t103.5 -265q0 -148 -91 -251.5t-232 -117.5zM554 813h-258v42h258v-42z" />
    <glyph glyph-name="oogonekmacron" unicode="&#x1ed;" horiz-adv-x="611" 
d="M305 432q-82 0 -132.5 -57t-50.5 -140q0 -84 50.5 -140.5t132.5 -56.5q83 0 133.5 56.5t50.5 140.5q0 83 -50.5 140t-133.5 57zM346 -5q-77 -80 -77 -133q0 -23 16.5 -38.5t39.5 -15.5q30 0 49 18l14 -29q-35 -32 -83 -32q-34 0 -59 22.5t-25 57.5q0 71 93 146
q-114 2 -183 71t-69 173q0 105 68.5 174t174.5 69q107 0 175.5 -69t68.5 -174q0 -94 -56 -160t-147 -80zM434 566h-258v43h258v-43z" />
    <glyph glyph-name="DZ" unicode="&#x1f1;" horiz-adv-x="1329" 
d="M309 655h-149v-602h149q104 0 179 44.5t109 111t34 145.5t-34 145.5t-109 111t-179 44.5zM329 0h-229v708h229q67 0 131 -22.5t117 -65t85.5 -112t32.5 -154.5t-32.5 -154.5t-85.5 -112t-117 -65t-131 -22.5zM1292 0h-498v53l420 602h-409v53h481v-53l-419 -602h425v-53z
" />
    <glyph glyph-name="Dz" unicode="&#x1f2;" horiz-adv-x="1199" 
d="M309 655h-149v-602h149q104 0 179 44.5t109 111t34 145.5t-34 145.5t-109 111t-179 44.5zM329 0h-229v708h229q67 0 131 -22.5t117 -65t85.5 -112t32.5 -154.5t-32.5 -154.5t-85.5 -112t-117 -65t-131 -22.5zM1162 0h-368v41l285 377h-271v46h344v-41l-286 -375h296v-48z
" />
    <glyph glyph-name="dz" unicode="&#x1f3;" horiz-adv-x="1079" 
d="M305 430q-84 0 -133.5 -57t-49.5 -141q0 -85 49 -141t134 -56q81 0 133.5 56.5t52.5 140.5q0 85 -52.5 141.5t-133.5 56.5zM539 0h-56v80h-11q-30 -45 -76.5 -68.5t-97.5 -23.5q-105 0 -170.5 69.5t-65.5 174.5t65.5 174.5t170.5 69.5q51 0 97.5 -24.5t76.5 -70.5h11v375
h56v-756zM1042 0h-368v41l285 377h-271v45h344v-40l-286 -375h296v-48z" />
    <glyph glyph-name="Gacute" unicode="&#x1f4;" horiz-adv-x="779" 
d="M425 -18q-158 0 -260.5 105t-102.5 266q0 160 103.5 265t259.5 105q155 0 247 -90l-41 -42q-79 81 -205 81q-134 0 -217 -93.5t-83 -225.5t82.5 -225t217.5 -93q124 0 197 49v227h-165v52h225v-314q-112 -67 -258 -67zM554 945l-121 -134h-45l92 134h74z" />
    <glyph glyph-name="gacute" unicode="&#x1f5;" horiz-adv-x="632" 
d="M305 432q-84 0 -133.5 -56t-49.5 -136t49.5 -135t133.5 -55q81 0 133.5 52.5t52.5 137.5q0 78 -53.5 135t-132.5 57zM291 -240q-130 0 -217 89l41 44q30 -37 78.5 -60.5t100.5 -23.5q97 0 143 53.5t46 138.5v95h-11q-27 -44 -75 -68.5t-99 -24.5q-106 0 -171 66t-65 169
q0 101 66 170t170 69q52 0 99 -24.5t75 -69.5h11v82h56v-464q0 -42 -11 -80.5t-36.5 -76.5t-77 -61t-123.5 -23zM412 699l-121 -134h-45l92 134h74z" />
    <glyph glyph-name="Aringacute" unicode="&#x1fa;" horiz-adv-x="700" 
d="M514 242l-165 402l-165 -402h330zM350 947q-27 0 -46.5 -19t-19.5 -47t19.5 -47t46.5 -19t46.5 19t19.5 47t-19.5 47t-46.5 19zM681 0h-67l-78 188h-374l-77 -188h-66l301 703h62zM350 791q-37 0 -63.5 26t-26.5 64q0 37 26.5 63.5t63.5 26.5t63.5 -26.5t26.5 -63.5
q0 -38 -26.5 -64t-63.5 -26zM432 1192l-121 -133h-45l92 133h74z" />
    <glyph glyph-name="aringacute" unicode="&#x1fb;" horiz-adv-x="534" 
d="M391 196v41h-26q-246 0 -246 -108q0 -50 34.5 -73t81.5 -23q72 0 114 47.5t42 115.5zM256 718q-27 0 -46.5 -19t-19.5 -47t19.5 -47t46.5 -19t46.5 19t19.5 47t-19.5 47t-46.5 19zM450 0h-49q-6 44 -6 77h-11q-33 -48 -72 -68.5t-95 -20.5q-61 0 -108.5 34.5t-47.5 103.5
q0 34 11.5 59.5t34.5 41.5t50.5 27t68 16t78 7t87.5 2v21q0 63 -33.5 95.5t-97.5 32.5q-82 0 -139 -52l-30 36q65 62 176 62q78 0 127 -42.5t49 -123.5v-208q0 -51 7 -100zM256 562q-37 0 -63.5 26t-26.5 64q0 37 26.5 63.5t63.5 26.5t63.5 -26.5t26.5 -63.5
q0 -38 -26.5 -64t-63.5 -26zM338 964l-121 -134h-45l92 134h74z" />
    <glyph glyph-name="AEacute" unicode="&#x1fc;" horiz-adv-x="990" 
d="M525 252v400h-23l-255 -400h278zM930 0h-405v201h-307l-128 -201h-68l453 705h443v-53h-333v-259h309v-52h-309v-288h345v-53zM845 927l-121 -134h-45l92 134h74z" />
    <glyph glyph-name="aeacute" unicode="&#x1fd;" horiz-adv-x="870" 
d="M386 179v41h-26q-54 0 -88.5 -2.5t-73.5 -11.5t-58.5 -30t-19.5 -54q0 -90 117 -90q73 0 111 39.5t38 107.5zM601 430q-64 0 -111.5 -49.5t-49.5 -117.5h311q0 75 -40 121t-110 46zM808 220h-371q2 -79 50 -132.5t119 -53.5q48 0 85.5 22t59.5 57l39 -31
q-70 -94 -184 -94q-133 0 -186 120q-51 -120 -195 -120q-67 0 -115 33t-48 100q0 37 18 63.5t46 41.5t73.5 23.5t87 11t99.5 2.5v21q0 66 -32 106t-94 40q-83 0 -143 -53l-32 36q70 63 185 63q113 0 153 -107q64 107 178 107q98 0 152.5 -65t54.5 -165v-26zM597 699
l-121 -134h-45l92 134h74z" />
    <glyph glyph-name="Oslashacute" unicode="&#x1fe;" horiz-adv-x="850" 
d="M651 568l-424 -460q82 -73 198 -73q136 0 217.5 92.5t81.5 225.5q0 124 -73 215zM425 672q-136 0 -217.5 -93t-81.5 -226q0 -128 75 -216l424 460q-81 75 -200 75zM425 -18q-133 0 -237 84l-75 -82l-29 27l76 82q-98 106 -98 260q0 160 103.5 265t259.5 105
q133 0 237 -84l75 82l29 -26l-76 -83q98 -106 98 -259q0 -161 -103.5 -266t-259.5 -105zM537 945l-121 -134h-45l92 134h74z" />
    <glyph glyph-name="oslashacute" unicode="&#x1ff;" horiz-adv-x="611" 
d="M450 360l-271 -283q57 -45 124 -45q85 0 137 57.5t52 142.5q0 78 -42 128zM305 432q-84 0 -135 -57t-51 -143q0 -79 40 -129l270 283q-45 46 -124 46zM553 467l-66 -69q62 -72 62 -166q0 -106 -69 -175t-176 -69q-89 0 -157 55l-67 -69l-24 24l66 68q-60 72 -60 166
q0 105 68.5 174.5t173.5 69.5q88 0 160 -55l65 69zM426 715l-121 -134h-45l92 134h74z" />
    <glyph glyph-name="Adblgrave" unicode="&#x200;" horiz-adv-x="700" 
d="M514 243l-165 403l-165 -403h330zM681 0h-67l-78 188h-374l-77 -188h-66l301 705h62zM288 793h-45l-121 134h74zM442 793h-45l-121 134h74z" />
    <glyph glyph-name="adblgrave" unicode="&#x201;" horiz-adv-x="534" 
d="M391 197v41h-26q-246 0 -246 -109q0 -50 34.5 -73t81.5 -23q72 0 114 47.5t42 116.5zM450 0h-49q-6 44 -6 78h-11q-33 -48 -72 -69t-95 -21q-61 0 -108.5 34.5t-47.5 103.5q0 41 18 70t45.5 45t73.5 25t88.5 11.5t104.5 2.5v21q0 129 -131 129q-81 0 -139 -53l-30 37
q65 62 176 62q78 0 127 -43t49 -124v-208q0 -52 7 -101zM204 565h-45l-121 134h74zM358 565h-45l-121 134h74z" />
    <glyph glyph-name="Ainvertedbreve" unicode="&#x202;" horiz-adv-x="700" 
d="M514 243l-165 403l-165 -403h330zM681 0h-67l-78 188h-374l-77 -188h-66l301 705h62zM491 793h-33q-9 38 -38.5 58.5t-69.5 20.5t-69.5 -20.5t-38.5 -58.5h-33q6 58 44 90t97 32t97 -32t44 -90z" />
    <glyph glyph-name="ainvertedbreve" unicode="&#x203;" horiz-adv-x="534" 
d="M391 197v41h-26q-246 0 -246 -109q0 -50 34.5 -73t81.5 -23q72 0 114 47.5t42 116.5zM450 0h-49q-6 44 -6 78h-11q-33 -48 -72 -69t-95 -21q-61 0 -108.5 34.5t-47.5 103.5q0 41 18 70t45.5 45t73.5 25t88.5 11.5t104.5 2.5v21q0 64 -34 97t-97 33q-82 0 -139 -54l-30 37
q65 62 176 62q78 0 127 -42.5t49 -123.5v-209q0 -52 7 -101zM397 565h-33q-9 38 -38.5 58.5t-69.5 20.5t-69.5 -20.5t-38.5 -58.5h-33q6 58 44 90t97 32t97 -32t44 -90z" />
    <glyph glyph-name="Edblgrave" unicode="&#x204;" horiz-adv-x="592" 
d="M539 0h-439v705h427v-53h-367v-259h343v-52h-343v-288h379v-53zM267 793h-45l-121 134h74zM421 793h-45l-121 134h74z" />
    <glyph glyph-name="edblgrave" unicode="&#x205;" horiz-adv-x="572" 
d="M292 430q-69 0 -117.5 -49t-52.5 -118h331q-3 76 -45 121.5t-116 45.5zM509 220h-388q2 -79 52 -132t125 -53q50 0 89 22t62 57l42 -32q-76 -94 -193 -94q-102 0 -169 69.5t-67 174.5q0 104 66.5 174t163.5 70q103 0 160.5 -65t57.5 -165q0 -16 -1 -26zM254 565h-45
l-121 134h74zM408 565h-45l-121 134h74z" />
    <glyph glyph-name="Einvertedbreve" unicode="&#x206;" horiz-adv-x="592" 
d="M539 0h-439v705h427v-52h-367v-260h343v-52h-343v-288h379v-53zM460 793h-33q-9 38 -38.5 58.5t-69.5 20.5t-69.5 -20.5t-38.5 -58.5h-33q6 58 44 90t97 32t97 -32t44 -90z" />
    <glyph glyph-name="einvertedbreve" unicode="&#x207;" horiz-adv-x="572" 
d="M292 431q-69 0 -117.5 -49t-52.5 -119h331q-3 76 -45 122t-116 46zM509 220h-388q2 -79 52 -132t125 -53q50 0 89 22t62 57l42 -32q-76 -94 -193 -94q-102 0 -169 69.5t-67 174.5q0 104 66.5 174t163.5 70q103 0 160.5 -65t57.5 -165q0 -16 -1 -26zM427 565h-33
q-9 38 -38.5 58.5t-69.5 20.5t-69.5 -20.5t-38.5 -58.5h-33q6 58 44 90t97 32t97 -32t44 -90z" />
    <glyph glyph-name="Idblgrave" unicode="&#x208;" horiz-adv-x="260" 
d="M160 0h-60v705h60v-705zM88 793h-45l-121 134h74zM242 793h-45l-121 134h74z" />
    <glyph glyph-name="idblgrave" unicode="&#x209;" horiz-adv-x="250" 
d="M153 0h-56v464h56v-464zM93 553h-45l-121 134h74zM247 553h-45l-121 134h74z" />
    <glyph glyph-name="Iinvertedbreve" unicode="&#x20a;" horiz-adv-x="260" 
d="M160 0h-60v705h60v-705zM271 793h-33q-9 38 -38.5 58.5t-69.5 20.5t-69.5 -20.5t-38.5 -58.5h-33q6 58 44 90t97 32t97 -32t44 -90z" />
    <glyph glyph-name="iinvertedbreve" unicode="&#x20b;" horiz-adv-x="250" 
d="M153 0h-56v464h56v-464zM266 553h-33q-9 38 -38.5 58.5t-69.5 20.5t-69.5 -20.5t-38.5 -58.5h-33q6 58 44 90t97 32t97 -32t44 -90z" />
    <glyph glyph-name="Odblgrave" unicode="&#x20c;" horiz-adv-x="850" 
d="M425 672q-135 0 -217 -93.5t-82 -225.5q0 -133 82 -225.5t217 -92.5t217 92.5t82 225.5q0 132 -82 225.5t-217 93.5zM425 -18q-156 0 -259.5 105t-103.5 266q0 160 103.5 265t259.5 105t259.5 -105t103.5 -265q0 -161 -103.5 -266t-259.5 -105zM403 811h-45l-121 134h74z
M557 811h-45l-121 134h74z" />
    <glyph glyph-name="odblgrave" unicode="&#x20d;" horiz-adv-x="611" 
d="M305 430q-82 0 -132.5 -57t-50.5 -141t50.5 -140.5t132.5 -56.5q83 0 133.5 56.5t50.5 140.5t-50.5 141t-133.5 57zM305 -12q-106 0 -174.5 69.5t-68.5 174.5t68.5 174.5t174.5 69.5q107 0 175.5 -69t68.5 -175t-68.5 -175t-175.5 -69zM283 565h-45l-121 134h74zM437 565
h-45l-121 134h74z" />
    <glyph glyph-name="Oinvertedbreve" unicode="&#x20e;" horiz-adv-x="850" 
d="M425 672q-135 0 -217 -93.5t-82 -225.5q0 -133 82 -225.5t217 -92.5t217 92.5t82 225.5q0 132 -82 225.5t-217 93.5zM425 -18q-156 0 -259.5 105t-103.5 266q0 160 103.5 265t259.5 105t259.5 -105t103.5 -265q0 -161 -103.5 -266t-259.5 -105zM566 811h-33
q-9 38 -38.5 58.5t-69.5 20.5t-69.5 -20.5t-38.5 -58.5h-33q6 58 44 90t97 32t97 -32t44 -90z" />
    <glyph glyph-name="oinvertedbreve" unicode="&#x20f;" horiz-adv-x="611" 
d="M305 431q-82 0 -132.5 -57.5t-50.5 -141.5t50.5 -140.5t132.5 -56.5q83 0 133.5 56.5t50.5 140.5t-50.5 141.5t-133.5 57.5zM305 -12q-106 0 -174.5 69.5t-68.5 174.5t68.5 174.5t174.5 69.5q107 0 175.5 -69t68.5 -175t-68.5 -175t-175.5 -69zM446 565h-33
q-9 38 -38.5 58.5t-69.5 20.5t-69.5 -20.5t-38.5 -58.5h-33q6 58 44 90t97 32t97 -32t44 -90z" />
    <glyph glyph-name="Rdblgrave" unicode="&#x210;" horiz-adv-x="599" 
d="M294 654h-134v-268h131q90 0 138.5 33.5t48.5 100.5q0 134 -184 134zM559 0h-74l-196 335h-129v-335h-60v705h202q236 0 236 -185q0 -76 -50.5 -123.5t-134.5 -56.5zM240 793h-45l-121 134h74zM394 793h-45l-121 134h74z" />
    <glyph glyph-name="rdblgrave" unicode="&#x211;" horiz-adv-x="360" 
d="M345 473l-7 -53q-22 4 -43 4q-62 0 -102.5 -47t-40.5 -139v-238h-56v365q0 51 -3 99h53q3 -38 3 -81h12q20 43 59 68t87 25q20 0 38 -3zM177 565h-45l-121 134h74zM331 565h-45l-121 134h74z" />
    <glyph glyph-name="Rinvertedbreve" unicode="&#x212;" horiz-adv-x="599" 
d="M294 655h-134v-269h131q90 0 138.5 33.5t48.5 100.5q0 135 -184 135zM559 0h-74l-196 335h-129v-335h-60v705h202q236 0 236 -185q0 -76 -50.5 -123.5t-134.5 -56.5zM433 793h-33q-9 38 -38.5 58.5t-69.5 20.5t-69.5 -20.5t-38.5 -58.5h-33q6 58 44 90t97 32t97 -32
t44 -90z" />
    <glyph glyph-name="rinvertedbreve" unicode="&#x213;" horiz-adv-x="360" 
d="M345 473l-7 -53q-22 4 -43 4q-62 0 -102.5 -47t-40.5 -139v-238h-56v365q0 51 -3 99h53q3 -38 3 -81h12q20 43 59 68t87 25q26 0 38 -3zM360 565h-33q-9 38 -38.5 58.5t-69.5 20.5t-69.5 -20.5t-38.5 -58.5h-33q6 58 44 90t97 32t97 -32t44 -90z" />
    <glyph glyph-name="Udblgrave" unicode="&#x214;" horiz-adv-x="710" 
d="M355 -18q-60 0 -106.5 18t-74.5 46.5t-46 66.5t-25 74.5t-7 74.5v443h60v-435q0 -100 48 -167.5t151 -67.5t151 67.5t48 167.5v435h60v-443q0 -38 -7 -74.5t-25 -74.5t-46 -66.5t-74.5 -46.5t-106.5 -18zM303 793h-45l-121 134h74zM457 793h-45l-121 134h74z" />
    <glyph glyph-name="udblgrave" unicode="&#x215;" horiz-adv-x="581" 
d="M488 0h-53q-3 38 -3 82h-12q-20 -42 -63.5 -68t-92.5 -26q-84 0 -128 50.5t-44 139.5v286h56v-257q0 -83 30 -128t103 -45q62 0 105 50t43 142v238h56v-365q0 -51 3 -99zM238 553h-45l-121 134h74zM392 553h-45l-121 134h74z" />
    <glyph glyph-name="Uinvertedbreve" unicode="&#x216;" horiz-adv-x="710" 
d="M355 -18q-60 0 -106.5 18t-74.5 46.5t-46 66.5t-25 74.5t-7 74.5v443h60v-435q0 -100 48 -167.5t151 -67.5t151 67.5t48 167.5v435h60v-443q0 -38 -7 -74.5t-25 -74.5t-46 -66.5t-74.5 -46.5t-106.5 -18zM496 793h-33q-9 38 -38.5 58.5t-69.5 20.5t-69.5 -20.5
t-38.5 -58.5h-33q6 58 44 90t97 32t97 -32t44 -90z" />
    <glyph glyph-name="uinvertedbreve" unicode="&#x217;" horiz-adv-x="581" 
d="M488 0h-53q-3 38 -3 82h-12q-20 -42 -63.5 -68t-92.5 -26q-84 0 -128 50.5t-44 139.5v286h56v-257q0 -83 30 -128t103 -45q62 0 105 50t43 142v238h56v-365q0 -51 3 -99zM431 553h-33q-9 38 -38.5 58.5t-69.5 20.5t-69.5 -20.5t-38.5 -58.5h-33q6 58 44 90t97 32t97 -32
t44 -90z" />
    <glyph glyph-name="Scommaaccent" unicode="&#x218;" horiz-adv-x="566" 
d="M275 -45h55l-70 -185h-43zM502 181q0 -96 -66.5 -148t-159.5 -52q-66 0 -124 26t-95 73l47 36q62 -87 173 -87q67 0 118 39.5t51 108.5q0 29 -11 53t-25 39t-41.5 29t-46.5 21t-55 18q-45 14 -74 27.5t-59 35.5t-45 56t-15 79q0 91 67 141.5t156 50.5q64 0 114.5 -23
t79.5 -61l-43 -35q-56 72 -153 72q-66 0 -116 -37.5t-50 -106.5q0 -28 10 -50.5t22.5 -36.5t37.5 -27.5t42 -19.5l49 -17q41 -13 64 -21.5t55.5 -26t49.5 -36.5t30 -50t13 -70z" />
    <glyph glyph-name="scommaaccent" unicode="&#x219;" horiz-adv-x="434" 
d="M205 -45h55l-70 -185h-44zM386 129q0 -70 -49 -105.5t-118 -35.5q-117 0 -177 86l42 31q45 -72 135 -72q49 0 82 23t33 69q0 41 -34 61t-107 38q-28 7 -46.5 14t-40 21t-32.5 36t-11 53q0 63 46 96.5t112 33.5q49 0 91 -20.5t65 -57.5l-40 -30q-38 64 -118 64
q-42 0 -74 -20.5t-32 -61.5q0 -39 27.5 -57.5t91.5 -32.5q77 -17 115.5 -47.5t38.5 -85.5z" />
    <glyph glyph-name="uni021A" unicode="&#x21a;" horiz-adv-x="560" 
d="M269 -45h55l-70 -185h-44zM546 708v-49h-239v-659h-55v659h-238v49h532z" />
    <glyph glyph-name="uni021B" unicode="&#x21b;" horiz-adv-x="313" 
d="M183 -45h55l-70 -185h-44zM291 50l3 -45q-34 -13 -73 -13q-49 0 -81.5 28.5t-32.5 90.5v310h-98v44h98v133h53v-133h133v-44h-133v-298q0 -47 19 -66.5t56 -19.5q27 0 56 13z" />
    <glyph glyph-name="dotlessj" unicode="&#x237;" horiz-adv-x="243" 
d="M148 465v-559q0 -68 -28 -107t-98 -39q-29 0 -46 5l8 44q20 -5 37 -5q45 0 59.5 27.5t14.5 80.5v553h53z" />
    <glyph glyph-name="commaturnedmod" unicode="&#x2bb;" horiz-adv-x="222" 
d="M172 708l-64 -235h-58l77 235h45z" />
    <glyph glyph-name="afii57929" unicode="&#x2bc;" horiz-adv-x="222" 
d="M172 708l-77 -235h-45l64 235h58z" />
    <glyph glyph-name="circumflex" unicode="&#x2c6;" 
d="M151 708l107 -144h-51l-87 116l-87 -116h-51l107 144h62z" />
    <glyph glyph-name="caron" unicode="&#x2c7;" 
d="M207 708h51l-107 -144h-62l-107 144h51l87 -116z" />
    <glyph glyph-name="uni02C9" unicode="&#x2c9;" 
d="M249 850v-43h-258v43h258z" />
    <glyph glyph-name="breve" unicode="&#x2d8;" 
d="M224 705h36q-6 -62 -44 -96t-97 -34t-96.5 34.5t-42.5 95.5h36q7 -42 35 -65t68 -23q89 0 105 88z" />
    <glyph glyph-name="dotaccent" unicode="&#x2d9;" 
d="M120 692q16 0 28 -11.5t12 -28.5t-12 -29t-28 -12t-28 12t-12 29t12 28.5t28 11.5z" />
    <glyph glyph-name="ring" unicode="&#x2da;" 
d="M186 650q0 27 -19.5 46t-46.5 19t-46.5 -19t-19.5 -46t19.5 -46t46.5 -19t46.5 19t19.5 46zM216 650q0 -40 -28.5 -67.5t-67.5 -27.5t-67.5 27.5t-28.5 67.5q0 39 28.5 67t67.5 28t67.5 -28t28.5 -67z" />
    <glyph glyph-name="ogonek" unicode="&#x2db;" 
d="M193 -157l16 -32q-37 -34 -88 -34q-37 0 -62.5 23t-25.5 60q0 60 90 140h40q-45 -45 -64 -72.5t-19 -55.5q0 -24 16 -38.5t40 -14.5q36 0 57 24z" />
    <glyph glyph-name="tilde" unicode="&#x2dc;" 
d="M233 677h34q-6 -41 -26 -66.5t-54 -25.5q-30 0 -70 23q-43 24 -64 24q-35 0 -46 -51h-34q6 41 26 67t54 26q27 0 70 -23q42 -24 64 -24q35 0 46 50z" />
    <glyph glyph-name="hungarumlaut" unicode="&#x2dd;" 
d="M75 708h70l-126 -144h-45zM227 708h70l-125 -144h-46z" />
    <glyph glyph-name="uni02EE" unicode="&#x2ee;" horiz-adv-x="387" 
d="M172 708l-77 -235h-45l64 235h58zM337 708l-77 -235h-45l64 235h58z" />
    <glyph glyph-name="gravecmb" unicode="&#x300;" horiz-adv-x="0" 
d="M-171 708l101 -144h-45l-125 144h69z" />
    <glyph glyph-name="acutecmb" unicode="&#x301;" horiz-adv-x="0" 
d="M-139 708h69l-125 -144h-45z" />
    <glyph glyph-name="circumflexcmb" unicode="&#x302;" horiz-adv-x="0" 
d="M-71 708l107 -144h-51l-87 116l-87 -116h-51l107 144h62z" />
    <glyph glyph-name="tildecmb" unicode="&#x303;" horiz-adv-x="0" 
d="M20 677h34q-6 -41 -26 -66.5t-54 -25.5q-30 0 -70 23q-43 24 -64 24q-35 0 -46 -51h-34q6 41 26 67t54 26q27 0 70 -23q42 -24 64 -24q35 0 46 50z" />
    <glyph glyph-name="macroncmb" unicode="&#x304;" horiz-adv-x="0" 
d="M17 650v-43h-257v43h257z" />
    <glyph glyph-name="brevecmb" unicode="&#x306;" horiz-adv-x="0" 
d="M4 705h35q-5 -61 -43 -95.5t-97 -34.5t-96.5 34.5t-42.5 95.5h36q7 -42 35 -65t68 -23q89 0 105 88z" />
    <glyph glyph-name="dotaccentcmb" unicode="&#x307;" horiz-adv-x="0" 
d="M-200 692q15 0 27 -11.5t12 -28.5t-12 -29t-27 -12q-16 0 -28 12t-12 29t12 28.5t28 11.5z" />
    <glyph glyph-name="dieresiscmb" unicode="&#x308;" horiz-adv-x="0" 
d="M-199 693q18 0 30 -12t12 -30t-12 -30t-30 -12t-29.5 12t-11.5 30t11.5 30t29.5 12zM-19 693q18 0 29.5 -12t11.5 -30t-11.5 -30t-29.5 -12t-30 12t-12 30t12 30t30 12z" />
    <glyph glyph-name="hookabovecomb" unicode="&#x309;" 
d="M217 665q0 -49 -49 -72q-32 -15 -32 -38h-39q0 41 44 62q34 16 34 46q0 21 -13 33t-37 12q-52 0 -60 -55l-41 5q16 84 102 84q42 0 66.5 -21.5t24.5 -55.5z" />
    <glyph glyph-name="ringcmb" unicode="&#x30a;" horiz-adv-x="0" 
d="M-78 650q0 27 -19.5 46t-46.5 19t-46.5 -19t-19.5 -46t19.5 -46t46.5 -19t46.5 19t19.5 46zM-48 650q0 -40 -28.5 -67.5t-67.5 -27.5t-67.5 27.5t-28.5 67.5q0 39 28.5 67t67.5 28t67.5 -28t28.5 -67z" />
    <glyph glyph-name="hungarumlautcmb" unicode="&#x30b;" horiz-adv-x="0" 
d="M-138 708h69l-126 -144h-45zM14 708h69l-125 -144h-45z" />
    <glyph glyph-name="caroncmb" unicode="&#x30c;" horiz-adv-x="0" 
d="M-15 708h51l-107 -144h-62l-107 144h51l87 -116z" />
    <glyph glyph-name="horncmb" unicode="&#x31b;" horiz-adv-x="0" 
d="M-44 536q0 -52 -31 -80.5t-86 -28.5q-36 0 -62 12q-6 1 -20 10l-1 4v8v4h77q77 0 77 71q0 29 -15 57l47 13q14 -30 14 -70z" />
    <glyph glyph-name="dotbelowcomb" unicode="&#x323;" 
d="M154 -144q0 -16 -10 -26.5t-25 -10.5q-14 0 -23.5 10.5t-9.5 26.5q0 15 9.5 25.5t23.5 10.5q15 0 25 -10.5t10 -25.5z" />
    <glyph glyph-name="dieresisbelowcmb" unicode="&#x324;" horiz-adv-x="0" 
d="M-199 -70q18 0 30 -12t12 -30t-12 -30.5t-30 -12.5t-29.5 12.5t-11.5 30.5t11.5 30t29.5 12zM-19 -70q18 0 29.5 -12t11.5 -30t-11.5 -30.5t-29.5 -12.5t-30 12.5t-12 30.5t12 30t30 12z" />
    <glyph glyph-name="ringbelowcmb" unicode="&#x325;" horiz-adv-x="0" 
d="M-78 -165q0 27 -19.5 46t-46.5 19t-46.5 -19t-19.5 -46t19.5 -46t46.5 -19t46.5 19t19.5 46zM-48 -165q0 -40 -28.5 -67.5t-67.5 -27.5t-67.5 27.5t-28.5 67.5q0 39 28.5 67t67.5 28t67.5 -28t28.5 -67z" />
    <glyph glyph-name="cedillacmb" unicode="&#x327;" horiz-adv-x="0" 
d="M-31 -144q0 -45 -35 -65t-81 -20q-50 0 -93 20l12 30q30 -15 77 -15q27 0 50 11.5t23 37.5q0 43 -60 43q-27 0 -52 -10l-15 13l64 99h36l-52 -79q16 6 42 6q33 0 58.5 -18.5t25.5 -52.5z" />
    <glyph glyph-name="ogonekcmb" unicode="&#x328;" horiz-adv-x="0" 
d="M-81 -157l16 -32q-36 -34 -87 -34q-37 0 -62.5 23t-25.5 60q0 60 90 140h40q-45 -44 -64 -71.5t-19 -56.5q0 -24 15.5 -38.5t39.5 -14.5q36 0 57 24z" />
    <glyph glyph-name="circumflexbelowcmb" unicode="&#x32d;" horiz-adv-x="0" 
d="M-71 -70l107 -144h-51l-87 116l-87 -116h-51l107 144h62z" />
    <glyph glyph-name="brevebelowcmb" unicode="&#x32e;" horiz-adv-x="0" 
d="M4 -70h35q-5 -61 -43 -95.5t-97 -34.5t-96.5 34.5t-42.5 95.5h36q7 -42 35 -65t68 -23q89 0 105 88z" />
    <glyph glyph-name="tildebelowcmb" unicode="&#x330;" horiz-adv-x="0" 
d="M20 -70h34q-6 -41 -26 -66t-54 -25q-27 0 -70 23q-41 23 -64 23q-35 0 -46 -50h-34q6 41 26 66.5t54 25.5q27 0 70 -23t64 -23q35 0 46 49z" />
    <glyph glyph-name="macronbelowcmb" unicode="&#x331;" horiz-adv-x="0" 
d="M17 -70v-42h-257v42h257z" />
    <glyph glyph-name="gravetonecmb" unicode="&#x340;" horiz-adv-x="0" 
d="M-60 564h-45l-121 144h74z" />
    <glyph glyph-name="acutetonecmb" unicode="&#x341;" horiz-adv-x="0" 
d="M-63 708l-121 -144h-45l92 144h74z" />
    <glyph glyph-name="dialytikatonoscmb" unicode="&#x344;" horiz-adv-x="0" 
d="M-189 596q-20 0 -32.5 14t-12.5 33t12.5 32.5t32.5 13.5t32.5 -13.5t12.5 -32.5t-12.5 -33t-32.5 -14zM3 596q-20 0 -32.5 14t-12.5 33t12.5 32.5t32.5 13.5t32.5 -13.5t12.5 -32.5t-12.5 -33t-32.5 -14zM-11 917l-121 -137h-45l92 137h74z" />
    <glyph glyph-name="uni037E" unicode="&#x37e;" horiz-adv-x="293" 
d="M129 93h57l-75 -232h-45zM147 469q18 0 30.5 -13t12.5 -31t-12.5 -31t-30.5 -13q-19 0 -31.5 13t-12.5 31t12.5 31t31.5 13z" />
    <glyph glyph-name="u0384" unicode="&#x384;" horiz-adv-x="260" 
d="M157 708l-10 -173h-34l-11 173h55z" />
    <glyph glyph-name="dialytikatonos" unicode="&#x385;" 
d="M24 596q-20 0 -32.5 14t-12.5 33t12.5 32.5t32.5 13.5t32.5 -13.5t12.5 -32.5t-12.5 -33t-32.5 -14zM216 596q-20 0 -32.5 14t-12.5 33t12.5 32.5t32.5 13.5t32.5 -13.5t12.5 -32.5t-12.5 -33t-32.5 -14zM202 917l-121 -137h-45l92 137h74z" />
    <glyph glyph-name="u0386" unicode="&#x386;" horiz-adv-x="700" 
d="M514 244l-165 404l-165 -404h330zM681 0h-67l-78 189h-374l-77 -189h-66l301 707h62zM137 748l-10 -164h-34l-11 164h55z" />
    <glyph glyph-name="anoteleia" unicode="&#x387;" horiz-adv-x="260" 
d="M130 260q-20 0 -34 16t-14 38t14 38t34 16t34 -16t14 -38t-14 -38t-34 -16z" />
    <glyph glyph-name="u0388" unicode="&#x388;" horiz-adv-x="648" 
d="M61 748l-10 -164h-34l-11 164h55zM595 0h-439v707h427v-52h-367v-261h343v-52h-343v-289h379v-53z" />
    <glyph glyph-name="u0389" unicode="&#x389;" horiz-adv-x="752" 
d="M61 748l-10 -164h-34l-11 164h55zM652 0h-60v340h-398v-340h-60v707h60v-312h398v312h60v-707z" />
    <glyph glyph-name="u038A" unicode="&#x38a;" horiz-adv-x="304" 
d="M203 0h-60v707h60v-707zM61 748l-10 -164h-34l-11 164h55z" />
    <glyph glyph-name="u038C" unicode="&#x38c;" horiz-adv-x="870" 
d="M445 674q-135 0 -217 -93.5t-82 -226.5t82 -226t217 -93t217 93t82 226t-82 226.5t-217 93.5zM61 748l-10 -164h-34l-11 164h55zM445 -18q-156 0 -259.5 105.5t-103.5 266.5t103.5 266.5t259.5 105.5t259.5 -105.5t103.5 -266.5t-103.5 -266.5t-259.5 -105.5z" />
    <glyph glyph-name="u038E" unicode="&#x38e;" horiz-adv-x="717" 
d="M61 748l-10 -164h-34l-11 164h55zM706 707l-260 -401v-306h-60v306l-260 401h76l216 -354l218 354h70z" />
    <glyph glyph-name="u038F" unicode="&#x38f;" horiz-adv-x="809" 
d="M61 748l-10 -164h-34l-11 164h55zM543 143v-88h201v-55h-253v182q96 17 150 79.5t54 154.5q0 119 -73.5 185t-191.5 66q-117 0 -190 -66t-73 -185q0 -96 54 -157t151 -77v-182h-254v55h201v88q-103 23 -159.5 96.5t-56.5 177.5q0 139 94.5 220.5t234.5 81.5
q139 0 233 -81.5t94 -219.5q0 -98 -58.5 -175.5t-157.5 -99.5z" />
    <glyph glyph-name="u0390" unicode="&#x390;" horiz-adv-x="250" 
d="M153 0h-56v464h56v-464zM-3 535q-17 0 -28 11.5t-11 27.5t11 28t28 12t28 -12t11 -28t-11 -27.5t-28 -11.5zM154 735l-10 -194h-34l-11 194h55zM258 535q-17 0 -28 11.5t-11 27.5t11 28t28 12t28 -12t11 -28t-11 -27.5t-28 -11.5z" />
    <glyph glyph-name="u0391" unicode="&#x391;" horiz-adv-x="700" 
d="M514 244l-165 405l-165 -405h330zM681 0h-67l-78 189h-374l-77 -189h-66l301 708h62z" />
    <glyph glyph-name="u0392" unicode="&#x392;" horiz-adv-x="636" 
d="M313 345h-153v-294h140q87 0 144 35.5t57 110.5q0 74 -49 111t-139 37zM291 657h-131v-264h151q62 0 109 31.5t47 100.5t-49 100.5t-127 31.5zM304 0h-204v708h205q43 0 80.5 -9t70.5 -28t52 -55t19 -86q0 -55 -33.5 -96t-91.5 -54v-12q73 -9 116.5 -54.5t43.5 -120.5
q0 -87 -69.5 -140t-188.5 -53z" />
    <glyph glyph-name="u0393" unicode="&#x393;" horiz-adv-x="508" 
d="M490 655h-330v-655h-60v708h390v-53z" />
    <glyph glyph-name="uni0394" unicode="&#x394;" horiz-adv-x="666" 
d="M93 48h478l-241 613zM361 712l283 -712h-621l278 712h60z" />
    <glyph glyph-name="u0395" unicode="&#x395;" horiz-adv-x="592" 
d="M539 0h-439v708h427v-53h-367v-260h343v-52h-343v-290h379v-53z" />
    <glyph glyph-name="u0396" unicode="&#x396;" horiz-adv-x="572" 
d="M535 0h-498v53l420 602h-409v53h481v-53l-419 -602h425v-53z" />
    <glyph glyph-name="u0397" unicode="&#x397;" horiz-adv-x="718" 
d="M618 0h-60v341h-398v-341h-60v708h60v-312h398v312h60v-708z" />
    <glyph glyph-name="u0398" unicode="&#x398;" horiz-adv-x="850" 
d="M628 332h-405v55h405v-55zM425 674q-135 0 -217 -93.5t-82 -226.5t82 -226t217 -93t217 93t82 226t-82 226.5t-217 93.5zM425 -18q-156 0 -259.5 105.5t-103.5 266.5t103.5 266.5t259.5 105.5t259.5 -105.5t103.5 -266.5t-103.5 -266.5t-259.5 -105.5z" />
    <glyph glyph-name="u0399" unicode="&#x399;" horiz-adv-x="260" 
d="M160 0h-60v708h60v-708z" />
    <glyph glyph-name="u039A" unicode="&#x39a;" horiz-adv-x="628" 
d="M613 0h-89l-354 384h-10v-384h-60v708h60v-323h9l337 323h85l-350 -320z" />
    <glyph glyph-name="u039B" unicode="&#x39b;" horiz-adv-x="700" 
d="M681 0h-67l-265 638l-264 -638h-66l301 708h62z" />
    <glyph glyph-name="u039C" unicode="&#x39c;" horiz-adv-x="886" 
d="M786 0h-60v626h-12l-256 -626h-30l-256 626h-12v-626h-60v708h100l240 -596h9l237 596h100v-708z" />
    <glyph glyph-name="u039D" unicode="&#x39d;" horiz-adv-x="764" 
d="M664 0h-81l-412 620h-11v-620h-60v708h81l412 -613h11v613h60v-708z" />
    <glyph glyph-name="u039E" unicode="&#x39e;" horiz-adv-x="588" 
d="M535 0h-482v55h482v-55zM499 342h-425v55h425v-55zM523 653h-470v55h470v-55z" />
    <glyph glyph-name="u039F" unicode="&#x39f;" horiz-adv-x="850" 
d="M425 674q-135 0 -217 -93.5t-82 -226.5t82 -226t217 -93t217 93t82 226t-82 226.5t-217 93.5zM425 -18q-156 0 -259.5 105.5t-103.5 266.5t103.5 266.5t259.5 105.5t259.5 -105.5t103.5 -266.5t-103.5 -266.5t-259.5 -105.5z" />
    <glyph glyph-name="u03A0" unicode="&#x3a0;" horiz-adv-x="698" 
d="M598 0h-60v653h-378v-653h-60v708h498v-708z" />
    <glyph glyph-name="u03A1" unicode="&#x3a1;" horiz-adv-x="580" 
d="M288 657h-128v-272h128q87 0 133 34.5t46 102.5q0 135 -179 135zM292 335h-132v-335h-60v708h194q109 0 171 -47t62 -139q0 -91 -63 -139t-172 -48z" />
    <glyph glyph-name="u03A3" unicode="&#x3a3;" horiz-adv-x="605" 
d="M154 655l320 -300l-313 -302h391v-53h-492v37l324 314v12l-324 307v38h480v-53h-386z" />
    <glyph glyph-name="u03A4" unicode="&#x3a4;" horiz-adv-x="570" 
d="M552 655h-237v-655h-60v655h-237v53h534v-53z" />
    <glyph glyph-name="u03A5" unicode="&#x3a5;" horiz-adv-x="602" 
d="M591 708l-260 -402v-306h-60v306l-260 402h76l216 -354l218 354h70z" />
    <glyph glyph-name="u03A6" unicode="&#x3a6;" horiz-adv-x="838" 
d="M390 87v535q-125 -10 -197.5 -84.5t-72.5 -183.5t72.5 -183t197.5 -84zM450 622v-534q124 10 196 84t72 182q0 109 -71.5 182t-196.5 86zM450 34v-85h-60v85q-149 10 -241.5 97t-92.5 223t92.5 222.5t241.5 96.5v79h60v-79q148 -10 240 -97t92 -222q0 -136 -92 -223
t-240 -97z" />
    <glyph glyph-name="u03A7" unicode="&#x3a7;" horiz-adv-x="649" 
d="M618 0h-75l-219 329l-218 -329h-75l255 372l-232 336h75l197 -296l196 296h72l-231 -337z" />
    <glyph glyph-name="u03A8" unicode="&#x3a8;" horiz-adv-x="847" 
d="M479 159h-26v-159h-60v159h-36q-119 0 -193 65.5t-74 188.5v295h60v-291q0 -104 60.5 -155.5t150.5 -51.5h32v498h60v-498h31q91 0 152 51.5t61 155.5v291h60v-295q0 -122 -78.5 -188t-199.5 -66z" />
    <glyph glyph-name="uni03A9" unicode="&#x3a9;" horiz-adv-x="742" 
d="M678 45v-45h-238v174q89 16 137.5 82t48.5 160q0 112 -75 185t-186 73q-109 0 -184.5 -74t-75.5 -184q0 -93 48.5 -160t137.5 -82v-174h-238v45h196v96q-91 25 -143.5 101.5t-52.5 174.5q0 131 91.5 217.5t221.5 86.5q129 0 220.5 -87t91.5 -216q0 -99 -52 -175.5
t-144 -101.5v-96h196z" />
    <glyph glyph-name="u03AA" unicode="&#x3aa;" horiz-adv-x="260" 
d="M160 0h-60v705h60v-705zM34 807q-20 0 -32.5 13t-12.5 32t12.5 32.5t32.5 13.5t32.5 -13.5t12.5 -32.5t-12.5 -32t-32.5 -13zM226 807q-20 0 -32.5 13t-12.5 32t12.5 32.5t32.5 13.5t32.5 -13.5t12.5 -32.5t-12.5 -32t-32.5 -13z" />
    <glyph glyph-name="u03AB" unicode="&#x3ab;" horiz-adv-x="602" 
d="M591 705l-260 -400v-305h-60v305l-260 400h76l216 -353l218 353h70zM207 807q-20 0 -32.5 13t-12.5 32t12.5 32.5t32.5 13.5t32.5 -13.5t12.5 -32.5t-12.5 -32t-32.5 -13zM399 807q-20 0 -32.5 13t-12.5 32t12.5 32.5t32.5 13.5t32.5 -13.5t12.5 -32.5t-12.5 -32
t-32.5 -13z" />
    <glyph glyph-name="u03AC" unicode="&#x3ac;" horiz-adv-x="630" 
d="M304 430q-84 0 -133.5 -57t-49.5 -141q0 -85 49 -141t134 -56q81 0 133.5 56.5t52.5 140.5q0 85 -52.5 141.5t-133.5 56.5zM538 0h-56v80h-11q-30 -45 -76.5 -68.5t-97.5 -23.5q-105 0 -170.5 69.5t-65.5 174.5t65.5 174.5t170.5 69.5q51 0 97.5 -24.5t76.5 -70.5h11v83
h56v-464zM357 735l-10 -164h-34l-11 164h55z" />
    <glyph glyph-name="u03AD" unicode="&#x3ad;" horiz-adv-x="474" 
d="M411 32q-67 -44 -164 -44q-89 0 -148 37t-59 93q0 54 38.5 80.5t88.5 31.5v14q-45 4 -77.5 31t-32.5 72q0 58 58.5 95.5t141.5 37.5q87 0 146 -46q20 -16 35 -39l-43 -27q-41 66 -136 66q-55 0 -98.5 -23t-43.5 -67t42 -66t107 -22h97v-44h-121q-70 0 -105.5 -24.5
t-35.5 -65.5q0 -42 45.5 -64.5t106.5 -22.5q79 0 133 35q22 13 37 31l33 -30q-15 -19 -45 -39zM270 735l-10 -164h-34l-11 164h55z" />
    <glyph glyph-name="u03AE" unicode="&#x3ae;" horiz-adv-x="597" 
d="M501 -240h-56v499q0 83 -31 127.5t-108 44.5q-68 0 -111 -49t-43 -142v-237h-56v363q0 51 -3 99h53q3 -38 3 -81h12q20 40 66 66.5t96 26.5q85 0 131.5 -51t46.5 -139v-527zM329 735l-10 -163h-34l-11 163h55z" />
    <glyph glyph-name="u03AF" unicode="&#x3af;" horiz-adv-x="239" 
d="M143 0h-56v464h56v-464zM143 735l-10 -164h-34l-11 164h55z" />
    <glyph glyph-name="u03B0" unicode="&#x3b0;" horiz-adv-x="580" 
d="M289 -11q-98 0 -147.5 60t-49.5 147v268h56v-263q0 -67 34.5 -115.5t107.5 -48.5t107.5 48.5t34.5 115.5v263h56v-268q0 -86 -50.5 -146.5t-148.5 -60.5zM159 535q-17 0 -28 11.5t-11 27.5t11 28t28 12t28 -12t11 -28t-11 -27.5t-28 -11.5zM316 735l-10 -194h-34l-11 194
h55zM420 535q-17 0 -28 11.5t-11 27.5t11 28t28 12t28 -12t11 -28t-11 -27.5t-28 -11.5z" />
    <glyph glyph-name="u03B1" unicode="&#x3b1;" horiz-adv-x="630" 
d="M304 434q-84 0 -133.5 -57.5t-49.5 -142.5t49.5 -142t133.5 -57q81 0 133.5 57t52.5 142t-53 142.5t-133 57.5zM538 0h-56v81h-11q-30 -45 -76.5 -69t-97.5 -24q-105 0 -170.5 70t-65.5 176t65.5 176t170.5 70q51 0 97.5 -24.5t76.5 -70.5h11v83h56v-468z" />
    <glyph glyph-name="u03B2" unicode="&#x3b2;" horiz-adv-x="629" 
d="M311 378h-63v43h53q58 0 95.5 38t37.5 103q0 66 -40 108.5t-101 42.5q-62 0 -99.5 -46.5t-37.5 -134.5v-322q0 -81 51.5 -127t125.5 -46t123.5 46t49.5 124q0 81 -53.5 126t-141.5 45zM337 -9q-77 0 -132 47q-26 23 -49 72v-350h-56v779q0 104 54 162t138 58
q81 0 139 -51t58 -134q0 -67 -36 -111.5t-83 -50.5v-14q26 0 57.5 -11.5t63 -33t52 -61t20.5 -87.5q0 -92 -66.5 -153t-159.5 -61z" />
    <glyph glyph-name="u03B3" unicode="&#x3b3;" horiz-adv-x="528" 
d="M505 468l-208 -421v-287h-56v287l-218 421h68l179 -371l172 371h63z" />
    <glyph glyph-name="u03B4" unicode="&#x3b4;" horiz-adv-x="609" 
d="M303 421q-85 0 -133 -54t-48 -138q0 -86 48 -139.5t133 -53.5t134.5 54t49.5 139q0 83 -49.5 137.5t-134.5 54.5zM303 -12q-105 0 -173 68t-68 173t68.5 171t168.5 61l19 -1l8 13l-23 8q-23 8 -82 31q-30 12 -37 15q-90 37 -90 102q0 57 63 92t170 35q72 0 144 -19
q21 -6 47 -17l-18 -51q-11 5 -47 16q-72 19 -139 19q-66 0 -113 -17t-47 -57q0 -30 31 -51t115 -53q247 -95 247 -297q0 -106 -68 -173.5t-176 -67.5z" />
    <glyph glyph-name="u03B5" unicode="&#x3b5;" horiz-adv-x="484" 
d="M411 32q-70 -44 -164 -44q-89 0 -148 37t-59 94q0 55 38.5 81.5t88.5 31.5v14q-45 4 -77.5 31.5t-32.5 72.5q0 58 58.5 96t141.5 38q90 0 146 -46q21 -17 35 -40l-43 -27q-41 67 -136 67q-55 0 -98.5 -23.5t-43.5 -67.5t42 -66t107 -22h97v-46h-121q-70 0 -105.5 -24
t-35.5 -66q0 -43 45.5 -65.5t106.5 -22.5q77 0 133 36q22 13 37 31l33 -31q-18 -21 -45 -39z" />
    <glyph glyph-name="u03B6" unicode="&#x3b6;" horiz-adv-x="508" 
d="M315 -243l-32 42q53 11 95.5 39t42.5 70q0 47 -34 68.5t-89 28.5q-46 7 -85 22.5t-75 43.5t-56.5 75.5t-20.5 110.5q0 62 20.5 120.5t51.5 103t78 89t89 75t96 65.5h-302v44h375v-45q-84 -57 -142.5 -105.5t-107.5 -104.5t-73.5 -116t-24.5 -126q0 -91 58.5 -141
t172.5 -70q129 -22 129 -130q0 -32 -18.5 -61.5t-46 -49t-54 -32t-47.5 -16.5z" />
    <glyph glyph-name="u03B7" unicode="&#x3b7;" horiz-adv-x="593" 
d="M501 -240h-56v501q0 83 -31 128t-108 45q-69 0 -111.5 -49t-42.5 -143v-238h-56v365q0 51 -3 99h53q3 -37 3 -82h12q20 41 66 67.5t96 26.5q85 0 131.5 -51t46.5 -139v-530z" />
    <glyph glyph-name="u03B8" unicode="&#x3b8;" horiz-adv-x="604" 
d="M486 343l-357 1q2 -145 45.5 -231t132.5 -86q170 0 179 316zM307 718q-89 0 -132.5 -88t-45.5 -233h357q-1 67 -11.5 123t-30.5 101.5t-55 71t-82 25.5zM307 -18q-82 0 -136 51.5t-76.5 135.5t-22.5 202q0 180 57 285.5t178 105.5q122 0 179.5 -104.5t57.5 -286.5
q0 -181 -57.5 -285t-179.5 -104z" />
    <glyph glyph-name="u03B9" unicode="&#x3b9;" horiz-adv-x="222" 
d="M139 0h-56v468h56v-468z" />
    <glyph glyph-name="u03BA" unicode="&#x3ba;" horiz-adv-x="530" 
d="M148 468v-216v-1v-251h-56v468h56zM160 252h-12v-1h11l216 217h80l-229 -213l254 -255h-82z" />
    <glyph glyph-name="u03BB" unicode="&#x3bb;" horiz-adv-x="516" 
d="M491 0h-60l-158 427h-10l-160 -427h-60l195 494l-29 80l-21 54q-16 38 -36.5 54t-60.5 16q-24 0 -37 -4q-7 -1 -19 -5l-12 45q6 1 16.5 3.5l14.5 3.5q17 4 46 4q74 0 107 -39q16 -21 27 -47q6 -14 25 -65z" />
    <glyph glyph-name="uni03BC" unicode="&#x3bc;" horiz-adv-x="556" 
d="M475 0h-55v91h-2q-23 -46 -69 -75t-97 -29q-80 0 -121 49v-264h-52v693h52v-264q0 -82 29.5 -125t102.5 -43q67 0 111.5 53t44.5 143v236h51v-358q0 -27 5 -107z" />
    <glyph glyph-name="u03BD" unicode="&#x3bd;" horiz-adv-x="488" 
d="M463 468l-185 -468h-67l-186 468h63l152 -406h10l153 406h60z" />
    <glyph glyph-name="u03BE" unicode="&#x3be;" horiz-adv-x="504" 
d="M312 -243l-32 42q53 11 95.5 39t42.5 70q0 47 -33.5 67.5t-89.5 29.5q-52 8 -91 19.5t-73 31.5t-52 52.5t-18 75.5q0 150 231 184q-37 6 -66 13t-58.5 20.5t-49 30.5t-31.5 44t-12 61q0 125 162 157v14h-163v46h365v-32q-76 -10 -126 -21.5t-94 -32t-65 -52.5t-21 -78
q0 -72 58 -106t153 -34h83v-56h-115q-80 0 -135.5 -37.5t-55.5 -106.5q0 -67 52 -98.5t175 -53.5q130 -22 130 -130q0 -42 -33 -79t-68.5 -55.5t-64.5 -24.5z" />
    <glyph glyph-name="u03BF" unicode="&#x3bf;" horiz-adv-x="611" 
d="M305 434q-82 0 -132.5 -58t-50.5 -142q0 -85 50.5 -142t132.5 -57q83 0 133.5 57t50.5 142q0 84 -50.5 142t-133.5 58zM305 -12q-106 0 -174.5 70t-68.5 176t68.5 176t174.5 70q107 0 175.5 -70t68.5 -176t-68.5 -176t-175.5 -70z" />
    <glyph glyph-name="pi" unicode="&#x3c0;" horiz-adv-x="561" 
d="M522 45v-36q-32 -15 -59 -15q-25 0 -40.5 8t-22 26t-8 33.5t-1.5 44.5v314h-235v-420h-50v420h-70v45h481v-45h-76v-323q0 -31 8 -45.5t34 -14.5q22 0 39 8z" />
    <glyph glyph-name="u03C1" unicode="&#x3c1;" horiz-adv-x="635" 
d="M330 434q-81 0 -131.5 -56.5t-50.5 -141.5q0 -88 51 -142.5t131 -54.5q85 0 134 56t49 141q0 86 -49 142t-134 56zM334 -8q-50 0 -95 24t-75 68h-12v-324h-56v476q0 115 70 179.5t168 64.5q106 0 172.5 -69.5t66.5 -174.5t-66.5 -174.5t-172.5 -69.5z" />
    <glyph glyph-name="u03C2" unicode="&#x3c2;" horiz-adv-x="508" 
d="M471 405l-42 -31q-42 60 -127 60q-80 0 -130 -53.5t-50 -142.5q0 -41 12 -72.5t29.5 -50.5t47.5 -33.5t54 -21t61 -13.5q26 -5 45.5 -12.5t40.5 -21.5t32.5 -38.5t11.5 -57.5q0 -42 -33 -79.5t-68.5 -56t-64.5 -24.5l-32 42q54 12 96 40t42 70q0 24 -9 41t-26 27
t-31.5 14.5t-36.5 8.5q-45 10 -60 14q-171 52 -171 223q0 109 67 176t171 67q113 0 171 -75z" />
    <glyph glyph-name="u03C3" unicode="&#x3c3;" horiz-adv-x="635" 
d="M305 434q-82 0 -132.5 -58t-50.5 -142q0 -85 50.5 -142t132.5 -57q83 0 133.5 57t50.5 142q0 84 -50.5 142t-133.5 58zM619 422h-138v-12q68 -71 68 -176q0 -106 -68.5 -176t-175.5 -70q-106 0 -174.5 70t-68.5 176t68.5 176t174.5 70q33 0 80 -6t89 -6h145v-46z" />
    <glyph glyph-name="u03C4" unicode="&#x3c4;" horiz-adv-x="481" 
d="M465 422h-197v-422h-56v422h-196v46h449v-46z" />
    <glyph glyph-name="u03C5" unicode="&#x3c5;" horiz-adv-x="580" 
d="M289 -11q-98 0 -147.5 60.5t-49.5 148.5v270h56v-265q0 -68 34.5 -117t107.5 -49t107.5 49t34.5 117v265h56v-270q0 -87 -50.5 -148t-148.5 -61z" />
    <glyph glyph-name="u03C6" unicode="&#x3c6;" horiz-adv-x="799" 
d="M474 428h-42v-389q107 0 176 53.5t69 157.5q0 42 -15 75.5t-37 52t-51 30.5t-53 16t-47 4zM432 -8v-232h-56v232q-141 2 -227.5 68t-86.5 186q0 91 55.5 148.5t131.5 80.5l19 -43q-59 -19 -102.5 -65.5t-43.5 -119.5q0 -104 68 -155t186 -53v435h104q109 0 183 -64
t74 -163q0 -119 -90.5 -187t-214.5 -68z" />
    <glyph glyph-name="u03C7" unicode="&#x3c7;" horiz-adv-x="543" 
d="M513 -239h-60l-182 331l-181 -331h-60l211 372l-192 335h60l164 -296l163 296h57l-191 -336z" />
    <glyph glyph-name="u03C8" unicode="&#x3c8;" horiz-adv-x="784" 
d="M420 -8v-232h-56v232q-131 0 -209.5 70.5t-78.5 193.5v212h56v-208q0 -105 63.5 -162t168.5 -59v429h56v-429q104 2 168 58.5t64 162.5v208h56v-212q0 -123 -79 -193.5t-209 -70.5z" />
    <glyph glyph-name="u03C9" unicode="&#x3c9;" horiz-adv-x="806" 
d="M565 -9q-68 0 -109 42t-45 118h-16q-5 -78 -45.5 -120t-108.5 -42q-86 0 -137.5 64t-51.5 161q0 112 59.5 174.5t147.5 84.5l21 -41q-86 -27 -128 -78t-42 -136q0 -77 33 -129.5t96 -52.5q60 0 98 48.5t38 131.5v81h56v-81q0 -83 37.5 -130.5t98.5 -47.5q63 0 96 51.5
t33 128.5q0 86 -41.5 136.5t-128.5 77.5l21 41q88 -22 147.5 -84.5t59.5 -174.5q0 -97 -51.5 -160t-137.5 -63z" />
    <glyph glyph-name="u03CA" unicode="&#x3ca;" horiz-adv-x="250" 
d="M153 0h-56v464h56v-464zM30 606q-20 0 -32.5 13.5t-12.5 32.5t12.5 32.5t32.5 13.5t32.5 -13.5t12.5 -32.5t-12.5 -32.5t-32.5 -13.5zM222 606q-20 0 -32.5 13.5t-12.5 32.5t12.5 32.5t32.5 13.5t32.5 -13.5t12.5 -32.5t-12.5 -32.5t-32.5 -13.5z" />
    <glyph glyph-name="u03CB" unicode="&#x3cb;" horiz-adv-x="580" 
d="M289 -11q-98 0 -147.5 60t-49.5 148v267h56v-262q0 -68 34.5 -116.5t107.5 -48.5t107.5 48.5t34.5 116.5v262h56v-267q0 -87 -50.5 -147.5t-148.5 -60.5zM190 606q-20 0 -32.5 13.5t-12.5 32.5t12.5 32.5t32.5 13.5t32.5 -13.5t12.5 -32.5t-12.5 -32.5t-32.5 -13.5z
M382 606q-20 0 -32.5 13.5t-12.5 32.5t12.5 32.5t32.5 13.5t32.5 -13.5t12.5 -32.5t-12.5 -32.5t-32.5 -13.5z" />
    <glyph glyph-name="u03CC" unicode="&#x3cc;" horiz-adv-x="611" 
d="M305 430q-82 0 -132.5 -57.5t-50.5 -140.5q0 -84 50.5 -140.5t132.5 -56.5q83 0 133.5 56.5t50.5 140.5t-50.5 141t-133.5 57zM305 -12q-106 0 -174.5 69.5t-68.5 174.5t68.5 174.5t174.5 69.5q107 0 175.5 -69t68.5 -175t-68.5 -175t-175.5 -69zM335 718l-10 -164h-34
l-11 164h55z" />
    <glyph glyph-name="u03CD" unicode="&#x3cd;" horiz-adv-x="580" 
d="M289 -11q-98 0 -147.5 60t-49.5 147v268h56v-262q0 -68 34.5 -116.5t107.5 -48.5t107.5 48.5t34.5 116.5v262h56v-268q0 -86 -50.5 -146.5t-148.5 -60.5zM319 708l-10 -164h-34l-11 164h55z" />
    <glyph glyph-name="u03CE" unicode="&#x3ce;" horiz-adv-x="806" 
d="M565 -9q-68 0 -109 41.5t-45 117.5h-16q-5 -77 -45.5 -119t-108.5 -42q-86 0 -137.5 63.5t-51.5 159.5q0 112 59.5 173.5t147.5 83.5l21 -41q-86 -27 -128 -77.5t-42 -134.5q0 -77 33 -128.5t96 -51.5q60 0 98 48t38 130v80h56v-80q0 -82 37.5 -129t98.5 -47q63 0 96 51
t33 127q0 85 -41.5 135t-128.5 77l21 41q88 -22 147.5 -83.5t59.5 -173.5q0 -96 -51.5 -158.5t-137.5 -62.5zM427 708l-10 -164h-34l-11 164h55z" />
    <glyph glyph-name="u0401" unicode="&#x401;" horiz-adv-x="592" 
d="M539 0h-439v705h427v-52h-367v-260h343v-51h-343v-289h379v-53zM220 807q-20 0 -32.5 13t-12.5 32t12.5 32.5t32.5 13.5t32.5 -13.5t12.5 -32.5t-12.5 -32t-32.5 -13zM412 807q-20 0 -32.5 13t-12.5 32t12.5 32.5t32.5 13.5t32.5 -13.5t12.5 -32.5t-12.5 -32t-32.5 -13z
" />
    <glyph glyph-name="u0402" unicode="&#x402;" horiz-adv-x="731" 
d="M429 -1l-31 1v57h53q62 0 109.5 43.5t47.5 123.5q0 78 -45 123t-130 45h-149v-392h-60v653h-206v55h523v-55h-257v-205h142q121 0 182.5 -62.5t61.5 -159.5q0 -101 -62.5 -166t-178.5 -61z" />
    <glyph glyph-name="u0403" unicode="&#x403;" horiz-adv-x="516" 
d="M490 653h-330v-653h-60v705h390v-52zM428 908l-121 -134h-45l92 134h74z" />
    <glyph glyph-name="u0404" unicode="&#x404;" horiz-adv-x="735" 
d="M425 -18q-158 0 -260.5 105.5t-102.5 266.5t103.5 266.5t259.5 105.5q75 0 142 -29t102 -77l-51 -38q-26 38 -77.5 65t-114.5 27q-124 0 -205 -80.5t-94 -203.5h425v-52h-425q6 -130 88 -217t211 -87q136 0 210 104l46 -30q-39 -56 -104.5 -91t-152.5 -35z" />
    <glyph glyph-name="u0405" unicode="&#x405;" horiz-adv-x="564" 
d="M273 -18q-64 0 -121 25.5t-94 73.5l52 40q57 -88 164 -88q62 0 112.5 38.5t50.5 106.5q0 55 -29 86t-83 52q-16 6 -65 22q-42 14 -69.5 26.5t-57 34.5t-44.5 56t-15 79q0 93 66.5 142.5t153.5 49.5q128 0 192 -80l-48 -39q-53 69 -147 69q-61 0 -109 -36.5t-48 -104.5
q0 -49 26 -78.5t74 -48.5l31 -11t27 -9q100 -32 140 -63q66 -49 66 -142q0 -97 -67 -149t-158 -52z" />
    <glyph glyph-name="u0406" unicode="&#x406;" horiz-adv-x="260" 
d="M160 0h-60v708h60v-708z" />
    <glyph glyph-name="u0407" unicode="&#x407;" horiz-adv-x="260" 
d="M160 0h-60v705h60v-705zM34 807q-20 0 -32.5 13t-12.5 32t12.5 32.5t32.5 13.5t32.5 -13.5t12.5 -32.5t-12.5 -32t-32.5 -13zM226 807q-20 0 -32.5 13t-12.5 32t12.5 32.5t32.5 13.5t32.5 -13.5t12.5 -32.5t-12.5 -32t-32.5 -13z" />
    <glyph glyph-name="u0408" unicode="&#x408;" horiz-adv-x="492" 
d="M215 -18q-72 0 -120.5 37.5t-62.5 98.5l55 15q11 -44 42 -71.5t78 -27.5q131 0 131 173v501h60v-506q0 -40 -8 -75t-27 -69.5t-57 -55t-91 -20.5z" />
    <glyph glyph-name="u0409" unicode="&#x409;" horiz-adv-x="940" 
d="M638 342h-115l117 -291q91 0 145 34t54 101q0 82 -56.5 119t-144.5 37zM650 0h-56l-250 639l-249 -639h-61l280 708h63l126 -314h139q125 0 191.5 -53.5t66.5 -155.5q0 -78 -66 -131.5t-184 -53.5z" />
    <glyph glyph-name="u040A" unicode="&#x40a;" horiz-adv-x="989" 
d="M694 344h-125v-291h125q87 0 133 39t46 107q0 71 -46 108t-133 37zM698 0h-189v341h-349v-341h-60v708h60v-312h349v312h60v-312h131q108 0 170.5 -53.5t62.5 -149.5q0 -89 -64 -141t-171 -52z" />
    <glyph glyph-name="u040B" unicode="&#x40b;" horiz-adv-x="731" 
d="M660 0h-60v188q0 100 -35 151.5t-122 51.5h-159v-391h-60v653h-206v55h523v-55h-257v-207h169q102 0 154.5 -59.5t52.5 -161.5v-225z" />
    <glyph glyph-name="u040C" unicode="&#x40c;" horiz-adv-x="691" 
d="M624 0h-67q-33 186 -125.5 267.5t-271.5 77.5v-345h-60v705h60v-305q51 0 112 -7l270 312h63l-269 -326q125 -39 194 -132.5t94 -246.5zM468 908l-121 -134h-45l92 134h74z" />
    <glyph glyph-name="u040E" unicode="&#x40e;" horiz-adv-x="649" 
d="M630 705l-266 -552q-39 -81 -84.5 -123t-111.5 -42q-46 0 -82 16l27 52q27 -15 68 -15q37 0 65.5 29t57.5 89l-267 546h66l233 -479l225 479h69zM333 777q-64 0 -107.5 30.5t-61.5 77.5l40 19q15 -38 49 -61t80 -23t80 23t49 61l40 -19q-18 -47 -61.5 -77.5t-107.5 -30.5
z" />
    <glyph glyph-name="u040F" unicode="&#x40f;" horiz-adv-x="698" 
d="M598 2h-211v-141h-60v141h-227v706h60v-651h378v651h60v-706z" />
    <glyph glyph-name="u0410" unicode="&#x410;" horiz-adv-x="700" 
d="M514 244l-165 405l-165 -405h330zM681 0h-67l-78 189h-374l-77 -189h-66l301 708h62z" />
    <glyph glyph-name="u0411" unicode="&#x411;" horiz-adv-x="609" 
d="M304 341h-144v-286h144q86 0 134 38t48 106q0 70 -48.5 106t-133.5 36zM308 0h-208v708h390v-55h-330v-257h150q107 0 170 -53t63 -145t-64 -145t-171 -53z" />
    <glyph glyph-name="u0412" unicode="&#x412;" horiz-adv-x="636" 
d="M313 345h-153v-294h140q87 0 144 35.5t57 110.5q0 74 -49 111t-139 37zM291 657h-131v-264h151q62 0 109 31.5t47 100.5t-49 100.5t-127 31.5zM304 0h-204v708h205q43 0 80.5 -9t70.5 -28t52 -55t19 -86q0 -55 -33.5 -96t-91.5 -54v-12q73 -9 116.5 -54.5t43.5 -120.5
q0 -87 -69.5 -140t-188.5 -53z" />
    <glyph glyph-name="u0413" unicode="&#x413;" horiz-adv-x="516" 
d="M490 655h-330v-655h-60v708h390v-53z" />
    <glyph glyph-name="u0414" unicode="&#x414;" horiz-adv-x="726" 
d="M573 57l-211 594l-211 -594h422zM720 -139h-60v141h-594v-141h-60v196h86l241 651h62l239 -651h86v-196z" />
    <glyph glyph-name="u0415" unicode="&#x415;" horiz-adv-x="592" 
d="M539 0h-439v708h427v-53h-367v-260h343v-52h-343v-290h379v-53z" />
    <glyph glyph-name="u0416" unicode="&#x416;" horiz-adv-x="980" 
d="M913 0h-67q-22 185 -102.5 268t-223.5 79v-347h-60v347q-143 4 -223.5 -79t-102.5 -268h-67q33 294 230 376l-224 332h65l212 -317q48 11 110 11v306h60v-306q62 0 110 -11l212 317h65l-225 -332q197 -80 231 -376z" />
    <glyph glyph-name="u0417" unicode="&#x417;" horiz-adv-x="623" 
d="M296 -18q-164 0 -233 142l51 31q27 -60 70.5 -91t117.5 -31q88 0 137.5 43.5t49.5 116.5q0 153 -230 153h-25v51h25q78 0 133.5 34t55.5 104q0 69 -43 105t-115 36q-99 0 -150 -91l-46 35q63 106 202 106q97 0 155 -49t58 -138q0 -57 -42.5 -100.5t-100.5 -59.5v-12
q183 -26 183 -174q0 -94 -72 -152.5t-181 -58.5z" />
    <glyph glyph-name="u0418" unicode="&#x418;" horiz-adv-x="764" 
d="M664 0h-60v620h-11l-412 -620h-81v708h60v-613h11l412 613h81v-708z" />
    <glyph glyph-name="u0419" unicode="&#x419;" horiz-adv-x="764" 
d="M664 0h-60v617h-11l-412 -617h-81v705h60v-611h11l412 611h81v-705zM382 777q-64 0 -107.5 30.5t-61.5 77.5l40 19q15 -38 49 -61t80 -23t80 23t49 61l40 -19q-18 -47 -61.5 -77.5t-107.5 -30.5z" />
    <glyph glyph-name="u041A" unicode="&#x41a;" horiz-adv-x="691" 
d="M624 0h-67q-33 187 -125 269t-272 78v-347h-60v708h60v-306q56 0 112 -8l270 314h63l-269 -328q125 -39 194.5 -132.5t93.5 -247.5z" />
    <glyph glyph-name="u041B" unicode="&#x41b;" horiz-adv-x="680" 
d="M681 0h-67l-265 638l-264 -638h-66l301 708h62z" />
    <glyph glyph-name="u041C" unicode="&#x41c;" horiz-adv-x="886" 
d="M786 0h-60v626h-12l-256 -626h-30l-256 626h-12v-626h-60v708h100l240 -596h9l237 596h100v-708z" />
    <glyph glyph-name="u041D" unicode="&#x41d;" horiz-adv-x="718" 
d="M618 0h-60v341h-398v-341h-60v708h60v-312h398v312h60v-708z" />
    <glyph glyph-name="u041E" unicode="&#x41e;" horiz-adv-x="850" 
d="M425 674q-135 0 -217 -93.5t-82 -226.5t82 -226t217 -93t217 93t82 226t-82 226.5t-217 93.5zM425 -18q-156 0 -259.5 105.5t-103.5 266.5t103.5 266.5t259.5 105.5t259.5 -105.5t103.5 -266.5t-103.5 -266.5t-259.5 -105.5z" />
    <glyph glyph-name="u041F" unicode="&#x41f;" horiz-adv-x="698" 
d="M598 0h-60v653h-378v-653h-60v708h498v-708z" />
    <glyph glyph-name="u0420" unicode="&#x420;" horiz-adv-x="580" 
d="M288 657h-128v-272h128q87 0 133 34.5t46 102.5q0 135 -179 135zM292 335h-132v-335h-60v708h194q109 0 171 -47t62 -139q0 -91 -63 -139t-172 -48z" />
    <glyph glyph-name="u0421" unicode="&#x421;" horiz-adv-x="720" 
d="M425 -18q-158 0 -260.5 105.5t-102.5 266.5t103.5 266.5t259.5 105.5q75 0 142 -29t102 -77l-51 -38q-26 38 -77.5 65t-114.5 27q-136 0 -218 -93.5t-82 -226.5q0 -132 83 -226t217 -94q136 0 210 104l46 -30q-39 -56 -104.5 -91t-152.5 -35z" />
    <glyph glyph-name="u0422" unicode="&#x422;" horiz-adv-x="570" 
d="M552 655h-237v-655h-60v655h-237v53h534v-53z" />
    <glyph glyph-name="u0423" unicode="&#x423;" horiz-adv-x="649" 
d="M630 708l-266 -555q-39 -80 -84.5 -122.5t-111.5 -42.5q-46 0 -82 16l27 52q30 -15 68 -15q37 0 65.5 29.5t57.5 89.5l-267 548h66l233 -481l225 481h69z" />
    <glyph glyph-name="u0424" unicode="&#x424;" horiz-adv-x="838" 
d="M390 87v535q-125 -10 -197.5 -84.5t-72.5 -183.5t72.5 -183t197.5 -84zM450 622v-534q124 10 196 84t72 182q0 109 -71.5 182t-196.5 86zM450 34v-85h-60v85q-149 10 -241.5 97t-92.5 223t92.5 222.5t241.5 96.5v79h60v-79q148 -10 240 -97t92 -222q0 -136 -92 -223
t-240 -97z" />
    <glyph glyph-name="u0425" unicode="&#x425;" horiz-adv-x="649" 
d="M618 0h-75l-219 329l-218 -329h-75l255 372l-232 336h75l197 -296l196 296h72l-231 -337z" />
    <glyph glyph-name="u0426" unicode="&#x426;" horiz-adv-x="721" 
d="M685 -139h-60v141h-525v706h60v-651h378v651h60v-651h87v-196z" />
    <glyph glyph-name="u0427" unicode="&#x427;" horiz-adv-x="623" 
d="M523 0h-59v326h-181q-102 0 -154.5 59t-52.5 161v162h60v-125q0 -100 35 -151.5t122 -51.5h170v328h60v-708z" />
    <glyph glyph-name="u0428" unicode="&#x428;" horiz-adv-x="989" 
d="M889 0h-789v708h60v-653h308v653h60v-653h301v653h60v-708z" />
    <glyph glyph-name="u0429" unicode="&#x429;" horiz-adv-x="1008" 
d="M972 -139h-60v141h-812v706h60v-651h308v651h60v-651h297v651h60v-651h87v-196z" />
    <glyph glyph-name="u042A" unicode="&#x42a;" horiz-adv-x="691" 
d="M396 362h-125v-309h125q84 0 131.5 43.5t47.5 112.5q0 70 -48 111.5t-131 41.5zM358 0h-147v653h-193v55h253v-294h131q106 0 169.5 -56t63.5 -150q0 -93 -77 -150.5t-200 -57.5z" />
    <glyph glyph-name="u042B" unicode="&#x42b;" horiz-adv-x="768" 
d="M284 362h-124v-309h124q179 0 179 156q0 70 -48 111.5t-131 41.5zM288 0h-188v708h60v-294h130q105 0 169 -60t64 -156q0 -92 -64 -145t-171 -53zM668 0h-60v708h60v-708z" />
    <glyph glyph-name="u042C" unicode="&#x42c;" horiz-adv-x="580" 
d="M285 362h-125v-309h125q84 0 131.5 43.5t47.5 112.5q0 70 -48 111.5t-131 41.5zM289 0h-189v708h60v-294h131q106 0 169.5 -56t63.5 -150t-64 -151t-171 -57z" />
    <glyph glyph-name="u042D" unicode="&#x42d;" horiz-adv-x="735" 
d="M322 -18q-88 0 -159 35.5t-110 90.5l46 30q36 -52 96.5 -78t125.5 -26q128 0 204.5 86.5t82.5 217.5h-425v52h425q-13 129 -90 206.5t-205 77.5q-78 0 -133 -32t-80 -73l-41 35q39 53 107.5 87.5t153.5 34.5q163 0 258 -103.5t95 -268.5q0 -163 -97.5 -267.5
t-253.5 -104.5z" />
    <glyph glyph-name="u042E" unicode="&#x42e;" horiz-adv-x="1087" 
d="M662 674q-135 0 -217 -93.5t-82 -226.5t82 -226t217 -93t217 93t82 226t-82 226.5t-217 93.5zM662 -18q-149 0 -251.5 97.5t-110.5 248.5h-140v-328h-60v708h60v-326h140q10 151 111 247.5t251 96.5q156 0 259.5 -105.5t103.5 -266.5t-103.5 -266.5t-259.5 -105.5z" />
    <glyph glyph-name="u042F" unicode="&#x42f;" horiz-adv-x="640" 
d="M480 391v262h-137q-199 0 -199 -130q0 -64 52.5 -98t145.5 -34h138zM540 0h-60v336h-87q-125 0 -194.5 -77t-84.5 -259h-67q10 126 61.5 221t129.5 129v11q-158 27 -158 162q-1 91 66.5 138t189.5 47h204v-708z" />
    <glyph glyph-name="u0430" unicode="&#x430;" horiz-adv-x="534" 
d="M391 198v42h-26q-246 0 -246 -110q0 -51 34.5 -74t81.5 -23q72 0 114 48t42 117zM450 0h-49q-6 46 -6 78h-11q-33 -48 -72 -69t-95 -21q-61 0 -108.5 34.5t-47.5 104.5q0 34 11.5 60t35 43t50.5 27.5t68 15.5t77.5 7t87.5 2v22q0 64 -34 97t-97 33q-82 0 -139 -54l-30 37
q65 63 176 63q78 0 127 -43t49 -125v-210q0 -53 7 -102z" />
    <glyph glyph-name="u0431" unicode="&#x431;" horiz-adv-x="599" 
d="M307 409q-75 0 -126.5 -46.5t-51.5 -130.5q0 -88 49 -142.5t130 -54.5q79 0 124 54t45 133q0 82 -47 134.5t-123 52.5zM307 -12q-108 0 -171.5 69t-63.5 186q0 51 5 111q16 181 93 267t229 86h129v-47h-131q-73 0 -123.5 -20.5t-80.5 -64.5t-46 -98t-26 -135
q70 114 190 114q101 0 163.5 -64.5t62.5 -169.5t-66.5 -169.5t-163.5 -64.5z" />
    <glyph glyph-name="u0432" unicode="&#x432;" horiz-adv-x="541" 
d="M281 218h-133v-174h93q30 0 46.5 0.5t41 3t37.5 8t26.5 14.5t19.5 24.5t6 36.5q0 51 -35 69t-102 18zM239 424h-91v-168h136q56 0 84.5 18t28.5 67q0 28 -11 45.5t-35.5 25.5t-48 10t-63.5 2zM300 0h-208v468h196q85 0 127 -33t42 -90q0 -47 -29 -68t-104 -42
q79 -6 117.5 -32.5t38.5 -80.5q0 -57 -45.5 -89.5t-134.5 -32.5z" />
    <glyph glyph-name="u0433" unicode="&#x433;" horiz-adv-x="388" 
d="M370 422h-222v-422h-56v468h278v-46z" />
    <glyph glyph-name="u0434" unicode="&#x434;" horiz-adv-x="544" 
d="M407 51l-132 356l-140 -356h272zM538 -139h-54v142h-423v-142h-55v190h73l172 417h52l159 -417h76v-190z" />
    <glyph glyph-name="u0435" unicode="&#x435;" horiz-adv-x="572" 
d="M292 434q-69 0 -117.5 -49.5t-52.5 -119.5h331q-3 76 -45 122.5t-116 46.5zM509 222h-388q2 -80 52 -133.5t125 -53.5q50 0 89 22.5t62 57.5l42 -33q-77 -94 -193 -94q-102 0 -169 70t-67 176q0 105 66.5 175.5t163.5 70.5q103 0 160.5 -66t57.5 -166q0 -16 -1 -26z" />
    <glyph glyph-name="u0436" unicode="&#x436;" horiz-adv-x="816" 
d="M758 0h-63q-28 122 -89 172t-170 52v-224h-56v224q-108 -2 -170.5 -52.5t-88.5 -171.5h-63q26 108 72 167.5t126 87.5l-168 213h60l157 -203q36 6 75 6v197h56v-197q37 0 75 -6l157 203h60l-169 -213q80 -28 126 -88t73 -167z" />
    <glyph glyph-name="u0437" unicode="&#x437;" horiz-adv-x="463" 
d="M218 -12q-87 0 -139 46q-23 20 -31 41l44 28q7 -15 25 -33q37 -39 108 -39q56 0 89 26t33 70q0 40 -29.5 64.5t-88.5 24.5h-54v40h44q49 0 81 23.5t32 68.5q0 40 -28 68t-82 28q-63 0 -99 -40q-14 -14 -22 -32l-42 26q11 23 31 40q52 46 133 46t121.5 -39.5t40.5 -89.5
q0 -45 -33 -76t-86 -33v-15q62 0 99 -25.5t37 -77.5q0 -62 -49.5 -101t-134.5 -39z" />
    <glyph glyph-name="u0438" unicode="&#x438;" horiz-adv-x="599" 
d="M507 0h-58v403l-296 -403h-61v468h58v-388l296 388h61v-468z" />
    <glyph glyph-name="u0439" unicode="&#x439;" horiz-adv-x="599" 
d="M507 0h-58v400l-296 -400h-61v464h58v-385l296 385h61v-464zM304 571q-103 0 -145 112l38 18q31 -88 107 -88q74 0 107 88l38 -18q-40 -112 -145 -112z" />
    <glyph glyph-name="u043A" unicode="&#x43a;" horiz-adv-x="543" 
d="M485 0h-63q-28 124 -91 173t-183 51v-224h-56v468h56v-197q47 0 83 -7l169 204h60l-179 -214q83 -28 129.5 -87.5t74.5 -166.5z" />
    <glyph glyph-name="u043B" unicode="&#x43b;" horiz-adv-x="497" 
d="M468 0h-56l-159 406l-166 -406h-58l200 468h52z" />
    <glyph glyph-name="u043C" unicode="&#x43c;" horiz-adv-x="695" 
d="M603 0h-56v390l-188 -241h-22l-189 236v-385h-56v468h49l208 -251l205 251h49v-468z" />
    <glyph glyph-name="u043D" unicode="&#x43d;" horiz-adv-x="575" 
d="M483 0h-56v228h-279v-228h-56v468h56v-194h279v194h56v-468z" />
    <glyph glyph-name="u043E" unicode="&#x43e;" horiz-adv-x="611" 
d="M305 434q-82 0 -132.5 -58t-50.5 -142q0 -85 50.5 -142t132.5 -57q83 0 133.5 57t50.5 142q0 84 -50.5 142t-133.5 58zM305 -12q-106 0 -174.5 70t-68.5 176t68.5 176t174.5 70q107 0 175.5 -70t68.5 -176t-68.5 -176t-175.5 -70z" />
    <glyph glyph-name="u043F" unicode="&#x43f;" horiz-adv-x="567" 
d="M475 0h-56v422h-271v-422h-56v468h383v-468z" />
    <glyph glyph-name="u0440" unicode="&#x440;" horiz-adv-x="635" 
d="M330 434q-81 0 -133.5 -56.5t-52.5 -141.5q0 -84 52.5 -140.5t133.5 -56.5q85 0 134 56t49 141q0 84 -49.5 141t-133.5 57zM337 -8q-50 0 -97 24t-76 68h-12v-324h-56v708h56v-83h12q29 46 75.5 70.5t97.5 24.5q105 0 170.5 -69.5t65.5 -174.5t-65.5 -174.5t-170.5 -69.5
z" />
    <glyph glyph-name="u0441" unicode="&#x441;" horiz-adv-x="500" 
d="M306 -12q-110 0 -177 69.5t-67 176.5t67 176.5t177 69.5q47 0 92 -20t73 -56l-42 -31q-20 28 -52.5 44.5t-69.5 16.5q-83 0 -134 -57t-51 -143t50.5 -142.5t133.5 -56.5q80 0 128 60l41 -31q-63 -76 -169 -76z" />
    <glyph glyph-name="u0442" unicode="&#x442;" horiz-adv-x="431" 
d="M415 422h-177v-422h-56v422h-166v46h399v-46z" />
    <glyph glyph-name="u0443" unicode="&#x443;" horiz-adv-x="488" 
d="M463 468l-230 -591q-23 -59 -55 -88t-86 -29q-26 0 -54 5l5 50q23 -6 45 -6q36 0 58 22t38 66l38 102l-197 469h63l159 -402h10l145 402h61z" />
    <glyph glyph-name="u0444" unicode="&#x444;" horiz-adv-x="667" 
d="M308 37v394q-86 -2 -136 -57.5t-50 -139.5q0 -83 51 -140t135 -57zM358 431v-394q86 0 136.5 56.5t50.5 140.5q0 83 -50.5 139t-136.5 58zM358 -9v-236h-50v236q-107 0 -176.5 69.5t-69.5 173.5q0 105 68 173t178 70v279h50v-279q109 0 178 -69.5t69 -173.5
q0 -106 -68.5 -174.5t-178.5 -68.5z" />
    <glyph glyph-name="u0445" unicode="&#x445;" horiz-adv-x="484" 
d="M456 0h-73l-142 204l-146 -204h-67l180 242l-169 226h72l131 -187l131 187h67l-166 -223z" />
    <glyph glyph-name="u0446" unicode="&#x446;" horiz-adv-x="571" 
d="M545 -139h-56v142h-397v465h56v-415h263v415h56v-415h78v-192z" />
    <glyph glyph-name="u0447" unicode="&#x447;" horiz-adv-x="516" 
d="M424 0h-56v179h-109q-121 0 -162 43.5t-41 143.5v102h56v-64q0 -56 3 -83t17.5 -52.5t44.5 -34.5t83 -9h108v243h56v-468z" />
    <glyph glyph-name="u0448" unicode="&#x448;" horiz-adv-x="797" 
d="M705 0h-613v468h56v-422h222v422h56v-422h223v422h56v-468z" />
    <glyph glyph-name="u0449" unicode="&#x449;" horiz-adv-x="809" 
d="M783 -139h-56v142h-635v465h56v-419h222v419h56v-419h223v419h56v-419h78v-188z" />
    <glyph glyph-name="u044A" unicode="&#x44a;" horiz-adv-x="552" 
d="M299 259h-87v-215h90q64 0 99 24t35 84q0 107 -137 107zM318 0h-162v422h-140v46h196v-166h102q182 0 182 -150q0 -66 -46 -109t-132 -43z" />
    <glyph glyph-name="u044B" unicode="&#x44b;" horiz-adv-x="653" 
d="M235 259h-87v-215h90q64 0 99 24t35 84q0 107 -137 107zM254 0h-162v468h56v-166h102q182 0 182 -150q0 -66 -46 -109t-132 -43zM561 0h-56v468h56v-468z" />
    <glyph glyph-name="u044C" unicode="&#x44c;" horiz-adv-x="510" 
d="M255 259h-107v-215h110q136 0 136 108q0 107 -139 107zM274 0h-182v468h56v-166h122q97 0 140.5 -40.5t43.5 -109.5q0 -66 -47 -109t-133 -43z" />
    <glyph glyph-name="u044D" unicode="&#x44d;" horiz-adv-x="541" 
d="M243 -12q-116 0 -193 94l42 33q23 -35 62 -57.5t89 -22.5q74 0 126.5 54t54.5 133h-265v43h264q-4 71 -52 120t-123 49q-103 0 -153 -81l-40 35q66 92 194 92q106 0 168 -68.5t62 -177.5q0 -106 -67 -176t-169 -70z" />
    <glyph glyph-name="u044E" unicode="&#x44e;" horiz-adv-x="807" 
d="M501 434q-82 0 -132.5 -58t-50.5 -142q0 -85 50.5 -142t132.5 -57q83 0 133.5 57t50.5 142q0 84 -50.5 142t-133.5 58zM501 -12q-104 0 -171.5 67t-71.5 173h-110v-228h-56v468h56v-194h113q14 92 80 149t160 57q107 0 175.5 -70t68.5 -176t-68.5 -176t-175.5 -70z" />
    <glyph glyph-name="u044F" unicode="&#x44f;" horiz-adv-x="539" 
d="M391 255v165h-106q-25 0 -41.5 -1t-36.5 -6t-31.5 -13.5t-19.5 -24.5t-8 -38q0 -26 11.5 -43.5t33.5 -25.5t43 -10.5t50 -2.5h105zM447 0h-56v206h-87q-153 0 -173 -206h-64q7 81 42 139.5t96 79.5v13q-117 13 -117 105q0 63 47.5 97t140.5 34h171v-468z" />
    <glyph glyph-name="u0451" unicode="&#x451;" horiz-adv-x="572" 
d="M292 430q-69 0 -117.5 -49t-52.5 -118h331q-3 76 -45 121.5t-116 45.5zM509 220h-388q2 -79 52 -132t125 -53q50 0 89 22t62 57l42 -32q-76 -94 -193 -94q-102 0 -169 69.5t-67 174.5q0 104 66.5 174t163.5 70q103 0 160.5 -65t57.5 -165q0 -16 -1 -26zM203 606
q-20 0 -32.5 13.5t-12.5 32.5t12.5 32.5t32.5 13.5t32.5 -13.5t12.5 -32.5t-12.5 -32.5t-32.5 -13.5zM395 606q-20 0 -32.5 13.5t-12.5 32.5t12.5 32.5t32.5 13.5t32.5 -13.5t12.5 -32.5t-12.5 -32.5t-32.5 -13.5z" />
    <glyph glyph-name="u0452" unicode="&#x452;" horiz-adv-x="586" 
d="M319 -210q-48 0 -82 20l30 44q19 -13 49 -13q65 0 93.5 44.5t28.5 133.5v240q0 82 -30 127t-103 45q-62 0 -105 -49.5t-43 -141.5v-237h-56v582h-105v39h105v132h56v-132h188v-39h-188v-199h12q18 42 60.5 66.5t92.5 24.5q84 0 128 -50.5t44 -139.5v-297
q0 -89 -46.5 -144.5t-128.5 -55.5z" />
    <glyph glyph-name="u0453" unicode="&#x453;" horiz-adv-x="388" 
d="M370 418h-222v-418h-56v464h278v-46zM360 678l-121 -134h-45l92 134h74z" />
    <glyph glyph-name="u0454" unicode="&#x454;" horiz-adv-x="564" 
d="M299 -12q-97 0 -163 70.5t-66 175.5q0 109 62 177.5t168 68.5q128 0 194 -92l-40 -35q-50 81 -153 81q-75 0 -123 -49t-52 -120h264v-43h-265q2 -79 54.5 -133t126.5 -54q99 0 151 80l42 -33q-76 -94 -200 -94z" />
    <glyph glyph-name="u0455" unicode="&#x455;" horiz-adv-x="444" 
d="M223 -12q-116 0 -177 86l44 33q21 -32 56 -52t76 -20q51 0 83.5 21.5t32.5 68.5q0 39 -34.5 60t-108.5 39q-26 6 -44.5 13t-40 20.5t-33 36t-11.5 53.5q0 65 46.5 99t114.5 34q47 0 90 -21t66 -57l-42 -33q-17 30 -48 47.5t-69 17.5q-43 0 -74 -20t-31 -61q0 -37 28 -56
t89 -32q83 -18 120 -50t37 -85q0 -72 -49.5 -107t-120.5 -35z" />
    <glyph glyph-name="u0456" unicode="&#x456;" horiz-adv-x="250" 
d="M153 0h-56v464h56v-464zM125 611q-16 0 -29 12t-13 30t13 30.5t29 12.5t29 -12.5t13 -30.5t-13 -30t-29 -12z" />
    <glyph glyph-name="u0457" unicode="&#x457;" horiz-adv-x="250" 
d="M153 0h-56v464h56v-464zM30 606q-20 0 -32.5 13.5t-12.5 32.5t12.5 32.5t32.5 13.5t32.5 -13.5t12.5 -32.5t-12.5 -32.5t-32.5 -13.5zM222 606q-20 0 -32.5 13.5t-12.5 32.5t12.5 32.5t32.5 13.5t32.5 -13.5t12.5 -32.5t-12.5 -32.5t-32.5 -13.5z" />
    <glyph glyph-name="u0458" unicode="&#x458;" horiz-adv-x="251" 
d="M27 -240q-22 0 -47 5l8 46q16 -4 38 -4q43 0 57.5 27.5t14.5 79.5v551h56v-562q0 -143 -127 -143zM126 611q-16 0 -29 12.5t-13 29.5q0 18 13 30.5t29 12.5t29 -12.5t13 -30.5q0 -17 -13 -29.5t-29 -12.5z" />
    <glyph glyph-name="u0459" unicode="&#x459;" horiz-adv-x="707" 
d="M472 259h-122l81 -215h44q64 0 99 24t35 84t-34 83.5t-103 23.5zM491 0h-99l-149 407l-156 -407h-58l190 468h52l63 -166h153q97 0 140.5 -40.5t43.5 -109.5q0 -66 -47 -109t-133 -43z" />
    <glyph glyph-name="u045A" unicode="&#x45a;" horiz-adv-x="825" 
d="M570 231h-87v-187h90q65 0 100.5 19.5t35.5 71.5q0 96 -139 96zM589 0h-162v228h-279v-228h-56v468h56v-194h279v194h56v-194h102q97 0 140.5 -38.5t43.5 -100.5q0 -58 -47 -96.5t-133 -38.5z" />
    <glyph glyph-name="u045B" unicode="&#x45b;" horiz-adv-x="586" 
d="M494 0h-56v257q0 83 -30 128t-103 45q-61 0 -104.5 -50t-43.5 -142v-238h-56v584h-105v40h105v132h56v-132h188v-40h-188v-199h12q18 42 60.5 66.5t92.5 24.5q84 0 128 -50.5t44 -139.5v-286z" />
    <glyph glyph-name="u045C" unicode="&#x45c;" horiz-adv-x="543" 
d="M485 0h-63q-28 123 -90.5 171.5t-183.5 50.5v-222h-56v464h56v-195q47 0 83 -7l169 202h60l-179 -213q83 -26 129.5 -85.5t74.5 -165.5zM396 678l-121 -134h-45l92 134h74z" />
    <glyph glyph-name="u045E" unicode="&#x45e;" horiz-adv-x="488" 
d="M463 465l-230 -588q-23 -59 -55 -88t-86 -29q-26 0 -54 5l5 50q23 -6 45 -6q36 0 58 22t38 66l38 101l-197 467h63l159 -400h10l145 400h61zM244 587q-58 0 -97.5 27t-54.5 68l36 17q30 -75 116 -75t116 75l35 -17q-17 -42 -55.5 -68.5t-95.5 -26.5z" />
    <glyph glyph-name="u045F" unicode="&#x45f;" horiz-adv-x="559" 
d="M467 3h-153v-142h-54v142h-168v465h56v-417h263v417h56v-465z" />
    <glyph glyph-name="u0490" unicode="&#x490;" horiz-adv-x="528" 
d="M492 653h-332v-653h-60v706h338v161h54v-214z" />
    <glyph glyph-name="u0491" unicode="&#x491;" horiz-adv-x="406" 
d="M380 419h-232v-419h-56v465h234v169h54v-215z" />
    <glyph glyph-name="palochkacyrillic" unicode="&#x4c0;" horiz-adv-x="260" 
d="M160 0h-60v708h60v-708z" />
    <glyph glyph-name="Aiecyrillic" unicode="&#x4d4;" horiz-adv-x="990" 
d="M525 253v402h-23l-255 -402h278zM930 0h-405v201h-307l-128 -201h-68l453 708h443v-53h-333v-260h309v-52h-309v-290h345v-53z" />
    <glyph glyph-name="aiecyrillic" unicode="&#x4d5;" horiz-adv-x="870" 
d="M386 181v41h-26q-42 0 -70.5 -1.5t-63.5 -7t-56 -15.5t-35.5 -29t-14.5 -46q0 -91 117 -91q73 0 111 40t38 109zM601 434q-64 0 -111.5 -50.5t-49.5 -118.5h311q0 76 -40 122.5t-110 46.5zM808 222h-371q2 -80 50 -134t119 -54q48 0 85.5 22.5t59.5 57.5l39 -32
q-72 -94 -184 -94q-133 0 -186 121q-29 -68 -78 -94.5t-117 -26.5q-67 0 -115 33t-48 101q0 37 18 64t46 42t73.5 23.5t87 11t99.5 2.5v21q0 67 -32 107.5t-94 40.5q-84 0 -143 -54l-32 36q31 29 80.5 46.5t104.5 17.5q113 0 153 -108q65 108 178 108q98 0 152.5 -65.5
t54.5 -166.5v-26z" />
    <glyph glyph-name="Aringbelow" unicode="&#x1e00;" horiz-adv-x="700" 
d="M350 -109q-27 0 -46.5 -19t-19.5 -47t19.5 -47t46.5 -19t46.5 19t19.5 47t-19.5 47t-46.5 19zM514 246l-165 403l-165 -403h330zM350 -265q-37 0 -63.5 26t-26.5 64q0 37 26.5 63.5t63.5 26.5t63.5 -26.5t26.5 -63.5q0 -38 -26.5 -64t-63.5 -26zM681 3h-67l-78 189h-374
l-77 -189h-66l301 705h62z" />
    <glyph glyph-name="aringbelow" unicode="&#x1e01;" horiz-adv-x="534" 
d="M256 -121q-27 0 -46.5 -19t-19.5 -47t19.5 -47t46.5 -19t46.5 19t19.5 47t-19.5 47t-46.5 19zM391 201v41h-26q-246 0 -246 -108q0 -51 34.5 -74t81.5 -23q72 0 114 47.5t42 116.5zM256 -277q-37 0 -63.5 26t-26.5 64t26.5 64.5t63.5 26.5t63.5 -26.5t26.5 -64.5
t-26.5 -64t-63.5 -26zM450 4h-49q-6 44 -6 78h-11q-33 -48 -72 -69t-95 -21q-61 0 -108.5 34.5t-47.5 103.5q0 41 18 70t45.5 45t73.5 25t88.5 11.5t104.5 2.5v21q0 129 -131 129q-81 0 -139 -53l-30 37q65 62 176 62q78 0 127 -43t49 -124v-208q0 -52 7 -101z" />
    <glyph glyph-name="uni1E02" unicode="&#x1e02;" horiz-adv-x="628" 
d="M507 195q0 75 -52.5 113.5t-137.5 38.5h-164v-299h151q90 0 146.5 36t56.5 111zM292 660h-139v-267h154q67 0 116.5 33t49.5 101q0 70 -50 101.5t-131 31.5zM562 194q0 -94 -70 -144t-182 -50h-212v708h205q60 0 107.5 -14.5t82.5 -55.5t35 -106q0 -61 -36.5 -102.5
t-95.5 -54.5v-2q70 -8 118 -54.5t48 -124.5zM297 892q16 0 28 -11.5t12 -28.5t-12 -29t-28 -12q-15 0 -27 11.5t-12 29.5q0 17 12 28.5t27 11.5z" />
    <glyph glyph-name="uni1E03" unicode="&#x1e03;" horiz-adv-x="633" 
d="M520 232q0 85 -51 143.5t-136 58.5q-82 0 -136.5 -58t-54.5 -143t54.5 -143t136.5 -58q85 0 136 57.5t51 142.5zM575 232q0 -106 -66.5 -175.5t-171.5 -69.5q-57 0 -108 28t-79 79h-2v-94h-53v756h53v-387h2q29 53 79.5 81t107.5 28q106 0 172 -70t66 -176zM195 880
q15 0 27 -11.5t12 -28.5t-12 -29t-27 -12q-16 0 -28 12t-12 29t12 28.5t28 11.5z" />
    <glyph glyph-name="Bdotbelow" unicode="&#x1e04;" horiz-adv-x="636" 
d="M313 346h-153v-293h140q87 0 144 35.5t57 110.5q0 73 -49 110t-139 37zM291 657h-131v-263h151q62 0 109 31.5t47 100.5q0 68 -49 99.5t-127 31.5zM291 -171q-16 0 -29 12.5t-13 30.5t13 30t29 12t29 -12t13 -30t-13 -30.5t-29 -12.5zM304 2h-204v706h205
q93 0 157.5 -41.5t64.5 -135.5q0 -55 -33.5 -96t-91.5 -54v-12q73 -8 116.5 -53.5t43.5 -120.5q0 -87 -69.5 -140t-188.5 -53z" />
    <glyph glyph-name="bdotbelow" unicode="&#x1e05;" horiz-adv-x="637" 
d="M332 431q-81 0 -133.5 -56.5t-52.5 -141.5q0 -84 52.5 -140t133.5 -56q85 0 134 55.5t49 140.5q0 84 -49.5 141t-133.5 57zM336 -183q-16 0 -29 12.5t-13 30.5q0 17 13 29.5t29 12.5t29 -12.5t13 -29.5q0 -18 -13 -30.5t-29 -12.5zM339 -10q-51 0 -97.5 23.5t-76.5 68.5
h-11v-80h-56v754h56v-374h11q30 46 76.5 70t97.5 24q105 0 170.5 -69t65.5 -174q0 -104 -65.5 -173.5t-170.5 -69.5z" />
    <glyph glyph-name="Blinebelow" unicode="&#x1e06;" horiz-adv-x="636" 
d="M313 346h-153v-293h140q87 0 144 35.5t57 110.5q0 73 -49 110t-139 37zM291 657h-131v-264h151q62 0 109 32t47 100q0 69 -49 100.5t-127 31.5zM410 -129h-258v43h258v-43zM304 2h-204v706h205q43 0 80.5 -9t70.5 -28t52 -55t19 -86q0 -55 -33.5 -95.5t-91.5 -53.5v-12
q73 -9 116.5 -54t43.5 -120q0 -87 -69.5 -140t-188.5 -53z" />
    <glyph glyph-name="blinebelow" unicode="&#x1e07;" horiz-adv-x="637" 
d="M332 431q-80 0 -133 -57t-53 -141t52.5 -140.5t133.5 -56.5q84 0 133.5 56t49.5 141q0 84 -49.5 141t-133.5 57zM465 -141h-258v43h258v-43zM339 -10q-51 0 -97.5 23.5t-76.5 68.5h-11v-80h-56v754h56v-374h11q30 46 76.5 70t97.5 24q105 0 170.5 -69t65.5 -174
t-65.5 -174t-170.5 -69z" />
    <glyph glyph-name="Ccedillaacute" unicode="&#x1e08;" horiz-adv-x="720" 
d="M422 -16l-46 -74q31 9 49 9q31 0 53.5 -18t22.5 -49q0 -43 -33 -62.5t-79 -19.5q-44 0 -86 17l11 25q29 -12 69 -12q22 0 46 12.5t24 38.5q0 45 -60 45q-22 0 -42 -7l-11 10l54 86q-149 15 -240.5 117t-91.5 252q0 160 103.5 265t259.5 105q75 0 142 -29t102 -77l-51 -37
q-26 38 -77.5 64.5t-114.5 26.5q-136 0 -218 -93t-82 -225t83 -225t217 -93q137 0 210 104l46 -30q-88 -126 -260 -126zM535 945l-121 -133h-45l92 133h74z" />
    <glyph glyph-name="ccedillaacute" unicode="&#x1e09;" horiz-adv-x="500" 
d="M309 -9l-50 -81q27 9 49 9q31 0 53.5 -18t22.5 -49q0 -43 -33 -62.5t-79 -19.5q-44 0 -86 17l11 26q29 -13 69 -13q22 0 46 12.5t24 38.5q0 46 -60 46q-20 0 -42 -8l-11 10l57 93q-102 13 -160 78.5t-58 163.5q0 106 67 174.5t177 68.5q47 0 92 -19.5t73 -55.5l-42 -31
q-20 28 -52.5 44.5t-69.5 16.5q-83 0 -134 -56.5t-51 -141.5q0 -84 50.5 -140.5t133.5 -56.5q80 0 128 60l41 -31q-58 -71 -166 -75zM412 699l-121 -134h-45l92 134h74z" />
    <glyph glyph-name="uni1E0A" unicode="&#x1e0a;" horiz-adv-x="761" 
d="M642 354q0 136 -90 220.5t-245 84.5h-154v-610h154q155 0 245 85t90 220zM700 354q0 -114 -55.5 -196.5t-139.5 -120t-183 -37.5h-224v708h224q99 0 183 -37.5t139.5 -120t55.5 -196.5zM350 892q15 0 27 -11.5t12 -28.5t-12 -29t-27 -12q-16 0 -28 12t-12 29t12 28.5
t28 11.5z" />
    <glyph glyph-name="uni1E0B" unicode="&#x1e0b;" horiz-adv-x="633" 
d="M491 233q0 85 -54 143t-136 58q-86 0 -137 -58t-51 -144q0 -85 51 -142.5t137 -57.5q82 0 136 58t54 143zM538 756v-756h-53v94h-2q-29 -51 -79 -79t-108 -28q-105 0 -171.5 69.5t-66.5 175.5t66.5 176t171.5 70q58 0 108 -28t79 -81h2v387h53zM440 880q15 0 27 -11.5
t12 -28.5q0 -18 -11.5 -29.5t-27.5 -11.5t-28 12t-12 29t12 28.5t28 11.5z" />
    <glyph glyph-name="Ddotbelow" unicode="&#x1e0c;" horiz-adv-x="757" 
d="M309 655h-149v-600h149q104 0 179 44.5t109 111t34 144.5t-34 144.5t-109 111t-179 44.5zM287 -171q-16 0 -29 12.5t-13 30.5t13 30t29 12t29 -12t13 -30t-13 -30.5t-29 -12.5zM329 2h-229v706h229q67 0 131 -22.5t117 -65t85.5 -111.5t32.5 -154t-32.5 -154
t-85.5 -111.5t-117 -65t-131 -22.5z" />
    <glyph glyph-name="ddotbelow" unicode="&#x1e0d;" horiz-adv-x="637" 
d="M305 431q-84 0 -133.5 -57t-49.5 -141q0 -85 49 -140.5t134 -55.5q81 0 133.5 56t52.5 140q0 85 -52.5 141.5t-133.5 56.5zM320 -183q-16 0 -29 12.5t-13 30.5q0 17 13 29.5t29 12.5t29 -12.5t13 -29.5q0 -18 -13 -30.5t-29 -12.5zM539 2h-56v80h-11q-30 -45 -76.5 -68.5
t-97.5 -23.5q-105 0 -170.5 69.5t-65.5 173.5q0 105 65.5 174t170.5 69q51 0 97.5 -24t76.5 -70h11v374h56v-754z" />
    <glyph glyph-name="Dlinebelow" unicode="&#x1e0e;" horiz-adv-x="757" 
d="M309 655h-149v-600h149q104 0 179 44.5t109 111t34 144.5t-34 144.5t-109 111t-179 44.5zM376 -129h-258v43h258v-43zM329 2h-229v706h229q67 0 131 -22.5t117 -65t85.5 -111.5t32.5 -154t-32.5 -154t-85.5 -111.5t-117 -65t-131 -22.5z" />
    <glyph glyph-name="dlinebelow" unicode="&#x1e0f;" horiz-adv-x="637" 
d="M305 431q-84 0 -133.5 -57t-49.5 -141q0 -85 49.5 -141t133.5 -56q81 0 133.5 56.5t52.5 140.5t-53 141t-133 57zM419 -141h-258v43h258v-43zM539 2h-56v80h-11q-30 -45 -76.5 -68.5t-97.5 -23.5q-105 0 -170.5 69t-65.5 174t65.5 174t170.5 69q51 0 97.5 -24t76.5 -70
h11v374h56v-754z" />
    <glyph glyph-name="Dcircumflexbelow" unicode="&#x1e12;" horiz-adv-x="757" 
d="M309 655h-149v-599h149q104 0 179 44t109 110.5t34 144.5t-34 144.5t-109 111t-179 44.5zM434 -219h-51l-86 113l-86 -113h-51l100 134h74zM329 3h-229v705h229q67 0 131 -22.5t117 -65t85.5 -111.5t32.5 -154q0 -84 -32.5 -153t-85.5 -111.5t-117 -65t-131 -22.5z" />
    <glyph glyph-name="dcircumflexbelow" unicode="&#x1e13;" horiz-adv-x="637" 
d="M305 431q-84 0 -133.5 -56.5t-49.5 -140.5q0 -85 49.5 -141t133.5 -56q81 0 133.5 56.5t52.5 140.5t-53 140.5t-133 56.5zM467 -231h-51l-86 113l-86 -113h-51l100 134h74zM539 3h-56v80h-11q-30 -45 -76.5 -68.5t-97.5 -23.5q-105 0 -170.5 69t-65.5 174
q0 104 65.5 173.5t170.5 69.5q51 0 97.5 -24.5t76.5 -70.5h11v374h56v-753z" />
    <glyph glyph-name="Emacrongrave" unicode="&#x1e14;" horiz-adv-x="592" 
d="M539 0h-439v704h427v-53h-367v-259h343v-51h-343v-288h379v-53zM448 792h-258v42h258v-42zM365 922h-45l-121 134h74z" />
    <glyph glyph-name="emacrongrave" unicode="&#x1e15;" horiz-adv-x="572" 
d="M292 429q-69 0 -117.5 -49t-52.5 -118h331q-3 76 -45 121.5t-116 45.5zM509 219h-388q2 -78 52 -131t125 -53q50 0 89 22t62 57l42 -33q-76 -93 -193 -93q-102 0 -169 69.5t-67 173.5t66.5 174t163.5 70q103 0 160.5 -65t57.5 -164q0 -17 -1 -27zM415 563h-258v43h258
v-43zM331 694h-45l-121 134h74z" />
    <glyph glyph-name="Emacronacute" unicode="&#x1e16;" horiz-adv-x="592" 
d="M539 0h-439v704h427v-53h-367v-259h343v-51h-343v-288h379v-53zM448 792h-258v42h258v-42zM435 1056l-121 -134h-45l92 134h74z" />
    <glyph glyph-name="emacronacute" unicode="&#x1e17;" horiz-adv-x="572" 
d="M292 429q-69 0 -117.5 -49t-52.5 -118h331q-3 76 -45 121.5t-116 45.5zM509 219h-388q2 -78 52 -131t125 -53q50 0 89 22t62 57l42 -33q-76 -93 -193 -93q-102 0 -169 69.5t-67 173.5t66.5 174t163.5 70q103 0 160.5 -65t57.5 -164q0 -17 -1 -27zM415 563h-258v43h258
v-43zM405 828l-121 -134h-45l92 134h74z" />
    <glyph glyph-name="Ecircumflexbelow" unicode="&#x1e18;" horiz-adv-x="592" 
d="M456 -219h-51l-86 113l-86 -113h-51l100 134h74zM539 3h-439v705h427v-53h-367v-259h343v-52h-343v-288h379v-53z" />
    <glyph glyph-name="ecircumflexbelow" unicode="&#x1e19;" horiz-adv-x="572" 
d="M292 434q-69 0 -117.5 -49t-52.5 -119h331q-3 76 -45 122t-116 46zM423 -231h-51l-86 114l-86 -114h-51l100 134h74zM509 224h-388q2 -79 52 -132t125 -53q50 0 89 22t62 57l42 -33q-76 -93 -193 -93q-102 0 -169 69.5t-67 174.5q0 104 66.5 174t163.5 70
q103 0 160.5 -65t57.5 -165q0 -16 -1 -26z" />
    <glyph glyph-name="Etildebelow" unicode="&#x1e1a;" horiz-adv-x="592" 
d="M389 -179q-26 0 -70 23q-46 24 -70 24q-37 0 -54 -51h-31q17 93 85 93q22 0 70 -22q24 -12 36 -17q19 -7 34 -7q37 0 54 50h31q-17 -93 -85 -93zM539 2h-439v706h427v-53h-367v-259h343v-52h-343v-289h379v-53z" />
    <glyph glyph-name="etildebelow" unicode="&#x1e1b;" horiz-adv-x="572" 
d="M292 434q-69 0 -117.5 -49t-52.5 -119h331q-3 76 -45 122t-116 46zM356 -191q-26 0 -70 23q-46 24 -70 24q-37 0 -54 -51h-31q17 94 85 94q24 0 70 -23q24 -12 36 -16q18 -8 34 -8q37 0 54 51h31q-17 -94 -85 -94zM509 223h-388q2 -79 52 -132t125 -53q50 0 89 22.5
t62 57.5l42 -33q-77 -94 -193 -94q-102 0 -169 69.5t-67 175.5q0 104 66.5 174t163.5 70q103 0 160.5 -65.5t57.5 -164.5q0 -17 -1 -27z" />
    <glyph glyph-name="Ecedillabreve" unicode="&#x1e1c;" horiz-adv-x="592" 
d="M539 2h-187l-58 -93q27 10 49 10q31 0 53.5 -18t22.5 -49q0 -43 -33 -62.5t-79 -19.5q-44 0 -86 17l11 26q29 -13 69 -13q22 0 46 12.5t24 38.5q0 45 -60 45q-22 0 -42 -7l-11 10l65 103h-223v704h427v-53h-367v-258h343v-52h-343v-288h379v-53zM319 794q-59 0 -97 32
t-44 89h33q9 -38 38.5 -58.5t69.5 -20.5t69.5 20.5t38.5 58.5h33q-6 -57 -44 -89t-97 -32z" />
    <glyph glyph-name="ecedillabreve" unicode="&#x1e1d;" horiz-adv-x="572" 
d="M292 432q-69 0 -117.5 -49t-52.5 -118h331q-3 76 -45 121.5t-116 45.5zM509 222h-388q2 -78 52 -131t125 -53q50 0 89 22t62 57l41 -33q-66 -81 -173 -92l-56 -94q27 9 49 9q31 0 53.5 -18t22.5 -49q0 -43 -33 -62.5t-79 -19.5q-44 0 -86 17l11 26q29 -13 69 -13
q22 0 46 12.5t24 38.5q0 46 -60 46q-20 0 -42 -8l-11 10l62 104q-100 9 -162.5 76.5t-62.5 166.5q0 104 66.5 173.5t163.5 69.5q103 0 160.5 -65t57.5 -164q0 -16 -1 -26zM286 565q-59 0 -97 32.5t-44 89.5h33q9 -38 38.5 -58.5t69.5 -20.5t69.5 20.5t38.5 58.5h33
q-6 -57 -44 -89.5t-97 -32.5z" />
    <glyph glyph-name="uni1E1E" unicode="&#x1e1e;" horiz-adv-x="561" 
d="M517 708v-49h-364v-268h339v-49h-339v-342h-55v708h419zM307 892q16 0 28 -11.5t12 -28.5t-12 -29t-28 -12q-15 0 -27 11.5t-12 29.5q0 17 12 28.5t27 11.5z" />
    <glyph glyph-name="uni1E1F" unicode="&#x1e1f;" horiz-adv-x="291" 
d="M312 761l-10 -45q-21 6 -44 6q-92 0 -92 -121v-136h115v-44h-115v-421h-52v421h-98v44h97v141q0 80 38.5 121t107.5 41q31 0 53 -7zM178 920q16 0 28 -11.5t12 -28.5t-12 -29t-28 -12q-15 0 -27 12t-12 29t12 28.5t27 11.5z" />
    <glyph glyph-name="Gmacron" unicode="&#x1e20;" horiz-adv-x="779" 
d="M425 -18q-158 0 -260.5 105t-102.5 266t103.5 266t259.5 105q155 0 247 -90l-41 -42q-78 80 -205 80q-134 0 -217 -93.5t-83 -225.5t82.5 -225t217.5 -93q124 0 197 49v228h-165v51h225v-314q-112 -67 -258 -67zM551 812h-258v43h258v-43z" />
    <glyph glyph-name="gmacron" unicode="&#x1e21;" horiz-adv-x="632" 
d="M305 433q-84 0 -133.5 -56t-49.5 -136q0 -81 49.5 -136t133.5 -55q81 0 133.5 53t52.5 138q0 78 -53.5 135t-132.5 57zM291 -240q-130 0 -217 89l41 44q30 -37 78.5 -60.5t100.5 -23.5q97 0 143 53.5t46 138.5v96h-11q-27 -44 -75 -69t-99 -25q-106 0 -171 66.5
t-65 169.5q0 101 66 170t170 69q51 0 98.5 -25t75.5 -69h11v82h56v-465q0 -42 -11 -80.5t-36.5 -76.5t-77 -61t-123.5 -23zM419 566h-258v43h258v-43z" />
    <glyph glyph-name="uni1E22" unicode="&#x1e22;" horiz-adv-x="723" 
d="M625 708v-708h-55v342h-417v-342h-55v708h55v-315h417v315h55zM361 892q16 0 28 -11.5t12 -28.5t-12 -29t-28 -12q-15 0 -27 11.5t-12 29.5q0 17 12 28.5t27 11.5z" />
    <glyph glyph-name="uni1E23" unicode="&#x1e23;" horiz-adv-x="578" 
d="M489 284v-284h-53v265q0 169 -132 169q-65 0 -110.5 -52t-45.5 -145v-237h-53v756h53v-383h2q18 48 64 76.5t101 28.5q87 0 130.5 -53.5t43.5 -140.5zM181 880q16 0 28 -11.5t12 -28.5t-12 -29t-28 -12q-15 0 -27 11.5t-12 29.5q0 17 12 28.5t27 11.5z" />
    <glyph glyph-name="Hdotbelow" unicode="&#x1e24;" horiz-adv-x="718" 
d="M359 -171q-16 0 -29 12.5t-13 30.5t13 30t29 12t29 -12t13 -30t-13 -30.5t-29 -12.5zM618 2h-60v340h-398v-340h-60v706h60v-311h398v311h60v-706z" />
    <glyph glyph-name="hdotbelow" unicode="&#x1e25;" horiz-adv-x="583" 
d="M294 -171q-16 0 -29 12.5t-13 30.5t13 30t29 12t29 -12t13 -30t-13 -30.5t-29 -12.5zM491 2h-56v257q0 82 -30 127t-103 45q-62 0 -105 -50t-43 -142v-237h-56v754h56v-370h12q18 42 60.5 66t92.5 24q84 0 128 -50.5t44 -138.5v-285z" />
    <glyph glyph-name="Hdieresis" unicode="&#x1e26;" horiz-adv-x="718" 
d="M618 0h-60v340h-398v-340h-60v706h60v-312h398v312h60v-706zM263 794q-20 0 -32.5 13t-12.5 32t12.5 32.5t32.5 13.5t32.5 -13.5t12.5 -32.5t-12.5 -32t-32.5 -13zM455 794q-20 0 -32.5 13t-12.5 32t12.5 32.5t32.5 13.5t32.5 -13.5t12.5 -32.5t-12.5 -32t-32.5 -13z" />
    <glyph glyph-name="hdieresis" unicode="&#x1e27;" horiz-adv-x="583" 
d="M491 0h-56v256q0 83 -30 128t-103 45q-61 0 -104.5 -50t-43.5 -142v-237h-56v754h56v-370h12q18 41 60.5 65.5t92.5 24.5q84 0 128 -50.5t44 -138.5v-285zM27 842q-20 0 -32.5 13t-12.5 32t12.5 32.5t32.5 13.5t32.5 -13.5t12.5 -32.5t-12.5 -32t-32.5 -13zM219 842
q-20 0 -32.5 13t-12.5 32t12.5 32.5t32.5 13.5t32.5 -13.5t12.5 -32.5t-12.5 -32t-32.5 -13z" />
    <glyph glyph-name="Hcedilla" unicode="&#x1e28;" horiz-adv-x="718" 
d="M618 3h-60v339h-398v-343l-55 -89q27 9 49 9q31 0 53.5 -18t22.5 -49q0 -43 -33 -62.5t-79 -19.5q-44 0 -86 17l11 26q29 -13 69 -13q22 0 46 12.5t24 38.5q0 46 -60 46q-20 0 -42 -8l-11 10l65 104h-34v705h60v-311h398v311h60v-705z" />
    <glyph glyph-name="hcedilla" unicode="&#x1e29;" horiz-adv-x="583" 
d="M491 3h-56v256q0 82 -30 127t-103 45q-62 0 -105 -49.5t-43 -141.5v-241l-55 -89q27 9 49 9q31 0 53.5 -18t22.5 -49q0 -43 -33 -62.5t-79 -19.5q-44 0 -86 17l11 26q29 -13 69 -13q22 0 46 12.5t24 38.5q0 46 -60 46q-20 0 -42 -8l-11 10l65 104h-30v753h56v-370h12
q18 42 60.5 66.5t92.5 24.5q84 0 128 -50.5t44 -139.5v-284z" />
    <glyph glyph-name="Hbrevebelow" unicode="&#x1e2a;" horiz-adv-x="718" 
d="M359 -207q-59 0 -97 32t-44 90h33q9 -38 38.5 -58.5t69.5 -20.5t69.5 20.5t38.5 58.5h33q-6 -58 -44 -90t-97 -32zM618 3h-60v339h-398v-339h-60v705h60v-311h398v311h60v-705z" />
    <glyph glyph-name="hbrevebelow" unicode="&#x1e2b;" horiz-adv-x="583" 
d="M294 -207q-59 0 -97 32t-44 90h33q9 -38 38.5 -58.5t69.5 -20.5t69.5 20.5t38.5 58.5h33q-6 -58 -44 -90t-97 -32zM491 3h-56v256q0 82 -30 127t-103 45q-62 0 -105 -49.5t-43 -141.5v-237h-56v753h56v-370h12q18 42 60.5 66.5t92.5 24.5q84 0 128 -50.5t44 -139.5v-284z
" />
    <glyph glyph-name="Itildebelow" unicode="&#x1e2c;" horiz-adv-x="260" 
d="M200 -179q-26 0 -70 23q-46 24 -70 24q-37 0 -54 -51h-31q17 93 85 93q22 0 70 -22q24 -12 36 -17q19 -7 34 -7q37 0 54 50h31q-17 -93 -85 -93zM160 2h-60v706h60v-706z" />
    <glyph glyph-name="itildebelow" unicode="&#x1e2d;" horiz-adv-x="250" 
d="M195 -179q-26 0 -70 23q-46 24 -70 24q-37 0 -54 -51h-31q17 93 85 93q22 0 70 -22q24 -12 36 -17q19 -7 34 -7q37 0 54 50h31q-17 -93 -85 -93zM153 3h-56v462h56v-462zM125 611q-16 0 -29 12.5t-13 29.5q0 18 13 30.5t29 12.5t29 -12.5t13 -30.5q0 -17 -13 -29.5
t-29 -12.5z" />
    <glyph glyph-name="Idieresisacute" unicode="&#x1e2e;" horiz-adv-x="260" 
d="M160 0h-60v704h60v-704zM34 792q-20 0 -32.5 13t-12.5 32t12.5 32.5t32.5 13.5t32.5 -13.5t12.5 -32.5t-12.5 -32t-32.5 -13zM226 792q-20 0 -32.5 13t-12.5 32t12.5 32.5t32.5 13.5t32.5 -13.5t12.5 -32.5t-12.5 -32t-32.5 -13zM275 1104l-121 -133h-45l92 133h74z" />
    <glyph glyph-name="idieresisacute" unicode="&#x1e2f;" horiz-adv-x="250" 
d="M153 0h-56v462h56v-462zM29 551q-20 0 -32.5 13t-12.5 32t12.5 32.5t32.5 13.5t32.5 -13.5t12.5 -32.5t-12.5 -32t-32.5 -13zM221 551q-20 0 -32.5 13t-12.5 32t12.5 32.5t32.5 13.5t32.5 -13.5t12.5 -32.5t-12.5 -32t-32.5 -13zM267 864l-121 -134h-45l92 134h74z" />
    <glyph glyph-name="Kacute" unicode="&#x1e30;" horiz-adv-x="628" 
d="M613 0h-89l-354 382h-10v-382h-60v705h60v-322h9l337 322h85l-350 -319zM442 927l-121 -134h-45l92 134h74z" />
    <glyph glyph-name="kacute" unicode="&#x1e31;" horiz-adv-x="510" 
d="M486 0h-82l-238 249h-12v-1v-248h-56v753h56v-504v-1h11l216 214h80l-229 -211zM378 975l-121 -134h-45l92 134h74z" />
    <glyph glyph-name="Kdotbelow" unicode="&#x1e32;" horiz-adv-x="628" 
d="M330 -171q-16 0 -29 12.5t-13 30.5t13 30t29 12t29 -12t13 -30t-13 -30.5t-29 -12.5zM613 2h-89l-354 383h-10v-383h-60v706h60v-322h9l337 322h85l-350 -319z" />
    <glyph glyph-name="kdotbelow" unicode="&#x1e33;" horiz-adv-x="510" 
d="M276 -171q-16 0 -29 12.5t-13 30.5t13 30t29 12t29 -12t13 -30t-13 -30.5t-29 -12.5zM486 2h-82l-238 249h-12v-1v-248h-56v754h56v-505v-1h11l216 214h80l-229 -210z" />
    <glyph glyph-name="Klinebelow" unicode="&#x1e34;" horiz-adv-x="628" 
d="M459 -129h-258v43h258v-43zM613 2h-89l-354 382h-10v-382h-60v706h60v-323h9l337 323h85l-350 -319z" />
    <glyph glyph-name="klinebelow" unicode="&#x1e35;" horiz-adv-x="510" 
d="M425 -129h-258v43h258v-43zM486 2h-82l-238 249h-12v-1v-248h-56v754h56v-505v-1h11l216 214h80l-229 -211z" />
    <glyph glyph-name="Ldotbelow" unicode="&#x1e36;" horiz-adv-x="510" 
d="M295 -171q-16 0 -29 12.5t-13 30.5t13 30t29 12t29 -12t13 -30t-13 -30.5t-29 -12.5zM490 2h-390v706h60v-653h330v-53z" />
    <glyph glyph-name="ldotbelow" unicode="&#x1e37;" horiz-adv-x="252" 
d="M126 -171q-16 0 -29 12.5t-13 30.5t13 30t29 12t29 -12t13 -30t-13 -30.5t-29 -12.5zM154 2h-56v754h56v-754z" />
    <glyph glyph-name="Ldotbelowmacron" unicode="&#x1e38;" horiz-adv-x="510" 
d="M295 -171q-16 0 -29 12.5t-13 30.5t13 30t29 12t29 -12t13 -30t-13 -30.5t-29 -12.5zM490 2h-390v704h60v-651h330v-53zM259 795h-258v42h258v-42z" />
    <glyph glyph-name="ldotbelowmacron" unicode="&#x1e39;" horiz-adv-x="252" 
d="M126 -171q-16 0 -29 12.5t-13 29.5q0 18 13 30.5t29 12.5t29 -12.5t13 -30.5q0 -17 -13 -29.5t-29 -12.5zM154 2h-56v753h56v-753zM255 843h-258v42h258v-42z" />
    <glyph glyph-name="Llinebelow" unicode="&#x1e3a;" horiz-adv-x="510" 
d="M424 -129h-258v43h258v-43zM490 2h-390v706h60v-653h330v-53z" />
    <glyph glyph-name="llinebelow" unicode="&#x1e3b;" horiz-adv-x="252" 
d="M255 -129h-258v43h258v-43zM154 2h-56v754h56v-754z" />
    <glyph glyph-name="Lcircumflexbelow" unicode="&#x1e3c;" horiz-adv-x="510" 
d="M432 -219h-51l-86 113l-86 -113h-51l100 134h74zM490 3h-390v705h60v-652h330v-53z" />
    <glyph glyph-name="lcircumflexbelow" unicode="&#x1e3d;" horiz-adv-x="252" 
d="M263 -219h-51l-86 113l-86 -113h-51l100 134h74zM154 3h-56v753h56v-753z" />
    <glyph glyph-name="Macute" unicode="&#x1e3e;" horiz-adv-x="886" 
d="M786 0h-60v623h-12l-256 -623h-30l-256 623h-12v-623h-60v705h100l240 -594h9l237 594h100v-705zM565 927l-121 -134h-45l92 134h74z" />
    <glyph glyph-name="macute" unicode="&#x1e3f;" horiz-adv-x="883" 
d="M791 0h-56v257q0 173 -127 173q-72 0 -105.5 -53.5t-33.5 -129.5v-247h-56v272q0 78 -25.5 118t-93.5 40q-57 0 -99.5 -50.5t-42.5 -141.5v-238h-56v365q0 51 -3 99h53q3 -38 3 -81h12q20 43 60.5 68t89.5 25q101 0 143 -109q54 109 165 109q84 0 128 -50.5t44 -139.5
v-286zM553 699l-121 -134h-45l92 134h74z" />
    <glyph glyph-name="Mdotaccent" unicode="&#x1e40;" horiz-adv-x="886" 
d="M786 0h-60v624h-12l-256 -624h-30l-256 624h-12v-624h-60v706h100l240 -594h9l237 594h100v-706zM443 794q-16 0 -29 12t-13 30t13 30.5t29 12.5t29 -12.5t13 -30.5t-13 -30t-29 -12z" />
    <glyph glyph-name="mdotaccent" unicode="&#x1e41;" horiz-adv-x="883" 
d="M791 0h-56v258q0 173 -127 173q-72 0 -105.5 -53.5t-33.5 -129.5v-248h-56v272q0 78 -26 118.5t-93 40.5q-57 0 -99.5 -50.5t-42.5 -142.5v-238h-56v366q0 50 -3 99h53q3 -38 3 -82h12q20 43 60.5 68.5t89.5 25.5q101 0 143 -110q54 110 165 110q84 0 128 -51t44 -140
v-286zM441 565q-16 0 -29 12.5t-13 30.5t13 30.5t29 12.5t29 -12.5t13 -30.5t-13 -30.5t-29 -12.5z" />
    <glyph glyph-name="Mdotbelow" unicode="&#x1e42;" horiz-adv-x="886" 
d="M443 -171q-16 0 -29 12.5t-13 30.5t13 30t29 12t29 -12t13 -30t-13 -30.5t-29 -12.5zM786 2h-60v624h-12l-256 -624h-30l-256 624h-12v-624h-60v706h100l240 -594h9l237 594h100v-706z" />
    <glyph glyph-name="mdotbelow" unicode="&#x1e43;" horiz-adv-x="883" 
d="M441 -171q-16 0 -29 12.5t-13 30.5t13 30.5t29 12.5t29 -12.5t13 -30.5t-13 -30.5t-29 -12.5zM791 3h-56v258q0 173 -127 173q-72 0 -105.5 -53.5t-33.5 -129.5v-248h-56v272q0 78 -25.5 118.5t-93.5 40.5q-57 0 -99.5 -50.5t-42.5 -141.5v-239h-56v366q0 51 -3 99h53
q3 -37 3 -82h12q20 44 60.5 69t89.5 25q101 0 143 -110q54 110 165 110q84 0 128 -51t44 -140v-286z" />
    <glyph glyph-name="Ndotaccent" unicode="&#x1e44;" horiz-adv-x="764" 
d="M664 0h-81l-412 617h-11v-617h-60v706h81l412 -612h11v612h60v-706zM392 794q-16 0 -29 12t-13 30t13 30.5t29 12.5t29 -12.5t13 -30.5t-13 -30t-29 -12z" />
    <glyph glyph-name="ndotaccent" unicode="&#x1e45;" horiz-adv-x="581" 
d="M489 0h-56v258q0 83 -30 128t-103 45q-61 0 -104.5 -50.5t-43.5 -142.5v-238h-56v366q0 50 -3 99h53q3 -38 3 -82h12q20 42 63.5 68t92.5 26q84 0 128 -51t44 -140v-286zM290 565q-16 0 -29 12.5t-13 30.5t13 30.5t29 12.5t29 -12.5t13 -30.5t-13 -30.5t-29 -12.5z" />
    <glyph glyph-name="Ndotbelow" unicode="&#x1e46;" horiz-adv-x="764" 
d="M382 -171q-16 0 -29 12.5t-13 30.5t13 30t29 12t29 -12t13 -30t-13 -30.5t-29 -12.5zM664 2h-81l-412 618h-11v-618h-60v706h81l412 -611h11v611h60v-706z" />
    <glyph glyph-name="ndotbelow" unicode="&#x1e47;" horiz-adv-x="581" 
d="M290 -171q-16 0 -29 12.5t-13 30.5t13 30.5t29 12.5t29 -12.5t13 -30.5t-13 -30.5t-29 -12.5zM489 3h-56v258q0 83 -30 128t-103 45q-62 0 -105 -50t-43 -142v-239h-56v366q0 51 -3 99h53q3 -37 3 -82h12q20 42 63.5 68t92.5 26q84 0 128 -51t44 -140v-286z" />
    <glyph glyph-name="Nlinebelow" unicode="&#x1e48;" horiz-adv-x="764" 
d="M501 -129h-258v43h258v-43zM664 2h-81l-412 618h-11v-618h-60v706h81l412 -612h11v612h60v-706z" />
    <glyph glyph-name="nlinebelow" unicode="&#x1e49;" horiz-adv-x="581" 
d="M419 -129h-258v43h258v-43zM489 3h-56v258q0 83 -30 128t-103 45q-61 0 -104.5 -50.5t-43.5 -142.5v-238h-56v366q0 49 -3 99h53q3 -37 3 -82h12q20 42 63.5 68t92.5 26q84 0 128 -51t44 -140v-286z" />
    <glyph glyph-name="Ncircumflexbelow" unicode="&#x1e4a;" horiz-adv-x="764" 
d="M509 -219h-51l-86 113l-86 -113h-51l100 134h74zM664 3h-81l-412 617h-11v-617h-60v705h81l412 -611h11v611h60v-705z" />
    <glyph glyph-name="ncircumflexbelow" unicode="&#x1e4b;" horiz-adv-x="581" 
d="M427 -219h-51l-86 114l-86 -114h-51l100 134h74zM489 4h-56v257q0 83 -30 128t-103 45q-62 0 -105 -50t-43 -142v-238h-56v365q0 51 -3 99h53q3 -37 3 -82h12q20 42 63.5 68t92.5 26q84 0 128 -50.5t44 -139.5v-286z" />
    <glyph glyph-name="Otildeacute" unicode="&#x1e4c;" horiz-adv-x="850" 
d="M425 670q-135 0 -217 -93t-82 -225t82 -224.5t217 -92.5t217 92.5t82 224.5t-82 225t-217 93zM425 -18q-156 0 -259.5 105t-103.5 265t103.5 265t259.5 105t259.5 -105t103.5 -265t-103.5 -265t-259.5 -105zM495 814q-28 0 -70 22q-46 24 -70 24q-37 0 -54 -50h-31
q17 93 85 93q24 0 70 -23q24 -12 36 -16q18 -8 34 -8q37 0 54 51h31q-17 -93 -85 -93zM577 1128l-121 -133h-45l92 133h74z" />
    <glyph glyph-name="otildeacute" unicode="&#x1e4d;" horiz-adv-x="611" 
d="M305 429q-82 0 -132.5 -57.5t-50.5 -140.5q0 -84 50.5 -140t132.5 -56q83 0 133.5 56t50.5 140q0 83 -50.5 140.5t-133.5 57.5zM305 -12q-106 0 -174.5 69t-68.5 174t68.5 174.5t174.5 69.5q107 0 175.5 -69t68.5 -175q0 -105 -68.5 -174t-175.5 -69zM375 567
q-28 0 -70 22q-46 24 -70 24q-37 0 -54 -50h-31q17 93 85 93q24 0 70 -23q12 -6 36 -16q22 -8 34 -8q37 0 54 51h31q-17 -93 -85 -93zM448 882l-121 -134h-45l92 134h74z" />
    <glyph glyph-name="Otildedieresis" unicode="&#x1e4e;" horiz-adv-x="850" 
d="M425 670q-135 0 -217 -92.5t-82 -225.5q0 -132 82 -224.5t217 -92.5t217 92.5t82 224.5q0 133 -82 225.5t-217 92.5zM425 -18q-156 0 -259.5 105t-103.5 265t103.5 265t259.5 105t259.5 -105t103.5 -265t-103.5 -265t-259.5 -105zM495 814q-26 0 -70 23q-46 24 -70 24
q-37 0 -54 -51h-31q17 93 85 93q20 0 70 -23q12 -6 36 -16q19 -7 34 -7q37 0 54 50h31q-17 -93 -85 -93zM329 995q-20 0 -32.5 13.5t-12.5 32.5t12.5 32t32.5 13t32.5 -13t12.5 -32t-12.5 -32.5t-32.5 -13.5zM521 995q-20 0 -32.5 13.5t-12.5 32.5t12.5 32t32.5 13t32.5 -13
t12.5 -32t-12.5 -32.5t-32.5 -13.5z" />
    <glyph glyph-name="otildedieresis" unicode="&#x1e4f;" horiz-adv-x="611" 
d="M305 429q-82 0 -132.5 -57t-50.5 -141t50.5 -140t132.5 -56q83 0 133.5 56t50.5 140t-50.5 141t-133.5 57zM305 -12q-106 0 -174.5 69t-68.5 174t68.5 174.5t174.5 69.5q107 0 175.5 -69t68.5 -175q0 -105 -68.5 -174t-175.5 -69zM375 567q-26 0 -70 23q-46 24 -70 24
q-37 0 -54 -51h-31q17 93 85 93q26 0 70 -22q24 -12 36 -17q19 -7 34 -7q37 0 54 50h31q-17 -93 -85 -93zM209 749q-20 0 -32.5 13t-12.5 32t12.5 32.5t32.5 13.5t32.5 -13.5t12.5 -32.5t-12.5 -32t-32.5 -13zM401 749q-20 0 -32.5 13t-12.5 32t12.5 32.5t32.5 13.5
t32.5 -13.5t12.5 -32.5t-12.5 -32t-32.5 -13z" />
    <glyph glyph-name="Omacrongrave" unicode="&#x1e50;" horiz-adv-x="850" 
d="M425 671q-135 0 -217 -93t-82 -226q0 -132 82 -224.5t217 -92.5t217 92.5t82 224.5q0 133 -82 226t-217 93zM425 -18q-156 0 -259.5 105t-103.5 265t103.5 265t259.5 105t259.5 -105t103.5 -265t-103.5 -265t-259.5 -105zM554 810h-258v43h258v-43zM475 941h-45l-121 133
h74z" />
    <glyph glyph-name="omacrongrave" unicode="&#x1e51;" horiz-adv-x="611" 
d="M305 429q-82 0 -132.5 -57t-50.5 -141t50.5 -140t132.5 -56q83 0 133.5 56t50.5 140t-50.5 141t-133.5 57zM305 -12q-106 0 -174.5 69t-68.5 174t68.5 174.5t174.5 69.5q107 0 175.5 -69t68.5 -175q0 -105 -68.5 -174t-175.5 -69zM434 563h-258v43h258v-43zM352 694h-45
l-121 134h74z" />
    <glyph glyph-name="Omacronacute" unicode="&#x1e52;" horiz-adv-x="850" 
d="M425 671q-135 0 -217 -93t-82 -226q0 -132 82 -224.5t217 -92.5t217 92.5t82 224.5q0 133 -82 226t-217 93zM425 -18q-156 0 -259.5 105t-103.5 265t103.5 265t259.5 105t259.5 -105t103.5 -265t-103.5 -265t-259.5 -105zM554 810h-258v43h258v-43zM575 1074l-121 -133
h-45l92 133h74z" />
    <glyph glyph-name="omacronacute" unicode="&#x1e53;" horiz-adv-x="611" 
d="M305 429q-82 0 -132.5 -57t-50.5 -141t50.5 -140t132.5 -56q83 0 133.5 56t50.5 140t-50.5 141t-133.5 57zM305 -12q-106 0 -174.5 69t-68.5 174t68.5 174.5t174.5 69.5q107 0 175.5 -69t68.5 -175q0 -105 -68.5 -174t-175.5 -69zM434 563h-258v43h258v-43zM447 828
l-121 -134h-45l92 134h74z" />
    <glyph glyph-name="Pacute" unicode="&#x1e54;" horiz-adv-x="580" 
d="M288 654h-128v-271h128q87 0 133 35t46 102q0 134 -179 134zM292 333h-132v-333h-60v705h194q109 0 171 -46.5t62 -138.5q0 -91 -63 -139t-172 -48zM395 927l-121 -134h-45l92 134h74z" />
    <glyph glyph-name="pacute" unicode="&#x1e55;" horiz-adv-x="635" 
d="M330 432q-80 0 -133 -57t-53 -141t52.5 -140t133.5 -56q85 0 134 55.5t49 140.5q0 84 -49.5 141t-133.5 57zM337 -9q-50 0 -97 24t-76 68h-12v-323h-56v705h56v-82h12q29 46 75.5 70t97.5 24q105 0 170.5 -69t65.5 -174t-65.5 -174t-170.5 -69zM416 699l-121 -134h-45
l92 134h74z" />
    <glyph glyph-name="uni1E56" unicode="&#x1e56;" horiz-adv-x="577" 
d="M473 523q0 71 -48.5 104.5t-130.5 33.5h-141v-279h143q81 0 129 36t48 105zM528 523q0 -90 -63 -139t-167 -49h-145v-335h-55v708h197q104 0 168.5 -46t64.5 -139zM293 892q15 0 27 -11.5t12 -28.5t-12 -29t-27 -12q-16 0 -28 12t-12 29t12 28.5t28 11.5z" />
    <glyph glyph-name="uni1E57" unicode="&#x1e57;" horiz-adv-x="632" 
d="M519 232q0 86 -51 144t-137 58q-82 0 -136 -58t-54 -143t54 -143t136 -58q86 0 137 57.5t51 142.5zM574 232q0 -106 -66.5 -175.5t-171.5 -69.5q-57 0 -108 28.5t-79 78.5h-3v-334h-52v705h52v-96h3q29 53 79.5 81t107.5 28q106 0 172 -70t66 -176zM323 692
q16 0 28 -11.5t12 -28.5t-12 -29t-28 -12q-15 0 -27 11.5t-12 29.5q0 17 12 28.5t27 11.5z" />
    <glyph glyph-name="rdotaccent" unicode="&#x1e59;" horiz-adv-x="360" 
d="M345 473l-7 -53q-18 5 -43 5q-61 0 -102 -47.5t-41 -139.5v-238h-56v366q0 50 -3 99h53q3 -38 3 -82h12q21 43 59.5 68.5t86.5 25.5q22 0 38 -4zM219 565q-16 0 -29 12.5t-13 30.5t13 30.5t29 12.5t29 -12.5t13 -30.5t-13 -30.5t-29 -12.5z" />
    <glyph glyph-name="Rdotbelow" unicode="&#x1e5a;" horiz-adv-x="599" 
d="M294 657h-134v-268h131q90 0 138.5 33.5t48.5 99.5q0 135 -184 135zM322 -171q-16 0 -29 12.5t-13 30.5t13 30t29 12t29 -12t13 -30t-13 -30.5t-29 -12.5zM559 2h-74l-196 336h-129v-336h-60v706h202q236 0 236 -186q0 -75 -50.5 -122.5t-134.5 -56.5z" />
    <glyph glyph-name="rdotbelow" unicode="&#x1e5b;" horiz-adv-x="360" 
d="M125 -171q-16 0 -29 12.5t-13 30.5t13 30.5t29 12.5t29 -12.5t13 -30.5t-13 -30.5t-29 -12.5zM345 476l-7 -52q-22 4 -43 4q-62 0 -102.5 -47t-40.5 -139v-239h-56v366q0 51 -3 99h53q3 -37 3 -82h12q20 44 59 69t87 25q22 0 38 -4z" />
    <glyph glyph-name="Rdotbelowmacron" unicode="&#x1e5c;" horiz-adv-x="599" 
d="M294 656h-134v-268h131q90 0 138.5 33.5t48.5 99.5q0 135 -184 135zM312 -171q-16 0 -29 12.5t-13 30.5t13 30t29 12t29 -12t13 -30t-13 -30.5t-29 -12.5zM559 2h-74l-196 335h-129v-335h-60v704h202q236 0 236 -185q0 -75 -50.5 -122.5t-134.5 -56.5zM461 795h-258v42
h258v-42z" />
    <glyph glyph-name="rdotbelowmacron" unicode="&#x1e5d;" horiz-adv-x="360" 
d="M124 -171q-16 0 -29 12.5t-13 30.5t13 30t29 12t29 -12t13 -30t-13 -30.5t-29 -12.5zM345 474l-7 -52q-22 4 -43 4q-62 0 -102.5 -47t-40.5 -139v-237h-56v364q0 51 -3 99h53q3 -38 3 -81h12q20 43 59 68t87 25q22 0 38 -4zM344 566h-258v43h258v-43z" />
    <glyph glyph-name="Rlinebelow" unicode="&#x1e5e;" horiz-adv-x="599" 
d="M294 657h-134v-269h131q89 0 138 34t49 100q0 135 -184 135zM451 -129h-258v43h258v-43zM559 2h-74l-196 336h-129v-336h-60v706h202q236 0 236 -186q0 -75 -50.5 -122.5t-134.5 -56.5z" />
    <glyph glyph-name="rlinebelow" unicode="&#x1e5f;" horiz-adv-x="360" 
d="M254 -129h-258v43h258v-43zM345 476l-7 -52q-22 4 -43 4q-61 0 -102 -47.5t-41 -139.5v-238h-56v366q0 49 -3 99h53q3 -37 3 -82h12q20 44 59 69t87 25q22 0 38 -4z" />
    <glyph glyph-name="uni1E60" unicode="&#x1e60;" horiz-adv-x="566" 
d="M502 181q0 -96 -66.5 -148t-159.5 -52q-66 0 -124 26t-95 73l47 36q62 -87 173 -87q67 0 118 39.5t51 108.5q0 29 -11 53t-25 39t-41.5 29t-46.5 21t-55 18q-45 14 -74 27.5t-59 35.5t-45 56t-15 79q0 91 67 141.5t156 50.5q64 0 114.5 -23t79.5 -61l-43 -35
q-56 72 -153 72q-66 0 -116 -37.5t-50 -106.5q0 -28 10 -50.5t22.5 -36.5t37.5 -27.5t42 -19.5l49 -17q41 -13 64 -21.5t55.5 -26t49.5 -36.5t30 -50t13 -70zM296 892q16 0 28 -11.5t12 -28.5t-12 -29t-28 -12t-27.5 11.5t-11.5 29.5q0 17 12 28.5t27 11.5z" />
    <glyph glyph-name="uni1E61" unicode="&#x1e61;" horiz-adv-x="434" 
d="M386 129q0 -70 -49 -105.5t-118 -35.5q-117 0 -177 86l42 31q45 -72 135 -72q49 0 82 23t33 69q0 41 -34 61t-107 38q-28 7 -46.5 14t-40 21t-32.5 36t-11 53q0 63 46 96.5t112 33.5q49 0 91 -20.5t65 -57.5l-40 -30q-38 64 -118 64q-42 0 -74 -20.5t-32 -61.5
q0 -39 27.5 -57.5t91.5 -32.5q77 -17 115.5 -47.5t38.5 -85.5zM225 692q15 0 27 -11.5t12 -28.5t-12 -29t-27 -12q-16 0 -28 12t-12 29t12 28.5t28 11.5z" />
    <glyph glyph-name="Sdotbelow" unicode="&#x1e62;" horiz-adv-x="564" 
d="M277 -189q-16 0 -29 12.5t-13 30.5t13 30t29 12t29 -12t13 -30t-13 -30.5t-29 -12.5zM273 -16q-64 0 -121 25.5t-94 73.5l52 39q57 -87 164 -87q62 0 112.5 38.5t50.5 106.5q0 54 -29 85.5t-83 51.5q-28 11 -65 23q-34 11 -55.5 20t-49 25.5t-43.5 35t-27 48t-11 65.5
q0 93 66.5 142.5t153.5 49.5q128 0 192 -80l-48 -39q-53 69 -147 69q-61 0 -109 -36.5t-48 -103.5q0 -49 26 -78.5t74 -48.5l31 -11t27 -9q100 -32 140 -63q66 -49 66 -141q0 -97 -67 -149t-158 -52z" />
    <glyph glyph-name="sdotbelow" unicode="&#x1e63;" horiz-adv-x="444" 
d="M218 -183q-16 0 -29 12.5t-13 30.5t13 30.5t29 12.5t29 -12.5t13 -30.5t-13 -30.5t-29 -12.5zM223 -9q-115 0 -177 85l44 34q21 -32 56 -52t76 -20q51 0 83.5 21.5t32.5 68.5q0 38 -34.5 58.5t-108.5 38.5q-27 7 -45 13.5t-39.5 20t-33 36t-11.5 53.5q0 65 46.5 98.5
t114.5 33.5q47 0 90 -21t66 -57l-42 -32q-17 29 -48 46.5t-69 17.5q-43 0 -74 -20t-31 -60q0 -36 28 -55.5t89 -32.5q82 -17 119.5 -49t37.5 -84q0 -72 -49.5 -107t-120.5 -35z" />
    <glyph glyph-name="Sacutedotaccent" unicode="&#x1e64;" horiz-adv-x="564" 
d="M273 -18q-64 0 -121 25.5t-94 73.5l52 39q56 -87 164 -87q62 0 112.5 38t50.5 106q0 54 -29 85.5t-83 51.5q-16 6 -65 22q-42 14 -69.5 26.5t-57 34.5t-44.5 55.5t-15 78.5q0 63 34.5 108t82.5 64t103 19q128 0 192 -80l-48 -39q-53 69 -147 69q-61 0 -109 -36.5
t-48 -103.5q0 -49 26 -78t74 -48l31 -11t27 -9q97 -31 140 -63q66 -49 66 -141q0 -97 -67 -148.5t-158 -51.5zM359 943l-121 -133h-45l92 133h74zM277 1031q-16 0 -29 12.5t-13 30.5t13 30t29 12t29 -12t13 -30t-13 -30.5t-29 -12.5z" />
    <glyph glyph-name="sacutedotaccent" unicode="&#x1e65;" horiz-adv-x="444" 
d="M223 -12q-116 0 -177 85l44 33q21 -32 56 -51.5t76 -19.5q116 0 116 89q0 38 -34.5 58.5t-108.5 38.5q-26 6 -44.5 13t-40 20.5t-33 36t-11.5 52.5q0 65 46.5 98.5t114.5 33.5q47 0 90 -21t66 -57l-42 -32q-17 29 -48 46.5t-69 17.5q-43 0 -74 -20t-31 -60q0 -36 28 -55
t89 -32q82 -17 119.5 -49t37.5 -84q0 -72 -49.5 -106.5t-120.5 -34.5zM300 697l-121 -134h-45l92 134h74zM218 785q-16 0 -29 12.5t-13 29.5q0 18 13 30.5t29 12.5t29 -12.5t13 -30.5q0 -17 -13 -29.5t-29 -12.5z" />
    <glyph glyph-name="Scarondotaccent" unicode="&#x1e66;" horiz-adv-x="564" 
d="M273 -18q-64 0 -121 25.5t-94 73.5l52 39q56 -87 164 -87q62 0 112.5 38t50.5 106q0 54 -29 85.5t-83 51.5q-16 6 -65 22q-42 14 -69.5 26.5t-57 34.5t-44.5 55.5t-15 78.5q0 63 34.5 108t82.5 64t103 19q128 0 192 -80l-48 -39q-53 69 -147 69q-61 0 -109 -36.5
t-48 -103.5q0 -49 26 -78t74 -48l31 -11t27 -9q97 -31 140 -63q66 -49 66 -141q0 -97 -67 -148.5t-158 -51.5zM414 943l-100 -133h-74l-100 133h51l86 -113l86 113h51zM277 1031q-16 0 -29 12.5t-13 30.5t13 30t29 12t29 -12t13 -30t-13 -30.5t-29 -12.5z" />
    <glyph glyph-name="scarondotaccent" unicode="&#x1e67;" horiz-adv-x="444" 
d="M223 -12q-116 0 -177 85l44 33q21 -32 56 -51.5t76 -19.5q116 0 116 89q0 38 -34.5 58.5t-108.5 38.5q-26 6 -44.5 13t-40 20.5t-33 36t-11.5 52.5q0 65 46.5 98.5t114.5 33.5q47 0 90 -21t66 -57l-42 -32q-17 29 -48 46.5t-69 17.5q-43 0 -74 -20t-31 -60q0 -36 28 -55
t89 -32q82 -17 119.5 -49t37.5 -84q0 -72 -49.5 -106.5t-120.5 -34.5zM355 697l-100 -134h-74l-100 134h51l86 -114l86 114h51zM218 785q-16 0 -29 12.5t-13 29.5q0 18 13 30.5t29 12.5t29 -12.5t13 -30.5q0 -17 -13 -29.5t-29 -12.5z" />
    <glyph glyph-name="Sdotbelowdotaccent" unicode="&#x1e68;" horiz-adv-x="564" 
d="M277 -189q-16 0 -29 12.5t-13 29.5q0 18 13 30.5t29 12.5t29 -12.5t13 -30.5q0 -17 -13 -29.5t-29 -12.5zM273 -16q-64 0 -121 25.5t-94 73.5l52 39q57 -88 164 -88q62 0 112.5 38.5t50.5 106.5q0 54 -29 85.5t-83 51.5q-28 11 -65 23q-33 11 -55.5 20t-49.5 25t-43 35
t-27 48.5t-11 65.5q0 93 66.5 142t153.5 49q128 0 192 -80l-48 -39q-53 70 -147 70q-61 0 -109 -36.5t-48 -104.5q0 -49 26 -78t74 -48l31 -11t27 -9q100 -32 140 -63q66 -49 66 -141q0 -97 -67 -148.5t-158 -51.5zM277 812q-16 0 -29 12.5t-13 30.5q0 17 13 29.5t29 12.5
t29 -12.5t13 -29.5q0 -18 -13 -30.5t-29 -12.5z" />
    <glyph glyph-name="sdotbelowdotaccent" unicode="&#x1e69;" horiz-adv-x="444" 
d="M218 -183q-16 0 -29 12.5t-13 30.5q0 17 13 29.5t29 12.5t29 -12.5t13 -29.5q0 -18 -13 -30.5t-29 -12.5zM223 -10q-115 0 -177 85l44 33q21 -31 56.5 -51t75.5 -20q50 0 83 21t33 68q0 39 -34.5 59.5t-108.5 38.5q-26 6 -44.5 13t-40 20.5t-33 36t-11.5 52.5
q0 65 46.5 98.5t114.5 33.5q47 0 90 -21t66 -57l-42 -32q-17 29 -48 46.5t-69 17.5q-43 0 -74 -20t-31 -60q0 -36 28 -55t89 -32q82 -18 119.5 -49.5t37.5 -83.5q0 -72 -49.5 -107t-120.5 -35zM218 566q-16 0 -29 12t-13 30t13 30.5t29 12.5t29 -12.5t13 -30.5t-13 -30
t-29 -12z" />
    <glyph glyph-name="uni1E6A" unicode="&#x1e6a;" horiz-adv-x="560" 
d="M546 708v-49h-239v-659h-55v659h-238v49h532zM280 892q15 0 27 -11.5t12 -28.5t-12 -29t-27 -12q-16 0 -28 12t-12 29t12 28.5t28 11.5z" />
    </font>
</defs>
</svg>
