<?xml version="1.0" standalone="no"?>
<!DOCTYPE svg PUBLIC "-//W3C//DTD SVG 1.1//EN" "http://www.w3.org/Graphics/SVG/1.1/DTD/svg11.dtd" >
<svg>
<metadata>
Created by FontForge 20090622 at Mon Oct  5 12:05:12 2020
 By deploy user
Copyright &#195;&#130;&#194;&#169; 2004 - 2007 Linotype GmbH, www.linotype.com. All rights reserved.
</metadata>
<defs>
<font id="AvenirNextLTPro-Regular" horiz-adv-x="572" >
  <font-face 
    font-family="Avenir Next LT Pro"
    font-weight="400"
    font-stretch="normal"
    units-per-em="1000"
    panose-1="0 0 0 0 0 0 0 0 0 0"
    ascent="800"
    descent="-200"
    x-height="468"
    cap-height="708"
    bbox="-394 -411 1309 1192"
    underline-thickness="50"
    underline-position="-50"
    unicode-range="U+000D-U+FE48"
  />
<missing-glyph horiz-adv-x="512" 
d="M0 718h512v-718h-512v718zM50 50h412v617h-412v-617zM271 234h-46l-2 17q0 56 13 81q17 33 46 59q30 29 40 46.5t10 36.5q0 36 -22.5 60.5t-53.5 24.5q-71 0 -82 -95l-50 8q6 69 42 103t93 34q55 0 89.5 -36t34.5 -95q0 -34 -13 -60t-50 -60q-37 -33 -43 -52
q-6 -20 -6 -72zM278 117h-56v67h56v-67z" />
    <glyph glyph-name=".notdef" horiz-adv-x="512" 
d="M0 718h512v-718h-512v718zM50 50h412v617h-412v-617zM271 234h-46l-2 17q0 56 13 81q17 33 46 59q30 29 40 46.5t10 36.5q0 36 -22.5 60.5t-53.5 24.5q-71 0 -82 -95l-50 8q6 69 42 103t93 34q55 0 89.5 -36t34.5 -95q0 -34 -13 -60t-50 -60q-37 -33 -43 -52
q-6 -20 -6 -72zM278 117h-56v67h56v-67z" />
    <glyph glyph-name=".null" horiz-adv-x="500" 
 />
    <glyph glyph-name=".null" horiz-adv-x="500" 
 />
    <glyph glyph-name="nonmarkingreturn" horiz-adv-x="333" 
 />
    <glyph glyph-name="CR" unicode="&#xd;" horiz-adv-x="0" 
 />
    <glyph glyph-name="space" unicode=" " horiz-adv-x="250" 
 />
    <glyph glyph-name="exclam" unicode="!" horiz-adv-x="328" 
d="M218 48q0 -22 -15.5 -38t-38.5 -16t-38.5 16t-15.5 38t15.5 38t38.5 16t38.5 -16t15.5 -38zM200 708v-516h-72v516h72z" />
    <glyph glyph-name="quotedbl" unicode="&#x22;" horiz-adv-x="405" 
d="M245 473v235h60v-235h-60zM100 473v235h60v-235h-60z" />
    <glyph glyph-name="numbersign" unicode="#" horiz-adv-x="556" 
d="M228 436l-22 -162h133l22 162h-133zM107 0l30 214h-102v60h110l22 162h-108v60h117l29 212h61l-29 -212h133l29 212h61l-29 -212h90v-60h-99l-22 -162h95v-60h-103l-30 -214h-61l30 214h-133l-30 -214h-61z" />
    <glyph glyph-name="dollar" unicode="$" horiz-adv-x="580" 
d="M263 46v287q-39 12 -69.5 26t-60.5 36.5t-46.5 56.5t-16.5 78q0 84 55.5 135t137.5 55v72h48v-72q121 -6 185 -81l-55 -42q-46 65 -130 67v-275q45 -16 75.5 -30.5t62.5 -39t48.5 -60t16.5 -82.5q0 -83 -57.5 -135t-145.5 -54v-72h-48v72q-131 4 -211 106l57 40
q23 -41 70.5 -64.5t83.5 -23.5zM311 321v-275q53 3 92 35.5t39 100.5q0 49 -35.5 84.5t-95.5 54.5zM263 406v258q-53 -2 -88.5 -37t-35.5 -91q0 -97 124 -130z" />
    <glyph glyph-name="percent" unicode="%" horiz-adv-x="833" 
d="M667 712l-450 -743l-52 27l451 743zM735 163q0 49 -34 82t-82 33t-82 -33t-34 -82t34 -82t82 -33t82 33t34 82zM795 163q0 -74 -51 -124.5t-125 -50.5t-125 50.5t-51 124.5t51 124.5t125 50.5t125 -50.5t51 -124.5zM330 545q0 49 -34 82t-82 33t-82 -33t-34 -82t34 -82
t82 -33t82 33t34 82zM390 545q0 -74 -51 -124.5t-125 -50.5t-125 50.5t-51 124.5t51 124.5t125 50.5t125 -50.5t51 -124.5z" />
    <glyph glyph-name="ampersand" unicode="&#x26;" horiz-adv-x="704" 
d="M440 152l-187 196q-65 -30 -97.5 -69.5t-32.5 -95.5q0 -59 43 -97t105 -38q56 0 95 25t74 79zM404 567q0 44 -28.5 72t-71.5 28q-48 0 -77.5 -29.5t-29.5 -79.5q0 -35 25.5 -74.5t51.5 -59.5q59 27 94.5 60.5t35.5 82.5zM659 383l-130 -219l159 -164h-100l-100 105
q-45 -61 -96 -89t-122 -28q-95 0 -158 52t-63 144q0 139 164 210q-86 86 -86 165q0 78 50.5 122.5t125.5 44.5q73 0 122 -43t49 -116q0 -64 -43 -106.5t-116 -79.5l165 -170l98 172h81z" />
    <glyph glyph-name="quotesingle" unicode="'" horiz-adv-x="260" 
d="M100 473v235h60v-235h-60z" />
    <glyph glyph-name="parenleft" unicode="(" horiz-adv-x="300" 
d="M98 288q0 -112 36 -222t96 -192l-52 -33q-66 87 -106 205t-40 242t40 242t106 205l52 -33q-60 -82 -96 -192t-36 -222z" />
    <glyph glyph-name="parenright" unicode=")" horiz-adv-x="300" 
d="M202 288q0 111 -36.5 219.5t-95.5 194.5l52 33q66 -89 106 -206t40 -241t-40 -241t-106 -206l-52 33q59 86 95.5 194.5t36.5 219.5z" />
    <glyph glyph-name="asterisk" unicode="*" horiz-adv-x="444" 
d="M252 708v-143l140 45l21 -56l-141 -45l90 -121l-48 -36l-92 124l-92 -124l-48 36l90 121l-141 45l21 56l140 -45v143h60z" />
    <glyph glyph-name="plus" unicode="+" horiz-adv-x="666" 
d="M363 558v-225h225v-60h-225v-225h-60v225h-225v60h225v225h60z" />
    <glyph glyph-name="comma" unicode="," horiz-adv-x="260" 
d="M183 95l-81 -235h-57l67 235h71z" />
    <glyph glyph-name="hyphen" unicode="-" horiz-adv-x="320" 
d="M272 271v-57h-224v57h224z" />
    <glyph glyph-name="period" unicode="." horiz-adv-x="260" 
d="M184 48q0 -22 -15.5 -38t-38.5 -16t-38.5 16t-15.5 38t15.5 38t38.5 16t38.5 -16t15.5 -38z" />
    <glyph glyph-name="slash" unicode="/" horiz-adv-x="370" 
d="M365 706l-302 -724l-58 19l303 725z" />
    <glyph glyph-name="zero" unicode="0" horiz-adv-x="580" 
d="M290 665q-45 0 -77.5 -28t-49.5 -76t-24.5 -99t-7.5 -109t7.5 -108.5t24.5 -98t49.5 -75t77.5 -27.5q44 0 76.5 27.5t49.5 74.5t25 98.5t8 108.5t-8 109t-25 99.5t-49.5 75.5t-76.5 28zM290 726q63 0 110 -31.5t72.5 -86.5t37.5 -118.5t12 -136.5t-12 -136t-37.5 -117.5
t-72.5 -86t-110 -31.5q-64 0 -111 31.5t-72.5 86t-37 117t-11.5 136.5t11.5 137t37 118t72.5 86.5t111 31.5z" />
    <glyph glyph-name="one" unicode="1" horiz-adv-x="580" 
d="M358 708v-708h-72v619l-128 -109l-44 50l180 148h64z" />
    <glyph glyph-name="two" unicode="2" horiz-adv-x="580" 
d="M504 64v-64h-453v75l290 293q85 85 85 162q0 61 -40.5 98t-99.5 37q-56 0 -95 -35t-51 -91l-71 14q14 76 74.5 124.5t142.5 48.5q90 0 151.5 -51.5t61.5 -143.5q0 -62 -29.5 -110t-85.5 -104l-255 -253h375z" />
    <glyph glyph-name="three" unicode="3" horiz-adv-x="580" 
d="M214 340v62h31q74 0 119.5 31.5t45.5 98.5q0 59 -41 96t-99 37q-93 0 -135 -83l-61 32q65 112 200 112q88 0 147.5 -50.5t59.5 -139.5q0 -61 -34 -104t-89 -58v-2q63 -13 103 -59.5t40 -116.5q0 -98 -66 -156t-162 -58q-78 0 -136 37.5t-88 107.5l68 25q18 -51 60 -79.5
t96 -28.5q64 0 110 41.5t46 110.5q0 75 -53 109.5t-131 34.5h-31z" />
    <glyph glyph-name="four" unicode="4" horiz-adv-x="580" 
d="M366 234v393h-2l-247 -393h249zM436 708v-474h104v-63h-104v-171h-70v171h-324v70l300 467h94z" />
    <glyph glyph-name="five" unicode="5" horiz-adv-x="580" 
d="M475 708v-64h-295l-5 -219q45 16 98 16q100 0 165 -62t65 -160q0 -103 -65.5 -170t-169.5 -67q-148 0 -212 129l65 29q19 -44 57.5 -70t85.5 -26q72 0 119 47.5t47 120.5q0 77 -50 123.5t-126 46.5q-74 0 -147 -39l7 365h361z" />
    <glyph glyph-name="six" unicode="6" horiz-adv-x="580" 
d="M132 205q0 -70 44.5 -116t113.5 -46t113.5 46t44.5 116t-43 115t-115 45t-115 -45t-43 -115zM400 708l-199 -309l2 -2q34 26 101 26q93 0 154.5 -61t61.5 -157q0 -98 -65 -160.5t-165 -62.5t-165 62.5t-65 160.5q0 88 64 192l193 311h83z" />
    <glyph glyph-name="seven" unicode="7" horiz-adv-x="580" 
d="M498 708v-66l-285 -642h-81l293 644h-347v64h420z" />
    <glyph glyph-name="eight" unicode="8" horiz-adv-x="580" 
d="M135 194q0 -65 43 -108t112 -43t112 43t43 108q0 64 -43 106t-112 42t-112 -42t-43 -106zM160 533q0 -55 37.5 -91t92.5 -36t92.5 36t37.5 91q0 57 -37 94.5t-93 37.5t-93 -37.5t-37 -94.5zM383 377v-2q59 -18 96.5 -68.5t37.5 -120.5q0 -90 -66.5 -147t-160.5 -57
t-160.5 57t-66.5 147q0 70 37 120t97 69v2q-47 16 -77 60.5t-30 99.5q0 84 58.5 136.5t141.5 52.5t141.5 -52.5t58.5 -136.5q0 -55 -30 -99.5t-77 -60.5z" />
    <glyph glyph-name="nine" unicode="9" horiz-adv-x="580" 
d="M450 503q0 70 -44.5 116t-113.5 46t-113.5 -46t-44.5 -116t43 -115t115 -45t115 45t43 115zM182 0l199 309l-2 2q-34 -26 -101 -26q-93 0 -154.5 61t-61.5 157q0 98 65 160.5t165 62.5t165 -62.5t65 -160.5q0 -88 -64 -192l-193 -311h-83z" />
    <glyph glyph-name="colon" unicode=":" horiz-adv-x="300" 
d="M204 48q0 -22 -15.5 -38t-38.5 -16t-38.5 16t-15.5 38t15.5 38t38.5 16t38.5 -16t15.5 -38zM204 420q0 -22 -15.5 -38t-38.5 -16t-38.5 16t-15.5 38t15.5 38t38.5 16t38.5 -16t15.5 -38z" />
    <glyph glyph-name="semicolon" unicode=";" horiz-adv-x="300" 
d="M199 95l-81 -235h-60l67 235h74zM204 420q0 -22 -15.5 -38t-38.5 -16t-38.5 16t-15.5 38t15.5 38t38.5 16t38.5 -16t15.5 -38z" />
    <glyph glyph-name="less" unicode="&#x3c;" horiz-adv-x="666" 
d="M588 564v-60l-429 -201l429 -201v-60l-510 238v46z" />
    <glyph glyph-name="equal" unicode="=" horiz-adv-x="666" 
d="M78 258h510v-60h-510v60zM78 408h510v-60h-510v60z" />
    <glyph glyph-name="greater" unicode="&#x3e;" horiz-adv-x="666" 
d="M78 504v60l510 -238v-46l-510 -238v60l429 201z" />
    <glyph glyph-name="question" unicode="?" horiz-adv-x="482" 
d="M300 48q0 -22 -15.5 -38t-38.5 -16t-38.5 16t-15.5 38t15.5 38t38.5 16t38.5 -16t15.5 -38zM274 238v-46h-70v60q0 36 13 66t27 46.5t40 39.5l28 25q58 51 58 111q0 54 -36 86t-89 32t-86.5 -32t-42.5 -85l-68 12q15 78 68.5 122.5t131.5 44.5q83 0 138.5 -47t55.5 -129
q0 -41 -13.5 -73t-30 -49t-48.5 -43q-45 -38 -60.5 -64t-15.5 -77z" />
    <glyph glyph-name="at" unicode="@" horiz-adv-x="800" 
d="M694 147l37 -46q-118 -119 -314 -119q-171 0 -276.5 103.5t-105.5 267.5q0 158 111.5 265.5t270.5 107.5q70 0 132.5 -20.5t112.5 -59t79.5 -101t29.5 -140.5q0 -115 -56 -180t-138 -65q-43 0 -65 21t-22 52h-4q-12 -26 -46.5 -49.5t-78.5 -23.5q-67 0 -106 46t-39 119
q0 89 55.5 156.5t143.5 67.5q37 0 64.5 -17t39.5 -43h4l10 45h62l-40 -186q-11 -49 -11 -80q0 -50 49 -50t80 51.5t31 128.5q0 126 -79.5 196t-208.5 70q-136 0 -221 -89t-85 -225q0 -141 86.5 -224.5t227.5 -83.5q163 0 270 105zM412 489q-56 0 -89.5 -52.5t-33.5 -115.5
q0 -38 18.5 -70.5t61.5 -32.5q62 0 94 54t32 114q0 44 -19.5 73.5t-63.5 29.5z" />
    <glyph glyph-name="A" unicode="A" horiz-adv-x="700" 
d="M349 628l-156 -376h312zM166 186l-77 -186h-79l306 708h70l304 -708h-80l-78 186h-366z" />
    <glyph glyph-name="B" unicode="B" horiz-adv-x="636" 
d="M166 339v-277h134q85 0 140 34t55 104q0 69 -47 104t-135 35h-147zM166 646v-248h145q61 0 105.5 30t44.5 94t-47 94t-123 30h-125zM94 0v708h211q44 0 82 -9t72 -28.5t54 -56t20 -87.5q0 -56 -34 -97.5t-91 -54.5v-2q71 -9 115.5 -55t44.5 -122q0 -89 -71 -142.5
t-193 -53.5h-210z" />
    <glyph glyph-name="C" unicode="C" horiz-adv-x="720" 
d="M634 150l56 -36q-39 -59 -106.5 -95.5t-158.5 -36.5q-160 0 -264.5 105.5t-104.5 266.5t105 266.5t264 105.5q79 0 148 -30.5t104 -81.5l-60 -44q-25 38 -76.5 65.5t-114.5 27.5q-133 0 -213.5 -90t-80.5 -219q0 -128 81 -218.5t213 -90.5q138 0 208 105z" />
    <glyph glyph-name="D" unicode="D" horiz-adv-x="757" 
d="M166 644v-580h143q77 0 138.5 24.5t99.5 66t58 92.5t20 107t-20 107t-58 92.5t-99.5 66t-138.5 24.5h-143zM94 0v708h235q68 0 133 -22.5t119 -65t87 -112t33 -154.5t-33 -154.5t-87 -112t-119 -65t-133 -22.5h-235z" />
    <glyph glyph-name="E" unicode="E" horiz-adv-x="592" 
d="M166 337v-273h379v-64h-451v708h439v-64h-367v-244h343v-63h-343z" />
    <glyph glyph-name="F" unicode="F" horiz-adv-x="562" 
d="M166 335v-335h-72v708h427v-64h-355v-246h330v-63h-330z" />
    <glyph glyph-name="G" unicode="G" horiz-adv-x="779" 
d="M681 631l-50 -50q-77 82 -205 82q-132 0 -213 -90.5t-81 -218.5t81 -218t213 -90q121 0 191 46v215h-165v63h237v-319q-113 -69 -264 -69q-160 0 -264.5 105.5t-104.5 266.5t105 266.5t264 105.5q161 0 256 -95z" />
    <glyph glyph-name="H" unicode="H" horiz-adv-x="718" 
d="M94 0v708h72v-307h386v307h72v-708h-72v335h-386v-335h-72z" />
    <glyph glyph-name="I" unicode="I" horiz-adv-x="260" 
d="M166 708v-708h-72v708h72z" />
    <glyph glyph-name="J" unicode="J" horiz-adv-x="492" 
d="M25 126l67 18q9 -44 39 -71.5t76 -27.5q125 0 125 164v499h72v-504q0 -39 -8 -74.5t-27.5 -70.5t-59 -56t-94.5 -21q-76 0 -126.5 39.5t-63.5 104.5z" />
    <glyph glyph-name="K" unicode="K" horiz-adv-x="628" 
d="M166 708v-318h1l337 318h103l-357 -321l377 -387h-106l-354 377h-1v-377h-72v708h72z" />
    <glyph glyph-name="L" unicode="L" horiz-adv-x="510" 
d="M166 708v-644h330v-64h-402v708h72z" />
    <glyph glyph-name="M" unicode="M" horiz-adv-x="886" 
d="M204 708l240 -586h1l237 586h110v-708h-72v615h-2l-256 -615h-38l-256 615h-2v-615h-72v708h110z" />
    <glyph glyph-name="N" unicode="N" horiz-adv-x="764" 
d="M184 708l412 -603h2v603h72v-708h-90l-412 609h-2v-609h-72v708h90z" />
    <glyph glyph-name="O" unicode="O" horiz-adv-x="850" 
d="M718 354q0 129 -80.5 219t-212.5 90t-212.5 -90t-80.5 -219t80.5 -218.5t212.5 -89.5t212.5 89.5t80.5 218.5zM794 354q0 -161 -105 -266.5t-264 -105.5t-264 105.5t-105 266.5t105 266.5t264 105.5t264 -105.5t105 -266.5z" />
    <glyph glyph-name="P" unicode="P" horiz-adv-x="580" 
d="M166 646v-256h122q85 0 129 33t44 96q0 127 -173 127h-122zM94 0v708h200q111 0 175 -48t64 -141t-65 -141.5t-176 -48.5h-126v-329h-72z" />
    <glyph glyph-name="Q" unicode="Q" horiz-adv-x="843" 
d="M819 64v-64h-405q-154 0 -256 102.5t-102 260.5t102 260.5t256 102.5t255.5 -102.5t101.5 -260.5q0 -96 -42 -173t-124 -124v-2h214zM132 363q0 -124 77.5 -212t204.5 -88q126 0 204.5 88t78.5 212t-78.5 212t-204.5 88q-127 0 -204.5 -88t-77.5 -212z" />
    <glyph glyph-name="R" unicode="R" horiz-adv-x="599" 
d="M166 646v-253h125q181 0 181 126q0 127 -178 127h-128zM166 331v-331h-72v708h208q242 0 242 -189q0 -77 -50.5 -125t-130.5 -57l207 -337h-88l-196 331h-120z" />
    <glyph glyph-name="S" unicode="S" horiz-adv-x="564" 
d="M494 640l-57 -46q-51 71 -146 71q-59 0 -105 -35t-46 -98q0 -26 9.5 -47t20.5 -33t36.5 -25t40 -18l47.5 -16l43.5 -14.5t40.5 -15.5t40.5 -20.5t33 -26t29 -34t16.5 -42.5t7 -54q0 -99 -69 -151.5t-162 -52.5q-67 0 -126.5 27t-96.5 78l62 46q54 -89 162 -89
q60 0 108.5 36.5t48.5 100.5q0 21 -5.5 38.5t-12 29.5t-23 24.5t-26 18.5t-34 15.5l-34 13t-38.5 12.5q-42 13 -70 25.5t-58.5 35t-46 57t-15.5 80.5q0 65 35.5 110.5t85 65t105.5 19.5q68 0 120 -24t80 -62z" />
    <glyph glyph-name="T" unicode="T" horiz-adv-x="570" 
d="M321 644v-644h-72v644h-237v64h546v-64h-237z" />
    <glyph glyph-name="U" unicode="U" horiz-adv-x="710" 
d="M355 -18q-75 0 -130 27t-82.5 71t-40 89.5t-12.5 94.5v444h72v-436q0 -96 46.5 -161t146.5 -65t146.5 65t46.5 161v436h72v-444q0 -49 -12.5 -94.5t-40 -89.5t-82.5 -71t-130 -27z" />
    <glyph glyph-name="V" unicode="V" horiz-adv-x="623" 
d="M81 708l230 -615h2l230 615h77l-271 -708h-76l-270 708h78z" />
    <glyph glyph-name="W" unicode="W" horiz-adv-x="972" 
d="M90 708l175 -609h2l177 609h86l177 -609h2l173 609h76l-209 -708h-84l-178 608h-2l-178 -608h-84l-209 708h76z" />
    <glyph glyph-name="X" unicode="X" horiz-adv-x="649" 
d="M132 708l194 -286l193 286h86l-235 -337l260 -371h-90l-216 319l-215 -319h-90l260 372l-237 336h90z" />
    <glyph glyph-name="Y" unicode="Y" horiz-adv-x="602" 
d="M337 305v-305h-72v305l-265 403h90l213 -343l215 343h84z" />
    <glyph glyph-name="Z" unicode="Z" 
d="M535 708v-60l-413 -584h419v-64h-510v60l414 584h-403v64h493z" />
    <glyph glyph-name="bracketleft" unicode="[" horiz-adv-x="300" 
d="M220 732v-54h-96v-780h96v-54h-162v888h162z" />
    <glyph glyph-name="backslash" unicode="\" horiz-adv-x="370" 
d="M307 -18l-302 724l57 20l303 -725z" />
    <glyph glyph-name="bracketright" unicode="]" horiz-adv-x="300" 
d="M80 -156v54h96v780h-96v54h162v-888h-162z" />
    <glyph glyph-name="asciicircum" unicode="^" horiz-adv-x="666" 
d="M80 275l229 433h48l229 -433h-62l-191 361l-191 -361h-62z" />
    <glyph glyph-name="underscore" unicode="_" horiz-adv-x="500" 
d="M0 -125v50h500v-50h-500z" />
    <glyph glyph-name="grave" unicode="`" horiz-adv-x="240" 
d="M122 564l-132 144h91l100 -144h-59z" />
    <glyph glyph-name="a" unicode="a" horiz-adv-x="534" 
d="M385 234h-20q-240 0 -240 -101q0 -46 32 -67.5t78 -21.5q69 0 109.5 45t40.5 110v35zM385 287v15q0 121 -125 121q-84 0 -139 -55l-38 45q67 67 184 67q80 0 131 -43.5t51 -126.5v-205q0 -62 8 -105h-61q-7 40 -7 76h-2q-32 -47 -72 -67.5t-98 -20.5q-63 0 -112.5 35.5
t-49.5 106.5q0 35 12 61.5t36 43.5t52 27.5t69 16t76.5 7t84.5 1.5z" />
    <glyph glyph-name="b" unicode="b" horiz-adv-x="637" 
d="M509 234q0 81 -48 135t-129 54q-78 0 -129 -54t-51 -135t51 -134.5t129 -53.5q82 0 129.5 53.5t47.5 134.5zM162 79h-2v-79h-68v756h68v-369h2q29 45 76.5 69t100.5 24q108 0 175 -70t67 -176t-67 -176t-175 -70q-53 0 -100.5 23.5t-76.5 67.5z" />
    <glyph glyph-name="c" unicode="c" horiz-adv-x="500" 
d="M480 399l-53 -38q-18 28 -50.5 45t-69.5 17q-80 0 -129.5 -53.5t-49.5 -135.5q0 -81 49 -134.5t129 -53.5q81 0 127 61l51 -38q-66 -81 -178 -81t-181 69.5t-69 176.5t69 176.5t181 69.5q49 0 97 -21.5t77 -59.5z" />
    <glyph glyph-name="d" unicode="d" horiz-adv-x="637" 
d="M128 234q0 -81 47.5 -134.5t129.5 -53.5q78 0 129 53.5t51 134.5t-51 135t-129 54q-81 0 -129 -54t-48 -135zM477 79h-2q-29 -44 -76.5 -67.5t-100.5 -23.5q-108 0 -175 70t-67 176t67 176t175 70q53 0 100.5 -24t76.5 -69h2v369h68v-756h-68v79z" />
    <glyph glyph-name="e" unicode="e" 
d="M516 248q0 -20 -1 -32h-388q2 -71 50.5 -120.5t120.5 -49.5q50 0 89 23t61 58l51 -40q-78 -99 -201 -99q-104 0 -173 70t-69 176q0 105 68 175.5t168 70.5q106 0 165 -66t59 -166zM128 270h319q-3 68 -43.5 110.5t-111.5 42.5q-67 0 -113.5 -45.5t-50.5 -107.5z" />
    <glyph glyph-name="f" unicode="f" horiz-adv-x="295" 
d="M288 468v-57h-110v-411h-68v411h-98v57h98v128q0 82 40 127t119 45q32 0 56 -7l-12 -60q-26 7 -47 7q-51 0 -69.5 -31t-18.5 -89v-120h110z" />
    <glyph glyph-name="g" unicode="g" horiz-adv-x="632" 
d="M128 240q0 -77 48 -129.5t129 -52.5q79 0 129.5 50.5t50.5 131.5q0 75 -51.5 129t-128.5 54q-81 0 -129 -53t-48 -130zM66 -146l49 52q29 -37 78 -61.5t101 -24.5q94 0 138.5 51t44.5 133v88h-2q-26 -43 -75 -67.5t-102 -24.5q-108 0 -175 67t-67 171q0 102 67.5 172
t174.5 70q53 0 101.5 -24.5t75.5 -68.5h2v81h68v-464q0 -33 -6.5 -64.5t-24 -65t-44.5 -58t-73.5 -40.5t-105.5 -16q-136 0 -225 94z" />
    <glyph glyph-name="h" unicode="h" horiz-adv-x="583" 
d="M160 391h2q18 41 62 65t95 24q87 0 132.5 -52t45.5 -141v-287h-68v259q0 80 -28.5 122t-98.5 42q-59 0 -100.5 -47.5t-41.5 -135.5v-240h-68v756h68v-365z" />
    <glyph glyph-name="i" unicode="i" horiz-adv-x="250" 
d="M173 648q0 -20 -14.5 -34t-33.5 -14t-33.5 14t-14.5 34t14.5 34t33.5 14t33.5 -14t14.5 -34zM159 468v-468h-68v468h68z" />
    <glyph glyph-name="j" unicode="j" horiz-adv-x="251" 
d="M174 648q0 -20 -14.5 -34t-33.5 -14t-33.5 14t-14.5 34t14.5 34t33.5 14t33.5 -14t14.5 -34zM-27 -233l10 57q19 -6 43 -6q39 0 52.5 25t13.5 75v550h68v-561q0 -147 -133 -147q-30 0 -54 7z" />
    <glyph glyph-name="k" unicode="k" horiz-adv-x="510" 
d="M160 756v-499h3l216 211h98l-236 -214l260 -254h-100l-238 246h-3v-246h-68v756h68z" />
    <glyph glyph-name="l" unicode="l" horiz-adv-x="252" 
d="M160 756v-756h-68v756h68z" />
    <glyph glyph-name="m" unicode="m" horiz-adv-x="883" 
d="M155 388h2q20 42 62 67t92 25q104 0 144 -99q49 99 164 99q87 0 132.5 -52t45.5 -141v-287h-68v259q0 164 -121 164q-69 0 -101 -50t-32 -124v-249h-68v273q0 75 -24.5 112.5t-88.5 37.5q-54 0 -95 -47.5t-41 -135.5v-240h-68v365q0 60 -4 103h65q4 -33 4 -80z" />
    <glyph glyph-name="n" unicode="n" horiz-adv-x="581" 
d="M86 468h65q4 -33 4 -80h2q20 41 64.5 66.5t95.5 25.5q87 0 132.5 -52t45.5 -141v-287h-68v259q0 80 -28.5 122t-98.5 42q-59 0 -100.5 -47.5t-41.5 -135.5v-240h-68v365q0 60 -4 103z" />
    <glyph glyph-name="o" unicode="o" horiz-adv-x="611" 
d="M483 234q0 80 -49 134.5t-129 54.5q-79 0 -128 -54.5t-49 -134.5t49 -134t128 -54q80 0 129 53.5t49 134.5zM555 234q0 -106 -70 -176t-180 -70q-108 0 -178.5 70t-70.5 176t70.5 176t178.5 70q110 0 180 -70t70 -176z" />
    <glyph glyph-name="p" unicode="p" horiz-adv-x="635" 
d="M507 234q0 81 -48 135t-129 54q-78 0 -129 -54t-51 -135t51 -134.5t129 -53.5q82 0 129.5 53.5t47.5 134.5zM158 79v-319h-68v708h68v-81h3q28 44 76 68.5t100 24.5q108 0 175 -70t67 -176t-67 -176t-175 -70q-52 0 -99.5 24t-76.5 67h-3z" />
    <glyph glyph-name="q" unicode="q" horiz-adv-x="635" 
d="M128 234q0 -81 47.5 -134.5t129.5 -53.5q78 0 129 53.5t51 134.5t-51 135t-129 54q-81 0 -129 -54t-48 -135zM477 79h-3q-29 -43 -76.5 -67t-99.5 -24q-108 0 -175 70t-67 176t67 176t175 70q52 0 100 -24.5t76 -68.5h3v81h68v-708h-68v319z" />
    <glyph glyph-name="r" unicode="r" horiz-adv-x="360" 
d="M90 0v365q0 60 -4 103h65q4 -33 4 -80h2q21 42 61 67t89 25q26 0 45 -5l-9 -64q-16 6 -48 6q-59 0 -98 -44.5t-39 -132.5v-240h-68z" />
    <glyph glyph-name="s" unicode="s" horiz-adv-x="444" 
d="M391 396l-52 -39q-15 30 -46 48t-69 18q-41 0 -70 -18.5t-29 -54.5q0 -32 26 -50t86 -30q84 -17 123 -50t39 -87q0 -74 -51.5 -109.5t-124.5 -35.5q-123 0 -185 91l54 40q19 -32 54 -52.5t76 -20.5q49 0 79.5 19.5t30.5 62.5q0 35 -32.5 54t-105.5 36q-26 6 -45 13
t-42 21t-35 37t-12 55q0 67 48.5 101.5t118.5 34.5q50 0 95.5 -22.5t68.5 -61.5z" />
    <glyph glyph-name="t" unicode="t" horiz-adv-x="317" 
d="M301 468v-57h-132v-273q0 -49 18 -67.5t52 -18.5q27 0 59 15l3 -59q-37 -14 -80 -14q-48 0 -84 28t-36 97v292h-97v57h97v132h68v-132h132z" />
    <glyph glyph-name="u" unicode="u" horiz-adv-x="581" 
d="M495 0h-65q-4 33 -4 80h-2q-20 -41 -64.5 -66.5t-95.5 -25.5q-87 0 -132.5 52t-45.5 141v287h68v-259q0 -80 28.5 -122t98.5 -42q59 0 100.5 47.5t41.5 135.5v240h68v-365q0 -60 4 -103z" />
    <glyph glyph-name="v" unicode="v" horiz-adv-x="488" 
d="M472 468l-190 -468h-75l-191 468h76l152 -396h2l153 396h73z" />
    <glyph glyph-name="w" unicode="w" horiz-adv-x="746" 
d="M26 468h73l113 -380h2l126 380h66l128 -380h2l112 380h72l-148 -468h-74l-125 379h-2l-123 -379h-74z" />
    <glyph glyph-name="x" unicode="x" horiz-adv-x="484" 
d="M16 0l184 242l-173 226h87l128 -178l128 178h82l-170 -223l186 -245h-88l-139 195l-143 -195h-82z" />
    <glyph glyph-name="y" unicode="y" horiz-adv-x="488" 
d="M92 468l159 -395h2l145 395h74l-233 -589q-23 -59 -56.5 -89t-90.5 -30q-31 0 -61 6l7 62q26 -8 50 -8q34 0 54 20t36 63l38 98l-200 467h76z" />
    <glyph glyph-name="z" unicode="z" horiz-adv-x="442" 
d="M401 468v-48l-280 -361h290v-59h-380v48l279 363h-265v57h356z" />
    <glyph glyph-name="braceleft" unicode="{" horiz-adv-x="300" 
d="M0 258v60q79 0 79 111v178q0 65 30.5 95t77.5 30h63v-54h-48q-57 0 -57 -83v-178q0 -63 -30 -93.5t-59 -34.5v-2q29 -4 59 -34.5t30 -93.5v-178q0 -83 57 -83h48v-54h-63q-47 0 -77.5 30t-30.5 95v178q0 111 -79 111z" />
    <glyph glyph-name="bar" unicode="|" horiz-adv-x="222" 
d="M81 750h60v-1000h-60v1000z" />
    <glyph glyph-name="braceright" unicode="}" horiz-adv-x="300" 
d="M300 318v-60q-79 0 -79 -111v-178q0 -65 -30.5 -95t-77.5 -30h-63v54h48q57 0 57 83v178q0 63 30 93.5t59 34.5v2q-29 4 -59 34.5t-30 93.5v178q0 83 -57 83h-48v54h63q47 0 77.5 -30t30.5 -95v-178q0 -111 79 -111z" />
    <glyph glyph-name="asciitilde" unicode="~" horiz-adv-x="666" 
d="M535 368l42 -40q-58 -93 -136 -93q-55 0 -111 36q-65 40 -103 40q-53 0 -96 -73l-42 40q63 93 136 93q57 0 110 -35q64 -41 103 -41q51 0 97 73z" />
    <glyph glyph-name="uni00A0" unicode="&#xa0;" horiz-adv-x="250" 
 />
    <glyph glyph-name="exclamdown" unicode="&#xa1;" horiz-adv-x="328" 
d="M218 431q0 -22 -15.5 -38t-38.5 -16t-38.5 16t-15.5 38t15.5 38t38.5 16t38.5 -16t15.5 -38zM200 287v-516h-72v516h72z" />
    <glyph glyph-name="cent" unicode="&#xa2;" horiz-adv-x="580" 
d="M346 419v-370q35 2 63 19t44 42l54 -41q-63 -75 -161 -80v-61h-48v63q-96 10 -153 77.5t-57 165.5t57 165.5t153 77.5v63h48v-61q98 -5 161 -80l-54 -41q-16 25 -44 42t-63 19zM298 51v366q-63 -12 -100.5 -62t-37.5 -121t37.5 -121t100.5 -62z" />
    <glyph glyph-name="sterling" unicode="&#xa3;" horiz-adv-x="580" 
d="M417 395v-60h-168v-275h262v-60h-436v60h102v275h-96v60h96v93q0 46 11 86t34.5 75.5t66 56t100.5 20.5q99 0 155 -60l-47 -51q-44 50 -111 50q-34 0 -60 -13t-40 -31.5t-23 -45t-11.5 -48t-2.5 -45.5v-87h168z" />
    <glyph glyph-name="currency" unicode="&#xa4;" horiz-adv-x="580" 
d="M292 457q-75 0 -121 -50t-46 -122q0 -74 46 -124t121 -50q74 0 120.5 50t46.5 124q0 72 -46.5 122t-120.5 50zM563 514l-83 -83q47 -59 47 -146q0 -90 -50 -151l86 -86l-39 -40l-88 87q-63 -47 -144 -47q-83 0 -145 49l-89 -89l-40 40l88 89q-48 57 -48 148q0 83 45 144
l-85 85l40 39l85 -84q65 50 149 50q86 0 147 -50l84 84z" />
    <glyph glyph-name="yen" unicode="&#xa5;" horiz-adv-x="580" 
d="M91 223h165v105h-165v54h145l-226 326h89l193 -300l192 300h86l-224 -326h143v-54h-165v-105h165v-54h-165v-169h-68v169h-165v54z" />
    <glyph glyph-name="brokenbar" unicode="&#xa6;" horiz-adv-x="222" 
d="M81 175h60v-350h-60v350zM81 675h60v-350h-60v350z" />
    <glyph glyph-name="section" unicode="&#xa7;" horiz-adv-x="580" 
d="M320 384l-61 26q-35 -5 -62 -26.5t-27 -63.5q0 -36 24 -55.5t84 -47.5l66 -30q28 7 50.5 30t22.5 59q0 41 -25 64.5t-72 43.5zM474 632l-59 -30q-29 64 -108 64q-49 0 -78.5 -24t-29.5 -65q0 -22 7.5 -39t24 -30t29 -20.5t37.5 -18.5l87 -41q103 -50 103 -142
q0 -48 -25 -82t-64 -49q71 -42 71 -125q0 -79 -54.5 -121t-133.5 -42q-70 0 -122.5 29t-75.5 86l66 32q32 -87 132 -87q44 0 80 23t36 75q0 59 -75 96l-127 61q-45 22 -70 52.5t-25 81.5q0 49 28.5 83t75.5 49q-21 14 -34.5 24.5t-28 37t-14.5 58.5q0 76 52.5 117t128.5 41
q64 0 107 -26.5t59 -67.5z" />
    <glyph glyph-name="dieresis" unicode="&#xa8;" horiz-adv-x="240" 
d="M165 647q0 21 14 36t37 15t37 -15t14 -36t-14 -36t-37 -15t-37 15t-14 36zM-27 647q0 21 14 36t37 15t37 -15t14 -36t-14 -36t-37 -15t-37 15t-14 36z" />
    <glyph glyph-name="copyright" unicode="&#xa9;" horiz-adv-x="800" 
d="M80 353q0 -132 94.5 -225.5t226.5 -93.5t225.5 93.5t93.5 225.5t-93.5 226.5t-225.5 94.5t-226.5 -94.5t-94.5 -226.5zM20 353q0 157 111.5 267t269.5 110q157 0 268 -110t111 -267q0 -156 -111 -265.5t-268 -109.5q-158 0 -269.5 109t-111.5 266zM528 258l52 -34
q-26 -40 -69.5 -65.5t-100.5 -25.5q-98 0 -162 64t-64 162t64 161.5t162 63.5q49 0 93.5 -21.5t68.5 -57.5l-52 -40q-16 24 -45.5 41.5t-62.5 17.5q-72 0 -115.5 -48.5t-43.5 -116.5q0 -69 42.5 -117.5t114.5 -48.5q74 0 118 65z" />
    <glyph glyph-name="ordfeminine" unicode="&#xaa;" horiz-adv-x="360" 
d="M244 566h-15q-130 0 -130 -54q0 -44 59 -44q40 0 63 23t23 60v15zM244 606v8q0 30 -20 45.5t-53 15.5q-51 0 -83 -32l-32 35q45 42 120 42q61 0 92 -30t31 -80v-123q0 -36 4 -56h-52q-5 25 -5 41h-2q-33 -48 -98 -48q-42 0 -74 21t-32 66q0 30 17 50.5t49 29.5t63.5 12
t74.5 3z" />
    <glyph glyph-name="guillemotleft" unicode="&#xab;" horiz-adv-x="482" 
d="M421 416l-115 -176l115 -176l-47 -33l-140 209l140 209zM239 416l-115 -176l115 -176l-47 -33l-140 209l140 209z" />
    <glyph glyph-name="logicalnot" unicode="&#xac;" horiz-adv-x="666" 
d="M588 408v-278h-60v218h-450v60h510z" />
    <glyph glyph-name="uni00AD" unicode="&#xad;" horiz-adv-x="320" 
d="M272 271v-57h-224v57h224z" />
    <glyph glyph-name="registered" unicode="&#xae;" horiz-adv-x="600" 
d="M257 510h37q56 0 56 38q0 35 -51 35h-42v-73zM211 366v256h90q40 0 67.5 -18.5t27.5 -56.5q0 -56 -59 -69l69 -112h-56l-60 107h-33v-107h-46zM108 493q0 -79 56 -135.5t136 -56.5t136 56.5t56 135.5q0 80 -56 136t-136 56t-136 -56t-56 -136zM72 493q0 94 67 160.5
t161 66.5t161 -66.5t67 -160.5q0 -93 -67 -159t-161 -66t-161 66t-67 159z" />
    <glyph glyph-name="macron" unicode="&#xaf;" horiz-adv-x="240" 
d="M255 654v-54h-270v54h270z" />
    <glyph glyph-name="degree" unicode="&#xb0;" horiz-adv-x="400" 
d="M301 571q0 42 -29.5 71.5t-71.5 29.5t-71.5 -29.5t-29.5 -71.5t29.5 -71.5t71.5 -29.5t71.5 29.5t29.5 71.5zM349 571q0 -65 -42.5 -107t-106.5 -42t-106.5 42t-42.5 107t42.5 107t106.5 42t106.5 -42t42.5 -107z" />
    <glyph glyph-name="plusminus" unicode="&#xb1;" horiz-adv-x="666" 
d="M78 48v60h510v-60h-510zM78 347v60h225v156h60v-156h225v-60h-225v-151h-60v151h-225z" />
    <glyph glyph-name="twosuperior" unicode="&#xb2;" horiz-adv-x="370" 
d="M319 344v-54h-276v57l167 169q43 43 43 86q0 29 -18.5 45.5t-48.5 16.5q-28 0 -48 -19t-27 -51l-60 9q10 51 47 83.5t88 32.5q56 0 93.5 -31t37.5 -86q0 -27 -12 -53t-24 -40t-35 -37l-128 -128h201z" />
    <glyph glyph-name="threesuperior" unicode="&#xb3;" horiz-adv-x="370" 
d="M137 484v51h27q84 0 84 70q0 27 -19.5 44.5t-49.5 17.5q-48 0 -75 -50l-50 26q45 77 127 77q55 0 91 -29.5t36 -84.5q0 -62 -57 -93q69 -26 69 -102q0 -60 -40 -93.5t-100 -33.5q-102 0 -141 96l57 19q10 -29 32 -45t52 -16q33 0 56.5 19t23.5 54q0 37 -28 55t-68 18h-27
z" />
    <glyph glyph-name="acute" unicode="&#xb4;" horiz-adv-x="240" 
d="M250 708l-132 -144h-59l100 144h91z" />
    <glyph glyph-name="mu" unicode="&#xb5;" horiz-adv-x="556" 
d="M72 -228v696h66v-259q0 -88 28 -124.5t99 -36.5q62 0 102 48t40 132v240h66v-365q0 -45 5 -103h-71v76h-2q-22 -37 -66.5 -62.5t-90.5 -25.5q-69 0 -110 29v-245h-66z" />
    <glyph glyph-name="paragraph" unicode="&#xb6;" horiz-adv-x="600" 
d="M513 708v-834h-66v780h-124v-780h-66v442q-91 0 -150 53.5t-59 132.5q0 98 61 152t167 54h237z" />
    <glyph glyph-name="periodcentered" unicode="&#xb7;" horiz-adv-x="260" 
d="M184 314q0 -22 -15.5 -38t-38.5 -16t-38.5 16t-15.5 38t15.5 38t38.5 16t38.5 -16t15.5 -38z" />
    <glyph glyph-name="cedilla" unicode="&#xb8;" horiz-adv-x="240" 
d="M156 0l-47 -75q12 4 35 4q33 0 57.5 -19t24.5 -53q0 -46 -35 -66.5t-83 -20.5q-51 0 -94 20l16 36q29 -14 72 -14q21 0 42.5 11t21.5 33q0 39 -54 39q-21 0 -43 -8l-18 15l62 98h43z" />
    <glyph glyph-name="onesuperior" unicode="&#xb9;" horiz-adv-x="370" 
d="M232 708v-422h-61v346l-64 -57l-38 41l112 92h51z" />
    <glyph glyph-name="ordmasculine" unicode="&#xba;" horiz-adv-x="360" 
d="M274 572q0 42 -25 72t-69 30t-69 -30t-25 -72t25 -72t69 -30t69 30t25 72zM332 572q0 -64 -43 -106t-109 -42t-109 42t-43 106q0 65 43 106.5t109 41.5t109 -41.5t43 -106.5z" />
    <glyph glyph-name="guillemotright" unicode="&#xbb;" horiz-adv-x="482" 
d="M61 64l115 176l-115 176l47 33l140 -209l-140 -209zM243 64l115 176l-115 176l47 33l140 -209l-140 -209z" />
    <glyph glyph-name="onequarter" unicode="&#xbc;" horiz-adv-x="840" 
d="M667 712l-450 -743l-52 27l451 743zM232 708v-422h-61v346l-64 -57l-38 41l112 92h51zM668 340h-3l-122 -188h125v188zM723 422v-270h60v-54h-60v-98h-55v98h-188v52l175 272h68z" />
    <glyph glyph-name="onehalf" unicode="&#xbd;" horiz-adv-x="840" 
d="M232 708v-422h-61v346l-64 -57l-38 41l112 92h51zM667 712l-450 -743l-52 27l451 743zM786 54v-54h-276v57l167 169q43 43 43 86q0 29 -18.5 45.5t-48.5 16.5q-28 0 -48 -19t-27 -51l-60 9q10 51 47 83.5t88 32.5q56 0 93.5 -31t37.5 -86q0 -27 -12 -53t-24 -40t-35 -37
l-128 -128h201z" />
    <glyph glyph-name="threequarters" unicode="&#xbe;" horiz-adv-x="840" 
d="M667 712l-450 -743l-52 27l451 743zM137 484v51h27q84 0 84 70q0 27 -19.5 44.5t-49.5 17.5q-48 0 -75 -50l-50 26q45 77 127 77q55 0 91 -29.5t36 -84.5q0 -62 -57 -93q69 -26 69 -102q0 -60 -40 -93.5t-100 -33.5q-102 0 -141 96l57 19q10 -29 32 -45t52 -16
q33 0 56.5 19t23.5 54q0 37 -28 55t-68 18h-27zM668 340h-3l-122 -188h125v188zM723 422v-270h60v-54h-60v-98h-55v98h-188v52l175 272h68z" />
    <glyph glyph-name="questiondown" unicode="&#xbf;" horiz-adv-x="482" 
d="M188 431q0 22 15.5 38t38.5 16t38.5 -16t15.5 -38t-15.5 -38t-38.5 -16t-38.5 16t-15.5 38zM214 241v46h70v-60q0 -36 -13 -66t-27.5 -46.5t-39.5 -39.5l-28 -25q-58 -51 -58 -111q0 -54 36 -86t89 -32t86.5 32t42.5 85l68 -12q-15 -78 -68.5 -122.5t-131.5 -44.5
q-83 0 -138.5 47t-55.5 129q0 41 13.5 73t30 49t48.5 43q45 38 60.5 64t15.5 77z" />
    <glyph glyph-name="Agrave" unicode="&#xc0;" horiz-adv-x="700" 
d="M324 764l-132 144h91l100 -144h-59zM349 628l-156 -376h312zM166 186l-77 -186h-79l306 708h70l304 -708h-80l-78 186h-366z" />
    <glyph glyph-name="Aacute" unicode="&#xc1;" horiz-adv-x="700" 
d="M511 908l-132 -144h-59l100 144h91zM349 628l-156 -376h312zM166 186l-77 -186h-79l306 708h70l304 -708h-80l-78 186h-366z" />
    <glyph glyph-name="Acircumflex" unicode="&#xc2;" horiz-adv-x="700" 
d="M389 908l109 -144h-66l-83 108l-83 -108h-66l109 144h80zM349 628l-156 -376h312zM166 186l-77 -186h-79l306 708h70l304 -708h-80l-78 186h-366z" />
    <glyph glyph-name="Atilde" unicode="&#xc3;" horiz-adv-x="700" 
d="M231 776h-43q16 104 92 104q27 0 73 -23q50 -23 67 -23q35 0 49 50h43q-16 -104 -92 -104q-29 0 -73 23t-67 23q-35 0 -49 -50zM349 628l-156 -376h312zM166 186l-77 -186h-79l306 708h70l304 -708h-80l-78 186h-366z" />
    <glyph glyph-name="Adieresis" unicode="&#xc4;" horiz-adv-x="700" 
d="M396 847q0 21 14 36t37 15t37 -15t14 -36t-14 -36t-37 -15t-37 15t-14 36zM204 847q0 21 14 36t37 15t37 -15t14 -36t-14 -36t-37 -15t-37 15t-14 36zM349 628l-156 -376h312zM166 186l-77 -186h-79l306 708h70l304 -708h-80l-78 186h-366z" />
    <glyph glyph-name="Aring" unicode="&#xc5;" horiz-adv-x="700" 
d="M410 850q0 25 -17.5 42t-42.5 17t-42.5 -17t-17.5 -42t17.5 -42t42.5 -17t42.5 17t17.5 42zM446 850q0 -40 -28.5 -67.5t-67.5 -27.5t-67.5 27.5t-28.5 67.5q0 39 28.5 67t67.5 28t67.5 -28t28.5 -67zM349 628l-156 -376h312zM166 186l-77 -186h-79l306 708h70l304 -708
h-80l-78 186h-366z" />
    <glyph glyph-name="AE" unicode="&#xc6;" horiz-adv-x="990" 
d="M258 261h261v383h-14zM591 337v-273h345v-64h-417v198h-298l-128 -198h-82l461 708h452v-64h-333v-244h309v-63h-309z" />
    <glyph glyph-name="Ccedilla" unicode="&#xc7;" horiz-adv-x="720" 
d="M634 150l56 -36q-39 -59 -106.5 -95.5t-158.5 -36.5l-35 -57q12 4 35 4q33 0 57.5 -19t24.5 -53q0 -46 -35 -66.5t-83 -20.5q-51 0 -94 20l16 36q29 -14 72 -14q21 0 42.5 11t21.5 33q0 39 -54 39q-21 0 -43 -8l-18 15l52 82q-145 14 -236.5 117t-91.5 253
q0 161 105 266.5t264 105.5q79 0 148 -30.5t104 -81.5l-60 -44q-25 38 -76.5 65.5t-114.5 27.5q-133 0 -213.5 -90t-80.5 -219q0 -128 81 -218.5t213 -90.5q138 0 208 105z" />
    <glyph glyph-name="Egrave" unicode="&#xc8;" horiz-adv-x="592" 
d="M316 764l-132 144h91l100 -144h-59zM166 337v-273h379v-64h-451v708h439v-64h-367v-244h343v-63h-343z" />
    <glyph glyph-name="Eacute" unicode="&#xc9;" horiz-adv-x="592" 
d="M456 908l-132 -144h-59l100 144h91zM166 337v-273h379v-64h-451v708h439v-64h-367v-244h343v-63h-343z" />
    <glyph glyph-name="Ecircumflex" unicode="&#xca;" horiz-adv-x="592" 
d="M356 908l109 -144h-66l-83 108l-83 -108h-66l109 144h80zM166 337v-273h379v-64h-451v708h439v-64h-367v-244h343v-63h-343z" />
    <glyph glyph-name="Edieresis" unicode="&#xcb;" horiz-adv-x="592" 
d="M361 847q0 21 14 36t37 15t37 -15t14 -36t-14 -36t-37 -15t-37 15t-14 36zM169 847q0 21 14 36t37 15t37 -15t14 -36t-14 -36t-37 -15t-37 15t-14 36zM166 337v-273h379v-64h-451v708h439v-64h-367v-244h343v-63h-343z" />
    <glyph glyph-name="Igrave" unicode="&#xcc;" horiz-adv-x="260" 
d="M106 764l-132 144h91l100 -144h-59zM166 708v-708h-72v708h72z" />
    <glyph glyph-name="Iacute" unicode="&#xcd;" horiz-adv-x="260" 
d="M285 908l-132 -144h-59l100 144h91zM166 708v-708h-72v708h72z" />
    <glyph glyph-name="Icircumflex" unicode="&#xce;" horiz-adv-x="260" 
d="M170 908l109 -144h-66l-83 108l-83 -108h-66l109 144h80zM166 708v-708h-72v708h72z" />
    <glyph glyph-name="Idieresis" unicode="&#xcf;" horiz-adv-x="260" 
d="M175 847q0 21 14 36t37 15t37 -15t14 -36t-14 -36t-37 -15t-37 15t-14 36zM-17 847q0 21 14 36t37 15t37 -15t14 -36t-14 -36t-37 -15t-37 15t-14 36zM166 708v-708h-72v708h72z" />
    <glyph glyph-name="Eth" unicode="&#xd0;" horiz-adv-x="757" 
d="M158 347v-281h140q78 0 140 24t100 65t57.5 92t19.5 107t-19.5 107t-57.5 92t-100 65t-140 24h-140v-241h258v-54h-258zM86 0v347h-73v54h73v307h235q68 0 133 -22.5t119 -65t87 -112t33 -154.5t-33 -154.5t-87 -112t-119 -65t-133 -22.5h-235z" />
    <glyph glyph-name="Ntilde" unicode="&#xd1;" horiz-adv-x="764" 
d="M266 776h-43q16 104 92 104q27 0 73 -23q50 -23 67 -23q35 0 49 50h43q-16 -104 -92 -104q-29 0 -73 23t-67 23q-35 0 -49 -50zM184 708l412 -603h2v603h72v-708h-90l-412 609h-2v-609h-72v708h90z" />
    <glyph glyph-name="Ograve" unicode="&#xd2;" horiz-adv-x="850" 
d="M439 764l-132 144h91l100 -144h-59zM718 354q0 129 -80.5 219t-212.5 90t-212.5 -90t-80.5 -219t80.5 -218.5t212.5 -89.5t212.5 89.5t80.5 218.5zM794 354q0 -161 -105 -266.5t-264 -105.5t-264 105.5t-105 266.5t105 266.5t264 105.5t264 -105.5t105 -266.5z" />
    <glyph glyph-name="Oacute" unicode="&#xd3;" horiz-adv-x="850" 
d="M558 908l-132 -144h-59l100 144h91zM718 354q0 129 -80.5 219t-212.5 90t-212.5 -90t-80.5 -219t80.5 -218.5t212.5 -89.5t212.5 89.5t80.5 218.5zM794 354q0 -161 -105 -266.5t-264 -105.5t-264 105.5t-105 266.5t105 266.5t264 105.5t264 -105.5t105 -266.5z" />
    <glyph glyph-name="Ocircumflex" unicode="&#xd4;" horiz-adv-x="850" 
d="M465 908l109 -144h-66l-83 108l-83 -108h-66l109 144h80zM718 354q0 129 -80.5 219t-212.5 90t-212.5 -90t-80.5 -219t80.5 -218.5t212.5 -89.5t212.5 89.5t80.5 218.5zM794 354q0 -161 -105 -266.5t-264 -105.5t-264 105.5t-105 266.5t105 266.5t264 105.5t264 -105.5
t105 -266.5z" />
    <glyph glyph-name="Otilde" unicode="&#xd5;" horiz-adv-x="850" 
d="M306 776h-43q16 104 92 104q27 0 73 -23q50 -23 67 -23q35 0 49 50h43q-16 -104 -92 -104q-29 0 -73 23t-67 23q-35 0 -49 -50zM718 354q0 129 -80.5 219t-212.5 90t-212.5 -90t-80.5 -219t80.5 -218.5t212.5 -89.5t212.5 89.5t80.5 218.5zM794 354q0 -161 -105 -266.5
t-264 -105.5t-264 105.5t-105 266.5t105 266.5t264 105.5t264 -105.5t105 -266.5z" />
    <glyph glyph-name="Odieresis" unicode="&#xd6;" horiz-adv-x="850" 
d="M470 847q0 21 14 36t37 15t37 -15t14 -36t-14 -36t-37 -15t-37 15t-14 36zM278 847q0 21 14 36t37 15t37 -15t14 -36t-14 -36t-37 -15t-37 15t-14 36zM718 354q0 129 -80.5 219t-212.5 90t-212.5 -90t-80.5 -219t80.5 -218.5t212.5 -89.5t212.5 89.5t80.5 218.5zM794 354
q0 -161 -105 -266.5t-264 -105.5t-264 105.5t-105 266.5t105 266.5t264 105.5t264 -105.5t105 -266.5z" />
    <glyph glyph-name="multiply" unicode="&#xd7;" horiz-adv-x="666" 
d="M174 505l159 -159l158 159l43 -42l-159 -160l159 -159l-43 -43l-158 159l-159 -159l-42 43l159 159l-159 160z" />
    <glyph glyph-name="Oslash" unicode="&#xd8;" horiz-adv-x="850" 
d="M201 150l415 445q-74 68 -191 68q-133 0 -213 -90t-80 -219q0 -123 69 -204zM651 558l-415 -445q76 -67 189 -67q133 0 213 89.5t80 218.5q0 120 -67 204zM774 692l-76 -82q96 -102 96 -256q0 -161 -105 -266.5t-264 -105.5q-136 0 -236 81l-76 -81l-37 34l76 82
q-96 102 -96 256q0 161 105 266.5t264 105.5q136 0 236 -81l76 81z" />
    <glyph glyph-name="Ugrave" unicode="&#xd9;" horiz-adv-x="710" 
d="M356 764l-132 144h91l100 -144h-59zM355 -18q-75 0 -130 27t-82.5 71t-40 89.5t-12.5 94.5v444h72v-436q0 -96 46.5 -161t146.5 -65t146.5 65t46.5 161v436h72v-444q0 -49 -12.5 -94.5t-40 -89.5t-82.5 -71t-130 -27z" />
    <glyph glyph-name="Uacute" unicode="&#xda;" horiz-adv-x="710" 
d="M497 908l-132 -144h-59l100 144h91zM355 -18q-75 0 -130 27t-82.5 71t-40 89.5t-12.5 94.5v444h72v-436q0 -96 46.5 -161t146.5 -65t146.5 65t46.5 161v436h72v-444q0 -49 -12.5 -94.5t-40 -89.5t-82.5 -71t-130 -27z" />
    <glyph glyph-name="Ucircumflex" unicode="&#xdb;" horiz-adv-x="710" 
d="M395 908l109 -144h-66l-83 108l-83 -108h-66l109 144h80zM355 -18q-75 0 -130 27t-82.5 71t-40 89.5t-12.5 94.5v444h72v-436q0 -96 46.5 -161t146.5 -65t146.5 65t46.5 161v436h72v-444q0 -49 -12.5 -94.5t-40 -89.5t-82.5 -71t-130 -27z" />
    <glyph glyph-name="Udieresis" unicode="&#xdc;" horiz-adv-x="710" 
d="M401 847q0 21 14 36t37 15t37 -15t14 -36t-14 -36t-37 -15t-37 15t-14 36zM209 847q0 21 14 36t37 15t37 -15t14 -36t-14 -36t-37 -15t-37 15t-14 36zM355 -18q-75 0 -130 27t-82.5 71t-40 89.5t-12.5 94.5v444h72v-436q0 -96 46.5 -161t146.5 -65t146.5 65t46.5 161v436
h72v-444q0 -49 -12.5 -94.5t-40 -89.5t-82.5 -71t-130 -27z" />
    <glyph glyph-name="Yacute" unicode="&#xdd;" horiz-adv-x="602" 
d="M466 908l-132 -144h-59l100 144h91zM337 305v-305h-72v305l-265 403h90l213 -343l215 343h84z" />
    <glyph glyph-name="Thorn" unicode="&#xde;" horiz-adv-x="580" 
d="M166 489v-252h116q173 0 173 127q0 125 -173 125h-116zM94 0v708h72v-155h128q111 0 175 -48t64 -141t-65 -141.5t-176 -48.5h-126v-174h-72z" />
    <glyph glyph-name="germandbls" unicode="&#xdf;" horiz-adv-x="597" 
d="M156 542v-542h-68v544q0 42 10 79.5t32.5 71t65.5 53.5t102 20q79 0 135.5 -48t56.5 -129q0 -117 -116 -159v-2q77 -10 124 -65.5t47 -141.5q0 -107 -65.5 -171t-174.5 -64q-28 0 -55 5v57q17 -4 48 -4q81 0 128.5 47.5t47.5 130.5q0 85 -52 130t-141 45h-9v60h8
q64 0 102.5 31.5t38.5 94.5q0 58 -36 90.5t-90 32.5q-41 0 -70 -15.5t-43 -42t-20 -52.5t-6 -56z" />
    <glyph glyph-name="agrave" unicode="&#xe0;" horiz-adv-x="534" 
d="M276 564l-132 144h91l100 -144h-59zM385 234h-20q-240 0 -240 -101q0 -46 32 -67.5t78 -21.5q69 0 109.5 45t40.5 110v35zM385 287v15q0 121 -125 121q-84 0 -139 -55l-38 45q67 67 184 67q80 0 131 -43.5t51 -126.5v-205q0 -62 8 -105h-61q-7 40 -7 76h-2
q-32 -47 -72 -67.5t-98 -20.5q-63 0 -112.5 35.5t-49.5 106.5q0 35 12 61.5t36 43.5t52 27.5t69 16t76.5 7t84.5 1.5z" />
    <glyph glyph-name="aacute" unicode="&#xe1;" horiz-adv-x="534" 
d="M406 708l-132 -144h-59l100 144h91zM385 234h-20q-240 0 -240 -101q0 -46 32 -67.5t78 -21.5q69 0 109.5 45t40.5 110v35zM385 287v15q0 121 -125 121q-84 0 -139 -55l-38 45q67 67 184 67q80 0 131 -43.5t51 -126.5v-205q0 -62 8 -105h-61q-7 40 -7 76h-2
q-32 -47 -72 -67.5t-98 -20.5q-63 0 -112.5 35.5t-49.5 106.5q0 35 12 61.5t36 43.5t52 27.5t69 16t76.5 7t84.5 1.5z" />
    <glyph glyph-name="acircumflex" unicode="&#xe2;" horiz-adv-x="534" 
d="M309 708l109 -144h-66l-83 108l-83 -108h-66l109 144h80zM385 234h-20q-240 0 -240 -101q0 -46 32 -67.5t78 -21.5q69 0 109.5 45t40.5 110v35zM385 287v15q0 121 -125 121q-84 0 -139 -55l-38 45q67 67 184 67q80 0 131 -43.5t51 -126.5v-205q0 -62 8 -105h-61
q-7 40 -7 76h-2q-32 -47 -72 -67.5t-98 -20.5q-63 0 -112.5 35.5t-49.5 106.5q0 35 12 61.5t36 43.5t52 27.5t69 16t76.5 7t84.5 1.5z" />
    <glyph glyph-name="atilde" unicode="&#xe3;" horiz-adv-x="534" 
d="M146 576h-43q16 104 92 104q27 0 73 -23q50 -23 67 -23q35 0 49 50h43q-16 -104 -92 -104q-29 0 -73 23t-67 23q-35 0 -49 -50zM385 234h-20q-240 0 -240 -101q0 -46 32 -67.5t78 -21.5q69 0 109.5 45t40.5 110v35zM385 287v15q0 121 -125 121q-84 0 -139 -55l-38 45
q67 67 184 67q80 0 131 -43.5t51 -126.5v-205q0 -62 8 -105h-61q-7 40 -7 76h-2q-32 -47 -72 -67.5t-98 -20.5q-63 0 -112.5 35.5t-49.5 106.5q0 35 12 61.5t36 43.5t52 27.5t69 16t76.5 7t84.5 1.5z" />
    <glyph glyph-name="adieresis" unicode="&#xe4;" horiz-adv-x="534" 
d="M311 647q0 21 14 36t37 15t37 -15t14 -36t-14 -36t-37 -15t-37 15t-14 36zM119 647q0 21 14 36t37 15t37 -15t14 -36t-14 -36t-37 -15t-37 15t-14 36zM385 234h-20q-240 0 -240 -101q0 -46 32 -67.5t78 -21.5q69 0 109.5 45t40.5 110v35zM385 287v15q0 121 -125 121
q-84 0 -139 -55l-38 45q67 67 184 67q80 0 131 -43.5t51 -126.5v-205q0 -62 8 -105h-61q-7 40 -7 76h-2q-32 -47 -72 -67.5t-98 -20.5q-63 0 -112.5 35.5t-49.5 106.5q0 35 12 61.5t36 43.5t52 27.5t69 16t76.5 7t84.5 1.5z" />
    <glyph glyph-name="aring" unicode="&#xe5;" horiz-adv-x="534" 
d="M325 650q0 25 -17.5 42t-42.5 17t-42.5 -17t-17.5 -42t17.5 -42t42.5 -17t42.5 17t17.5 42zM361 650q0 -40 -28.5 -67.5t-67.5 -27.5t-67.5 27.5t-28.5 67.5q0 39 28.5 67t67.5 28t67.5 -28t28.5 -67zM385 234h-20q-240 0 -240 -101q0 -46 32 -67.5t78 -21.5
q69 0 109.5 45t40.5 110v35zM385 287v15q0 121 -125 121q-84 0 -139 -55l-38 45q67 67 184 67q80 0 131 -43.5t51 -126.5v-205q0 -62 8 -105h-61q-7 40 -7 76h-2q-32 -47 -72 -67.5t-98 -20.5q-63 0 -112.5 35.5t-49.5 106.5q0 35 12 61.5t36 43.5t52 27.5t69 16t76.5 7
t84.5 1.5z" />
    <glyph glyph-name="ae" unicode="&#xe6;" horiz-adv-x="870" 
d="M380 216h-20q-42 0 -71.5 -1.5t-62.5 -6.5t-53 -14.5t-33.5 -26.5t-13.5 -41q0 -83 111 -83q70 0 106.5 37t36.5 102v34zM446 270h299q0 68 -38.5 110.5t-105.5 42.5q-61 0 -107 -46t-48 -107zM814 248q0 -23 -1 -32h-370q2 -72 48.5 -121.5t114.5 -49.5q48 0 85.5 23
t57.5 58l49 -39q-74 -99 -192 -99q-65 0 -114 29t-72 80q-47 -109 -195 -109q-69 0 -119 34t-50 103q0 38 19 66t47.5 43t74.5 23.5t86.5 10.5t96.5 2v15q0 63 -30.5 100.5t-89.5 37.5q-84 0 -144 -55l-39 44q31 30 83 49t110 19q56 0 96.5 -25.5t57.5 -72.5q28 46 74.5 72
t102.5 26q101 0 157 -66t56 -166z" />
    <glyph glyph-name="ccedilla" unicode="&#xe7;" horiz-adv-x="500" 
d="M480 399l-53 -38q-18 28 -50.5 45t-69.5 17q-80 0 -129.5 -53.5t-49.5 -135.5q0 -81 49 -134.5t129 -53.5q81 0 127 61l51 -38q-62 -77 -172 -81l-39 -63q12 4 35 4q33 0 57.5 -19t24.5 -53q0 -46 -35 -66.5t-83 -20.5q-51 0 -94 20l16 36q29 -14 72 -14q21 0 42.5 11
t21.5 33q0 39 -54 39q-21 0 -43 -8l-18 15l55 88q-98 12 -156 78.5t-58 165.5q0 107 69 176.5t181 69.5q49 0 97 -21.5t77 -59.5z" />
    <glyph glyph-name="egrave" unicode="&#xe8;" 
d="M282 564l-132 144h91l100 -144h-59zM516 248q0 -20 -1 -32h-388q2 -71 50.5 -120.5t120.5 -49.5q50 0 89 23t61 58l51 -40q-78 -99 -201 -99q-104 0 -173 70t-69 176q0 105 68 175.5t168 70.5q106 0 165 -66t59 -166zM128 270h319q-3 68 -43.5 110.5t-111.5 42.5
q-67 0 -113.5 -45.5t-50.5 -107.5z" />
    <glyph glyph-name="eacute" unicode="&#xe9;" 
d="M442 708l-132 -144h-59l100 144h91zM516 248q0 -20 -1 -32h-388q2 -71 50.5 -120.5t120.5 -49.5q50 0 89 23t61 58l51 -40q-78 -99 -201 -99q-104 0 -173 70t-69 176q0 105 68 175.5t168 70.5q106 0 165 -66t59 -166zM128 270h319q-3 68 -43.5 110.5t-111.5 42.5
q-67 0 -113.5 -45.5t-50.5 -107.5z" />
    <glyph glyph-name="ecircumflex" unicode="&#xea;" 
d="M339 708l109 -144h-66l-83 108l-83 -108h-66l109 144h80zM516 248q0 -20 -1 -32h-388q2 -71 50.5 -120.5t120.5 -49.5q50 0 89 23t61 58l51 -40q-78 -99 -201 -99q-104 0 -173 70t-69 176q0 105 68 175.5t168 70.5q106 0 165 -66t59 -166zM128 270h319q-3 68 -43.5 110.5
t-111.5 42.5q-67 0 -113.5 -45.5t-50.5 -107.5z" />
    <glyph glyph-name="edieresis" unicode="&#xeb;" 
d="M344 647q0 21 14 36t37 15t37 -15t14 -36t-14 -36t-37 -15t-37 15t-14 36zM152 647q0 21 14 36t37 15t37 -15t14 -36t-14 -36t-37 -15t-37 15t-14 36zM516 248q0 -20 -1 -32h-388q2 -71 50.5 -120.5t120.5 -49.5q50 0 89 23t61 58l51 -40q-78 -99 -201 -99
q-104 0 -173 70t-69 176q0 105 68 175.5t168 70.5q106 0 165 -66t59 -166zM128 270h319q-3 68 -43.5 110.5t-111.5 42.5q-67 0 -113.5 -45.5t-50.5 -107.5z" />
    <glyph glyph-name="igrave" unicode="&#xec;" horiz-adv-x="250" 
d="M99 564l-132 144h91l100 -144h-59zM159 468v-468h-68v468h68z" />
    <glyph glyph-name="iacute" unicode="&#xed;" horiz-adv-x="250" 
d="M282 708l-132 -144h-59l100 144h91zM159 468v-468h-68v468h68z" />
    <glyph glyph-name="icircumflex" unicode="&#xee;" horiz-adv-x="250" 
d="M167 708l109 -144h-66l-83 108l-83 -108h-66l109 144h80zM159 468v-468h-68v468h68z" />
    <glyph glyph-name="idieresis" unicode="&#xef;" horiz-adv-x="250" 
d="M171 647q0 21 14 36t37 15t37 -15t14 -36t-14 -36t-37 -15t-37 15t-14 36zM-21 647q0 21 14 36t37 15t37 -15t14 -36t-14 -36t-37 -15t-37 15t-14 36zM159 468v-468h-68v468h68z" />
    <glyph glyph-name="eth" unicode="&#xf0;" horiz-adv-x="611" 
d="M455 714l-103 -54q86 -79 139.5 -187t53.5 -221q0 -48 -13.5 -92.5t-41.5 -84t-78 -63.5t-116 -24q-108 0 -178 70t-70 176t70 176t178 70q80 0 150 -58l2 2q-57 120 -156 205l-112 -57l-36 36l110 56q-29 28 -100 77l59 37q63 -49 100 -82l102 53zM120 234
q0 -80 48.5 -133t127.5 -53t128 53t49 133t-49 133t-128 53t-127.5 -53t-48.5 -133z" />
    <glyph glyph-name="ntilde" unicode="&#xf1;" horiz-adv-x="581" 
d="M174 576h-43q16 104 92 104q27 0 73 -23q50 -23 67 -23q35 0 49 50h43q-16 -104 -92 -104q-29 0 -73 23t-67 23q-35 0 -49 -50zM86 468h65q4 -33 4 -80h2q20 41 64.5 66.5t95.5 25.5q87 0 132.5 -52t45.5 -141v-287h-68v259q0 80 -28.5 122t-98.5 42q-59 0 -100.5 -47.5
t-41.5 -135.5v-240h-68v365q0 60 -4 103z" />
    <glyph glyph-name="ograve" unicode="&#xf2;" horiz-adv-x="611" 
d="M285 564l-132 144h91l100 -144h-59zM483 234q0 80 -49 134.5t-129 54.5q-79 0 -128 -54.5t-49 -134.5t49 -134t128 -54q80 0 129 53.5t49 134.5zM555 234q0 -106 -70 -176t-180 -70q-108 0 -178.5 70t-70.5 176t70.5 176t178.5 70q110 0 180 -70t70 -176z" />
    <glyph glyph-name="oacute" unicode="&#xf3;" horiz-adv-x="611" 
d="M455 708l-132 -144h-59l100 144h91zM483 234q0 80 -49 134.5t-129 54.5q-79 0 -128 -54.5t-49 -134.5t49 -134t128 -54q80 0 129 53.5t49 134.5zM555 234q0 -106 -70 -176t-180 -70q-108 0 -178.5 70t-70.5 176t70.5 176t178.5 70q110 0 180 -70t70 -176z" />
    <glyph glyph-name="ocircumflex" unicode="&#xf4;" horiz-adv-x="611" 
d="M345 708l109 -144h-66l-83 108l-83 -108h-66l109 144h80zM483 234q0 80 -49 134.5t-129 54.5q-79 0 -128 -54.5t-49 -134.5t49 -134t128 -54q80 0 129 53.5t49 134.5zM555 234q0 -106 -70 -176t-180 -70q-108 0 -178.5 70t-70.5 176t70.5 176t178.5 70q110 0 180 -70
t70 -176z" />
    <glyph glyph-name="otilde" unicode="&#xf5;" horiz-adv-x="611" 
d="M186 576h-43q16 104 92 104q27 0 73 -23q50 -23 67 -23q35 0 49 50h43q-16 -104 -92 -104q-29 0 -73 23t-67 23q-35 0 -49 -50zM483 234q0 80 -49 134.5t-129 54.5q-79 0 -128 -54.5t-49 -134.5t49 -134t128 -54q80 0 129 53.5t49 134.5zM555 234q0 -106 -70 -176
t-180 -70q-108 0 -178.5 70t-70.5 176t70.5 176t178.5 70q110 0 180 -70t70 -176z" />
    <glyph glyph-name="odieresis" unicode="&#xf6;" horiz-adv-x="611" 
d="M350 647q0 21 14 36t37 15t37 -15t14 -36t-14 -36t-37 -15t-37 15t-14 36zM158 647q0 21 14 36t37 15t37 -15t14 -36t-14 -36t-37 -15t-37 15t-14 36zM483 234q0 80 -49 134.5t-129 54.5q-79 0 -128 -54.5t-49 -134.5t49 -134t128 -54q80 0 129 53.5t49 134.5zM555 234
q0 -106 -70 -176t-180 -70q-108 0 -178.5 70t-70.5 176t70.5 176t178.5 70q110 0 180 -70t70 -176z" />
    <glyph glyph-name="divide" unicode="&#xf7;" horiz-adv-x="666" 
d="M387 141q0 -22 -15.5 -38t-38.5 -16t-38.5 16t-15.5 38t15.5 38t38.5 16t38.5 -16t15.5 -38zM387 465q0 -22 -15.5 -38t-38.5 -16t-38.5 16t-15.5 38t15.5 38t38.5 16t38.5 -16t15.5 -38zM588 333v-60h-510v60h510z" />
    <glyph glyph-name="oslash" unicode="&#xf8;" horiz-adv-x="611" 
d="M561 465l-66 -68q60 -68 60 -163q0 -106 -70.5 -176t-180.5 -70q-92 0 -157 52l-67 -68l-32 31l66 68q-58 67 -58 163q0 106 70 176t178 70q91 0 159 -52l66 68zM159 116l262 269q-40 40 -116 40q-81 0 -130.5 -54.5t-49.5 -136.5q0 -75 34 -118zM450 351l-262 -269
q50 -39 115 -39q82 0 132.5 54.5t50.5 136.5q0 74 -36 117z" />
    <glyph glyph-name="ugrave" unicode="&#xf9;" horiz-adv-x="581" 
d="M277 564l-132 144h91l100 -144h-59zM495 0h-65q-4 33 -4 80h-2q-20 -41 -64.5 -66.5t-95.5 -25.5q-87 0 -132.5 52t-45.5 141v287h68v-259q0 -80 28.5 -122t98.5 -42q59 0 100.5 47.5t41.5 135.5v240h68v-365q0 -60 4 -103z" />
    <glyph glyph-name="uacute" unicode="&#xfa;" horiz-adv-x="581" 
d="M432 708l-132 -144h-59l100 144h91zM495 0h-65q-4 33 -4 80h-2q-20 -41 -64.5 -66.5t-95.5 -25.5q-87 0 -132.5 52t-45.5 141v287h68v-259q0 -80 28.5 -122t98.5 -42q59 0 100.5 47.5t41.5 135.5v240h68v-365q0 -60 4 -103z" />
    <glyph glyph-name="ucircumflex" unicode="&#xfb;" horiz-adv-x="581" 
d="M329 708l109 -144h-66l-83 108l-83 -108h-66l109 144h80zM495 0h-65q-4 33 -4 80h-2q-20 -41 -64.5 -66.5t-95.5 -25.5q-87 0 -132.5 52t-45.5 141v287h68v-259q0 -80 28.5 -122t98.5 -42q59 0 100.5 47.5t41.5 135.5v240h68v-365q0 -60 4 -103z" />
    <glyph glyph-name="udieresis" unicode="&#xfc;" horiz-adv-x="581" 
d="M334 647q0 21 14 36t37 15t37 -15t14 -36t-14 -36t-37 -15t-37 15t-14 36zM142 647q0 21 14 36t37 15t37 -15t14 -36t-14 -36t-37 -15t-37 15t-14 36zM495 0h-65q-4 33 -4 80h-2q-20 -41 -64.5 -66.5t-95.5 -25.5q-87 0 -132.5 52t-45.5 141v287h68v-259q0 -80 28.5 -122
t98.5 -42q59 0 100.5 47.5t41.5 135.5v240h68v-365q0 -60 4 -103z" />
    <glyph glyph-name="yacute" unicode="&#xfd;" horiz-adv-x="488" 
d="M399 708l-132 -144h-59l100 144h91zM92 468l159 -395h2l145 395h74l-233 -589q-23 -59 -56.5 -89t-90.5 -30q-31 0 -61 6l7 62q26 -8 50 -8q34 0 54 20t36 63l38 98l-200 467h76z" />
    <glyph glyph-name="thorn" unicode="&#xfe;" horiz-adv-x="633" 
d="M505 234q0 80 -49 133t-128 53t-127.5 -53t-48.5 -133t48.5 -133t127.5 -53t128 53t49 133zM334 -12q-53 0 -99.5 23t-74.5 68h-2v-319h-66v996h66v-369h2q29 45 75.5 69t98.5 24q104 0 173.5 -70t69.5 -176t-69.5 -176t-173.5 -70z" />
    <glyph glyph-name="ydieresis" unicode="&#xff;" horiz-adv-x="488" 
d="M297 647q0 21 14 36t37 15t37 -15t14 -36t-14 -36t-37 -15t-37 15t-14 36zM105 647q0 21 14 36t37 15t37 -15t14 -36t-14 -36t-37 -15t-37 15t-14 36zM92 468l159 -395h2l145 395h74l-233 -589q-23 -59 -56.5 -89t-90.5 -30q-31 0 -61 6l7 62q26 -8 50 -8q34 0 54 20
t36 63l38 98l-200 467h76z" />
    <glyph glyph-name="Amacron" unicode="&#x100;" horiz-adv-x="700" 
d="M486 854v-54h-270v54h270zM349 628l-156 -376h312zM166 186l-77 -186h-79l306 708h70l304 -708h-80l-78 186h-366z" />
    <glyph glyph-name="amacron" unicode="&#x101;" horiz-adv-x="534" 
d="M405 654v-54h-270v54h270zM385 234h-20q-240 0 -240 -101q0 -46 32 -67.5t78 -21.5q69 0 109.5 45t40.5 110v35zM385 287v15q0 121 -125 121q-84 0 -139 -55l-38 45q67 67 184 67q80 0 131 -43.5t51 -126.5v-205q0 -62 8 -105h-61q-7 40 -7 76h-2q-32 -47 -72 -67.5
t-98 -20.5q-63 0 -112.5 35.5t-49.5 106.5q0 35 12 61.5t36 43.5t52 27.5t69 16t76.5 7t84.5 1.5z" />
    <glyph glyph-name="Abreve" unicode="&#x102;" horiz-adv-x="700" 
d="M454 908h44q-4 -62 -44 -97t-103 -35t-103 35t-44 97h44q7 -38 35 -58t68 -20t68 20t35 58zM349 628l-156 -376h312zM166 186l-77 -186h-79l306 708h70l304 -708h-80l-78 186h-366z" />
    <glyph glyph-name="abreve" unicode="&#x103;" horiz-adv-x="534" 
d="M376 708h44q-4 -62 -44 -97t-103 -35t-103 35t-44 97h44q7 -38 35 -58t68 -20t68 20t35 58zM385 234h-20q-240 0 -240 -101q0 -46 32 -67.5t78 -21.5q69 0 109.5 45t40.5 110v35zM385 287v15q0 121 -125 121q-84 0 -139 -55l-38 45q67 67 184 67q80 0 131 -43.5
t51 -126.5v-205q0 -62 8 -105h-61q-7 40 -7 76h-2q-32 -47 -72 -67.5t-98 -20.5q-63 0 -112.5 35.5t-49.5 106.5q0 35 12 61.5t36 43.5t52 27.5t69 16t76.5 7t84.5 1.5z" />
    <glyph glyph-name="Aogonek" unicode="&#x104;" horiz-adv-x="700" 
d="M349 628l-156 -376h312zM682 -147l19 -40q-36 -36 -90 -36q-37 0 -63.5 24t-26.5 61q0 66 89 138l-78 186h-366l-77 -186h-79l306 708h70l304 -708h-32q-41 -41 -59 -67.5t-18 -53.5q0 -21 14.5 -34.5t35.5 -13.5q32 0 51 22z" />
    <glyph glyph-name="aogonek" unicode="&#x105;" horiz-adv-x="534" 
d="M385 234h-20q-240 0 -240 -101q0 -46 32 -67.5t78 -21.5q69 0 109.5 45t40.5 110v35zM470 -147l19 -40q-36 -36 -90 -36q-37 0 -63.5 24t-26.5 61q0 66 89 138h-2q-7 40 -7 76h-2q-32 -47 -72 -67.5t-98 -20.5q-63 0 -112.5 35.5t-49.5 106.5q0 35 12 61.5t36 43.5
t52 27.5t69 16t76.5 7t84.5 1.5v15q0 121 -125 121q-84 0 -139 -55l-38 45q67 67 184 67q80 0 131 -43.5t51 -126.5v-205q0 -62 8 -105h-11q-41 -41 -59 -67.5t-18 -53.5q0 -21 14.5 -34.5t35.5 -13.5q32 0 51 22z" />
    <glyph glyph-name="Cacute" unicode="&#x106;" horiz-adv-x="720" 
d="M560 908l-132 -144h-59l100 144h91zM634 150l56 -36q-39 -59 -106.5 -95.5t-158.5 -36.5q-160 0 -264.5 105.5t-104.5 266.5t105 266.5t264 105.5q79 0 148 -30.5t104 -81.5l-60 -44q-25 38 -76.5 65.5t-114.5 27.5q-133 0 -213.5 -90t-80.5 -219q0 -128 81 -218.5
t213 -90.5q138 0 208 105z" />
    <glyph glyph-name="cacute" unicode="&#x107;" horiz-adv-x="500" 
d="M441 708l-132 -144h-59l100 144h91zM480 399l-53 -38q-18 28 -50.5 45t-69.5 17q-80 0 -129.5 -53.5t-49.5 -135.5q0 -81 49 -134.5t129 -53.5q81 0 127 61l51 -38q-66 -81 -178 -81t-181 69.5t-69 176.5t69 176.5t181 69.5q49 0 97 -21.5t77 -59.5z" />
    <glyph glyph-name="Ccircumflex" unicode="&#x108;" horiz-adv-x="720" 
d="M464 908l109 -144h-66l-83 108l-83 -108h-66l109 144h80zM634 150l56 -36q-39 -59 -106.5 -95.5t-158.5 -36.5q-160 0 -264.5 105.5t-104.5 266.5t105 266.5t264 105.5q79 0 148 -30.5t104 -81.5l-60 -44q-25 38 -76.5 65.5t-114.5 27.5q-133 0 -213.5 -90t-80.5 -219
q0 -128 81 -218.5t213 -90.5q138 0 208 105z" />
    <glyph glyph-name="ccircumflex" unicode="&#x109;" horiz-adv-x="500" 
d="M343 708l109 -144h-66l-83 108l-83 -108h-66l109 144h80zM480 399l-53 -38q-18 28 -50.5 45t-69.5 17q-80 0 -129.5 -53.5t-49.5 -135.5q0 -81 49 -134.5t129 -53.5q81 0 127 61l51 -38q-66 -81 -178 -81t-181 69.5t-69 176.5t69 176.5t181 69.5q49 0 97 -21.5t77 -59.5z
" />
    <glyph glyph-name="Cdotaccent" unicode="&#x10a;" horiz-adv-x="720" 
d="M463 848q0 -20 -14.5 -34t-33.5 -14t-33.5 14t-14.5 34t14.5 34t33.5 14t33.5 -14t14.5 -34zM634 150l56 -36q-39 -59 -106.5 -95.5t-158.5 -36.5q-160 0 -264.5 105.5t-104.5 266.5t105 266.5t264 105.5q79 0 148 -30.5t104 -81.5l-60 -44q-25 38 -76.5 65.5
t-114.5 27.5q-133 0 -213.5 -90t-80.5 -219q0 -128 81 -218.5t213 -90.5q138 0 208 105z" />
    <glyph glyph-name="cdotaccent" unicode="&#x10b;" horiz-adv-x="500" 
d="M343 648q0 -20 -14.5 -34t-33.5 -14t-33.5 14t-14.5 34t14.5 34t33.5 14t33.5 -14t14.5 -34zM480 399l-53 -38q-18 28 -50.5 45t-69.5 17q-80 0 -129.5 -53.5t-49.5 -135.5q0 -81 49 -134.5t129 -53.5q81 0 127 61l51 -38q-66 -81 -178 -81t-181 69.5t-69 176.5t69 176.5
t181 69.5q49 0 97 -21.5t77 -59.5z" />
    <glyph glyph-name="Ccaron" unicode="&#x10c;" horiz-adv-x="720" 
d="M572 908l-109 -144h-80l-109 144h66l83 -108l83 108h66zM634 150l56 -36q-39 -59 -106.5 -95.5t-158.5 -36.5q-160 0 -264.5 105.5t-104.5 266.5t105 266.5t264 105.5q79 0 148 -30.5t104 -81.5l-60 -44q-25 38 -76.5 65.5t-114.5 27.5q-133 0 -213.5 -90t-80.5 -219
q0 -128 81 -218.5t213 -90.5q138 0 208 105z" />
    <glyph glyph-name="ccaron" unicode="&#x10d;" horiz-adv-x="500" 
d="M453 708l-109 -144h-80l-109 144h66l83 -108l83 108h66zM480 399l-53 -38q-18 28 -50.5 45t-69.5 17q-80 0 -129.5 -53.5t-49.5 -135.5q0 -81 49 -134.5t129 -53.5q81 0 127 61l51 -38q-66 -81 -178 -81t-181 69.5t-69 176.5t69 176.5t181 69.5q49 0 97 -21.5t77 -59.5z
" />
    <glyph glyph-name="Dcaron" unicode="&#x10e;" horiz-adv-x="757" 
d="M496 908l-109 -144h-80l-109 144h66l83 -108l83 108h66zM166 644v-580h143q77 0 138.5 24.5t99.5 66t58 92.5t20 107t-20 107t-58 92.5t-99.5 66t-138.5 24.5h-143zM94 0v708h235q68 0 133 -22.5t119 -65t87 -112t33 -154.5t-33 -154.5t-87 -112t-119 -65t-133 -22.5
h-235z" />
    <glyph glyph-name="dcaron" unicode="&#x10f;" horiz-adv-x="637" 
d="M734 708l-76 -185h-57l62 185h71zM128 234q0 -81 47.5 -134.5t129.5 -53.5q78 0 129 53.5t51 134.5t-51 135t-129 54q-81 0 -129 -54t-48 -135zM477 79h-2q-29 -44 -76.5 -67.5t-100.5 -23.5q-108 0 -175 70t-67 176t67 176t175 70q53 0 100.5 -24t76.5 -69h2v369h68
v-756h-68v79z" />
    <glyph glyph-name="Dcroat" unicode="&#x110;" horiz-adv-x="757" 
d="M158 347v-281h140q78 0 140 24t100 65t57.5 92t19.5 107t-19.5 107t-57.5 92t-100 65t-140 24h-140v-241h258v-54h-258zM86 0v347h-73v54h73v307h235q68 0 133 -22.5t119 -65t87 -112t33 -154.5t-33 -154.5t-87 -112t-119 -65t-133 -22.5h-235z" />
    <glyph glyph-name="dcroat" unicode="&#x111;" horiz-adv-x="637" 
d="M128 234q0 -81 47.5 -134.5t129.5 -53.5q78 0 129 53.5t51 134.5t-51 135t-129 54q-81 0 -129 -54t-48 -135zM321 620h156v136h68v-136h56v-50h-56v-570h-68v79h-2q-29 -44 -76.5 -67.5t-100.5 -23.5q-108 0 -175 70t-67 176t67 176t175 70q53 0 100.5 -24t76.5 -69h2
v183h-156v50z" />
    <glyph glyph-name="Emacron" unicode="&#x112;" horiz-adv-x="592" 
d="M452 854v-54h-270v54h270zM166 337v-273h379v-64h-451v708h439v-64h-367v-244h343v-63h-343z" />
    <glyph glyph-name="emacron" unicode="&#x113;" 
d="M431 654v-54h-270v54h270zM516 248q0 -20 -1 -32h-388q2 -71 50.5 -120.5t120.5 -49.5q50 0 89 23t61 58l51 -40q-78 -99 -201 -99q-104 0 -173 70t-69 176q0 105 68 175.5t168 70.5q106 0 165 -66t59 -166zM128 270h319q-3 68 -43.5 110.5t-111.5 42.5
q-67 0 -113.5 -45.5t-50.5 -107.5z" />
    <glyph glyph-name="Ebreve" unicode="&#x114;" horiz-adv-x="592" 
d="M419 908h44q-4 -62 -44 -97t-103 -35t-103 35t-44 97h44q7 -38 35 -58t68 -20t68 20t35 58zM166 337v-273h379v-64h-451v708h439v-64h-367v-244h343v-63h-343z" />
    <glyph glyph-name="ebreve" unicode="&#x115;" 
d="M397 708h44q-4 -62 -44 -97t-103 -35t-103 35t-44 97h44q7 -38 35 -58t68 -20t68 20t35 58zM516 248q0 -20 -1 -32h-388q2 -71 50.5 -120.5t120.5 -49.5q50 0 89 23t61 58l51 -40q-78 -99 -201 -99q-104 0 -173 70t-69 176q0 105 68 175.5t168 70.5q106 0 165 -66
t59 -166zM128 270h319q-3 68 -43.5 110.5t-111.5 42.5q-67 0 -113.5 -45.5t-50.5 -107.5z" />
    <glyph glyph-name="Edotaccent" unicode="&#x116;" horiz-adv-x="592" 
d="M369 848q0 -20 -14.5 -34t-33.5 -14t-33.5 14t-14.5 34t14.5 34t33.5 14t33.5 -14t14.5 -34zM166 337v-273h379v-64h-451v708h439v-64h-367v-244h343v-63h-343z" />
    <glyph glyph-name="edotaccent" unicode="&#x117;" 
d="M342 648q0 -20 -14.5 -34t-33.5 -14t-33.5 14t-14.5 34t14.5 34t33.5 14t33.5 -14t14.5 -34zM516 248q0 -20 -1 -32h-388q2 -71 50.5 -120.5t120.5 -49.5q50 0 89 23t61 58l51 -40q-78 -99 -201 -99q-104 0 -173 70t-69 176q0 105 68 175.5t168 70.5q106 0 165 -66
t59 -166zM128 270h319q-3 68 -43.5 110.5t-111.5 42.5q-67 0 -113.5 -45.5t-50.5 -107.5z" />
    <glyph glyph-name="Eogonek" unicode="&#x118;" horiz-adv-x="592" 
d="M553 -147l19 -40q-36 -36 -90 -36q-36 0 -63 24t-27 61q0 66 89 138h-387v708h439v-64h-367v-244h343v-63h-343v-273h379v-64h-16q-41 -41 -59 -67.5t-18 -53.5q0 -21 14.5 -34.5t35.5 -13.5q32 0 51 22z" />
    <glyph glyph-name="eogonek" unicode="&#x119;" 
d="M128 270h319q-3 68 -43.5 110.5t-111.5 42.5q-67 0 -113.5 -45.5t-50.5 -107.5zM380 -147l19 -40q-36 -36 -90 -36q-37 0 -63.5 24t-26.5 61q0 62 74 126q-102 2 -169.5 71.5t-67.5 174.5t68 175.5t168 70.5q106 0 165 -66t59 -166q0 -20 -1 -32h-388q2 -71 50.5 -120.5
t120.5 -49.5q50 0 89 23t61 58l51 -40q-58 -76 -151 -94q-36 -37 -52.5 -62.5t-16.5 -51.5q0 -21 14.5 -34.5t35.5 -13.5q32 0 51 22z" />
    <glyph glyph-name="Ecaron" unicode="&#x11a;" horiz-adv-x="592" 
d="M466 908l-109 -144h-80l-109 144h66l83 -108l83 108h66zM166 337v-273h379v-64h-451v708h439v-64h-367v-244h343v-63h-343z" />
    <glyph glyph-name="ecaron" unicode="&#x11b;" 
d="M443 708l-109 -144h-80l-109 144h66l83 -108l83 108h66zM516 248q0 -20 -1 -32h-388q2 -71 50.5 -120.5t120.5 -49.5q50 0 89 23t61 58l51 -40q-78 -99 -201 -99q-104 0 -173 70t-69 176q0 105 68 175.5t168 70.5q106 0 165 -66t59 -166zM128 270h319q-3 68 -43.5 110.5
t-111.5 42.5q-67 0 -113.5 -45.5t-50.5 -107.5z" />
    <glyph glyph-name="Gcircumflex" unicode="&#x11c;" horiz-adv-x="779" 
d="M470 908l109 -144h-66l-83 108l-83 -108h-66l109 144h80zM681 631l-50 -50q-77 82 -205 82q-132 0 -213 -90.5t-81 -218.5t81 -218t213 -90q121 0 191 46v215h-165v63h237v-319q-113 -69 -264 -69q-160 0 -264.5 105.5t-104.5 266.5t105 266.5t264 105.5q161 0 256 -95z
" />
    <glyph glyph-name="gcircumflex" unicode="&#x11d;" horiz-adv-x="632" 
d="M348 708l109 -144h-66l-83 108l-83 -108h-66l109 144h80zM128 240q0 -77 48 -129.5t129 -52.5q79 0 129.5 50.5t50.5 131.5q0 75 -51.5 129t-128.5 54q-81 0 -129 -53t-48 -130zM66 -146l49 52q29 -37 78 -61.5t101 -24.5q94 0 138.5 51t44.5 133v88h-2
q-26 -43 -75 -67.5t-102 -24.5q-108 0 -175 67t-67 171q0 102 67.5 172t174.5 70q53 0 101.5 -24.5t75.5 -68.5h2v81h68v-464q0 -33 -6.5 -64.5t-24 -65t-44.5 -58t-73.5 -40.5t-105.5 -16q-136 0 -225 94z" />
    <glyph glyph-name="Gbreve" unicode="&#x11e;" horiz-adv-x="779" 
d="M529 908h44q-4 -62 -44 -97t-103 -35t-103 35t-44 97h44q7 -38 35 -58t68 -20t68 20t35 58zM681 631l-50 -50q-77 82 -205 82q-132 0 -213 -90.5t-81 -218.5t81 -218t213 -90q121 0 191 46v215h-165v63h237v-319q-113 -69 -264 -69q-160 0 -264.5 105.5t-104.5 266.5
t105 266.5t264 105.5q161 0 256 -95z" />
    <glyph glyph-name="gbreve" unicode="&#x11f;" horiz-adv-x="632" 
d="M413 708h44q-4 -62 -44 -97t-103 -35t-103 35t-44 97h44q7 -38 35 -58t68 -20t68 20t35 58zM128 240q0 -77 48 -129.5t129 -52.5q79 0 129.5 50.5t50.5 131.5q0 75 -51.5 129t-128.5 54q-81 0 -129 -53t-48 -130zM66 -146l49 52q29 -37 78 -61.5t101 -24.5q94 0 138.5 51
t44.5 133v88h-2q-26 -43 -75 -67.5t-102 -24.5q-108 0 -175 67t-67 171q0 102 67.5 172t174.5 70q53 0 101.5 -24.5t75.5 -68.5h2v81h68v-464q0 -33 -6.5 -64.5t-24 -65t-44.5 -58t-73.5 -40.5t-105.5 -16q-136 0 -225 94z" />
    <glyph glyph-name="Gdotaccent" unicode="&#x120;" horiz-adv-x="779" 
d="M473 848q0 -20 -14.5 -34t-33.5 -14t-33.5 14t-14.5 34t14.5 34t33.5 14t33.5 -14t14.5 -34zM681 631l-50 -50q-77 82 -205 82q-132 0 -213 -90.5t-81 -218.5t81 -218t213 -90q121 0 191 46v215h-165v63h237v-319q-113 -69 -264 -69q-160 0 -264.5 105.5t-104.5 266.5
t105 266.5t264 105.5q161 0 256 -95z" />
    <glyph glyph-name="gdotaccent" unicode="&#x121;" horiz-adv-x="632" 
d="M355 648q0 -20 -14.5 -34t-33.5 -14t-33.5 14t-14.5 34t14.5 34t33.5 14t33.5 -14t14.5 -34zM128 240q0 -77 48 -129.5t129 -52.5q79 0 129.5 50.5t50.5 131.5q0 75 -51.5 129t-128.5 54q-81 0 -129 -53t-48 -130zM66 -146l49 52q29 -37 78 -61.5t101 -24.5
q94 0 138.5 51t44.5 133v88h-2q-26 -43 -75 -67.5t-102 -24.5q-108 0 -175 67t-67 171q0 102 67.5 172t174.5 70q53 0 101.5 -24.5t75.5 -68.5h2v81h68v-464q0 -33 -6.5 -64.5t-24 -65t-44.5 -58t-73.5 -40.5t-105.5 -16q-136 0 -225 94z" />
    <glyph glyph-name="Gcommaaccent" unicode="&#x122;" horiz-adv-x="783" 
d="M476 -45l-76 -185h-57l62 185h71zM681 631l-50 -50q-77 82 -205 82q-132 0 -213 -90.5t-81 -218.5t81 -218t213 -90q121 0 191 46v215h-165v63h237v-319q-113 -69 -264 -69q-160 0 -264.5 105.5t-104.5 266.5t105 266.5t264 105.5q161 0 256 -95z" />
    <glyph glyph-name="gcommaaccent" unicode="&#x123;" horiz-adv-x="632" 
d="M281 564l76 185h57l-62 -185h-71zM128 240q0 -77 48 -129.5t129 -52.5q79 0 129.5 50.5t50.5 131.5q0 75 -51.5 129t-128.5 54q-81 0 -129 -53t-48 -130zM66 -146l49 52q29 -37 78 -61.5t101 -24.5q94 0 138.5 51t44.5 133v88h-2q-26 -43 -75 -67.5t-102 -24.5
q-108 0 -175 67t-67 171q0 102 67.5 172t174.5 70q53 0 101.5 -24.5t75.5 -68.5h2v81h68v-464q0 -33 -6.5 -64.5t-24 -65t-44.5 -58t-73.5 -40.5t-105.5 -16q-136 0 -225 94z" />
    <glyph glyph-name="Hcircumflex" unicode="&#x124;" horiz-adv-x="718" 
d="M398 908l109 -144h-66l-83 108l-83 -108h-66l109 144h80zM94 0v708h72v-307h386v307h72v-708h-72v335h-386v-335h-72z" />
    <glyph glyph-name="hcircumflex" unicode="&#x125;" horiz-adv-x="583" 
d="M167 940l109 -144h-66l-83 108l-83 -108h-66l109 144h80zM160 391h2q18 41 62 65t95 24q87 0 132.5 -52t45.5 -141v-287h-68v259q0 80 -28.5 122t-98.5 42q-59 0 -100.5 -47.5t-41.5 -135.5v-240h-68v756h68v-365z" />
    <glyph glyph-name="Hbar" unicode="&#x126;" horiz-adv-x="718" 
d="M166 401h386v99h-386v-99zM94 0v708h72v-158h386v158h72v-708h-72v335h-386v-335h-72z" />
    <glyph glyph-name="hbar" unicode="&#x127;" horiz-adv-x="583" 
d="M38 620h54v136h68v-136h158v-50h-158v-179h2q18 41 62 65t95 24q87 0 132.5 -52t45.5 -141v-287h-68v259q0 80 -28.5 122t-98.5 42q-59 0 -100.5 -47.5t-41.5 -135.5v-240h-68v570h-54v50z" />
    <glyph glyph-name="Itilde" unicode="&#x128;" horiz-adv-x="260" 
d="M12 776h-43q16 104 92 104q27 0 73 -23q50 -23 67 -23q35 0 49 50h43q-16 -104 -92 -104q-29 0 -73 23t-67 23q-35 0 -49 -50zM166 708v-708h-72v708h72z" />
    <glyph glyph-name="itilde" unicode="&#x129;" horiz-adv-x="250" 
d="M8 576h-43q16 104 92 104q27 0 73 -23q50 -23 67 -23q35 0 49 50h43q-16 -104 -92 -104q-29 0 -73 23t-67 23q-35 0 -49 -50zM159 468v-468h-68v468h68z" />
    <glyph glyph-name="Imacron" unicode="&#x12a;" horiz-adv-x="260" 
d="M266 854v-54h-270v54h270zM166 708v-708h-72v708h72z" />
    <glyph glyph-name="imacron" unicode="&#x12b;" horiz-adv-x="250" 
d="M261 654v-54h-270v54h270zM159 468v-468h-68v468h68z" />
    <glyph glyph-name="Ibreve" unicode="&#x12c;" horiz-adv-x="260" 
d="M233 915h44q-4 -62 -44 -97t-103 -35t-103 35t-44 97h44q7 -38 35 -58t68 -20t68 20t35 58zM166 708v-708h-72v708h72z" />
    <glyph glyph-name="ibreve" unicode="&#x12d;" horiz-adv-x="250" 
d="M228 675h44q-4 -62 -44 -97t-103 -35t-103 35t-44 97h44q7 -38 35 -58t68 -20t68 20t35 58zM159 468v-468h-68v468h68z" />
    <glyph glyph-name="Iogonek" unicode="&#x12e;" horiz-adv-x="260" 
d="M184 -147l19 -40q-36 -36 -90 -36q-36 0 -63 24t-27 61q0 66 89 138h-18v708h72v-708h-6q-41 -41 -59 -67.5t-18 -53.5q0 -21 14.5 -34.5t35.5 -13.5q32 0 51 22z" />
    <glyph glyph-name="iogonek" unicode="&#x12f;" horiz-adv-x="250" 
d="M173 648q0 -20 -14.5 -34t-33.5 -14t-33.5 14t-14.5 34t14.5 34t33.5 14t33.5 -14t14.5 -34zM179 -147l19 -40q-36 -36 -90 -36q-36 0 -63 24t-27 61q0 66 89 138h-16v468h68v-468h-4q-41 -41 -59 -67.5t-18 -53.5q0 -21 14.5 -34.5t35.5 -13.5q32 0 51 22z" />
    <glyph glyph-name="Idotaccent" unicode="&#x130;" horiz-adv-x="260" 
d="M179 848q0 -20 -14.5 -34t-33.5 -14t-33.5 14t-14.5 34t14.5 34t33.5 14t33.5 -14t14.5 -34zM166 708v-708h-72v708h72z" />
    <glyph glyph-name="dotlessi" unicode="&#x131;" horiz-adv-x="250" 
d="M159 468v-468h-68v468h68z" />
    <glyph glyph-name="IJ" unicode="&#x132;" horiz-adv-x="734" 
d="M267 126l67 18q9 -44 39 -71.5t76 -27.5q125 0 125 164v499h72v-504q0 -39 -8 -74.5t-27.5 -70.5t-59 -56t-94.5 -21q-76 0 -126.5 39.5t-63.5 104.5zM166 708v-708h-72v708h72z" />
    <glyph glyph-name="ij" unicode="&#x133;" horiz-adv-x="498" 
d="M421 648q0 -20 -14.5 -34t-33.5 -14t-33.5 14t-14.5 34t14.5 34t33.5 14t33.5 -14t14.5 -34zM220 -233l10 57q20 -6 43 -6q39 0 52.5 25t13.5 75v550h68v-561q0 -147 -133 -147q-30 0 -54 7zM173 648q0 -20 -14.5 -34t-33.5 -14t-33.5 14t-14.5 34t14.5 34t33.5 14
t33.5 -14t14.5 -34zM159 468v-468h-68v468h68z" />
    <glyph glyph-name="Jcircumflex" unicode="&#x134;" horiz-adv-x="492" 
d="M407 908l109 -144h-66l-83 108l-83 -108h-66l109 144h80zM25 126l67 18q9 -44 39 -71.5t76 -27.5q125 0 125 164v499h72v-504q0 -39 -8 -74.5t-27.5 -70.5t-59 -56t-94.5 -21q-76 0 -126.5 39.5t-63.5 104.5z" />
    <glyph glyph-name="jcircumflex" unicode="&#x135;" horiz-adv-x="251" 
d="M166 708l109 -144h-66l-83 108l-83 -108h-66l109 144h80zM-27 -233l10 57q19 -6 43 -6q39 0 52.5 25t13.5 75v550h68v-561q0 -147 -133 -147q-30 0 -54 7z" />
    <glyph glyph-name="Kcommaaccent" unicode="&#x136;" horiz-adv-x="628" 
d="M388 -45l-76 -185h-57l62 185h71zM166 708v-318h1l337 318h103l-357 -321l377 -387h-106l-354 377h-1v-377h-72v708h72z" />
    <glyph glyph-name="kcommaaccent" unicode="&#x137;" horiz-adv-x="510" 
d="M329 -45l-76 -185h-57l62 185h71zM160 756v-499h3l216 211h98l-236 -214l260 -254h-100l-238 246h-3v-246h-68v756h68z" />
    <glyph glyph-name="Lacute" unicode="&#x139;" horiz-adv-x="510" 
d="M291 908l-132 -144h-59l100 144h91zM166 708v-644h330v-64h-402v708h72z" />
    <glyph glyph-name="lacute" unicode="&#x13a;" horiz-adv-x="252" 
d="M285 936l-132 -144h-59l100 144h91zM160 756v-756h-68v756h68z" />
    <glyph glyph-name="Lcommaaccent" unicode="&#x13b;" horiz-adv-x="510" 
d="M347 -45l-76 -185h-57l62 185h71zM166 708v-644h330v-64h-402v708h72z" />
    <glyph glyph-name="lcommaaccent" unicode="&#x13c;" horiz-adv-x="252" 
d="M179 -45l-76 -185h-57l62 185h71zM160 756v-756h-68v756h68z" />
    <glyph glyph-name="Lcaron" unicode="&#x13d;" horiz-adv-x="510" 
d="M376 708l-76 -185h-57l62 185h71zM166 708v-644h330v-64h-402v708h72z" />
    <glyph glyph-name="lcaron" unicode="&#x13e;" horiz-adv-x="252" 
d="M350 708l-76 -185h-57l62 185h71zM160 756v-756h-68v756h68z" />
    <glyph glyph-name="Ldot" unicode="&#x13f;" horiz-adv-x="510" 
d="M424 328q0 -20 -14.5 -34t-33.5 -14t-33.5 14t-14.5 34t14.5 34t33.5 14t33.5 -14t14.5 -34zM166 708v-644h330v-64h-402v708h72z" />
    <glyph glyph-name="ldot" unicode="&#x140;" horiz-adv-x="312" 
d="M328 328q0 -20 -14.5 -34t-33.5 -14t-33.5 14t-14.5 34t14.5 34t33.5 14t33.5 -14t14.5 -34zM160 756v-756h-68v756h68z" />
    <glyph glyph-name="Lslash" unicode="&#x141;" horiz-adv-x="510" 
d="M166 708v-346l216 186v-70l-216 -186v-228h330v-64h-402v242l-82 -70v70l82 70v396h72z" />
    <glyph glyph-name="lslash" unicode="&#x142;" horiz-adv-x="252" 
d="M158 756v-298l81 84v-73l-81 -83v-386h-66v331l-81 -83v73l81 82v353h66z" />
    <glyph glyph-name="Nacute" unicode="&#x143;" horiz-adv-x="764" 
d="M535 908l-132 -144h-59l100 144h91zM184 708l412 -603h2v603h72v-708h-90l-412 609h-2v-609h-72v708h90z" />
    <glyph glyph-name="nacute" unicode="&#x144;" horiz-adv-x="581" 
d="M439 708l-132 -144h-59l100 144h91zM86 468h65q4 -33 4 -80h2q20 41 64.5 66.5t95.5 25.5q87 0 132.5 -52t45.5 -141v-287h-68v259q0 80 -28.5 122t-98.5 42q-59 0 -100.5 -47.5t-41.5 -135.5v-240h-68v365q0 60 -4 103z" />
    <glyph glyph-name="Ncommaaccent" unicode="&#x145;" horiz-adv-x="764" 
d="M425 -45l-76 -185h-57l62 185h71zM184 708l412 -603h2v603h72v-708h-90l-412 609h-2v-609h-72v708h90z" />
    <glyph glyph-name="ncommaaccent" unicode="&#x146;" horiz-adv-x="581" 
d="M342 -45l-76 -185h-57l62 185h71zM86 468h65q4 -33 4 -80h2q20 41 64.5 66.5t95.5 25.5q87 0 132.5 -52t45.5 -141v-287h-68v259q0 80 -28.5 122t-98.5 42q-59 0 -100.5 -47.5t-41.5 -135.5v-240h-68v365q0 60 -4 103z" />
    <glyph glyph-name="Ncaron" unicode="&#x147;" horiz-adv-x="764" 
d="M532 908l-109 -144h-80l-109 144h66l83 -108l83 108h66zM184 708l412 -603h2v603h72v-708h-90l-412 609h-2v-609h-72v708h90z" />
    <glyph glyph-name="ncaron" unicode="&#x148;" horiz-adv-x="581" 
d="M442 708l-109 -144h-80l-109 144h66l83 -108l83 108h66zM86 468h65q4 -33 4 -80h2q20 41 64.5 66.5t95.5 25.5q87 0 132.5 -52t45.5 -141v-287h-68v259q0 80 -28.5 122t-98.5 42q-59 0 -100.5 -47.5t-41.5 -135.5v-240h-68v365q0 60 -4 103z" />
    <glyph glyph-name="napostrophe" unicode="&#x149;" horiz-adv-x="581" 
d="M106 756l-76 -185h-57l62 185h71zM86 468h65q4 -33 4 -80h2q20 41 64.5 66.5t95.5 25.5q87 0 132.5 -52t45.5 -141v-287h-68v259q0 80 -28.5 122t-98.5 42q-59 0 -100.5 -47.5t-41.5 -135.5v-240h-68v365q0 60 -4 103z" />
    <glyph glyph-name="Omacron" unicode="&#x14c;" horiz-adv-x="850" 
d="M564 854v-54h-270v54h270zM718 354q0 129 -80.5 219t-212.5 90t-212.5 -90t-80.5 -219t80.5 -218.5t212.5 -89.5t212.5 89.5t80.5 218.5zM794 354q0 -161 -105 -266.5t-264 -105.5t-264 105.5t-105 266.5t105 266.5t264 105.5t264 -105.5t105 -266.5z" />
    <glyph glyph-name="omacron" unicode="&#x14d;" horiz-adv-x="611" 
d="M442 654v-54h-270v54h270zM483 234q0 80 -49 134.5t-129 54.5q-79 0 -128 -54.5t-49 -134.5t49 -134t128 -54q80 0 129 53.5t49 134.5zM555 234q0 -106 -70 -176t-180 -70q-108 0 -178.5 70t-70.5 176t70.5 176t178.5 70q110 0 180 -70t70 -176z" />
    <glyph glyph-name="Obreve" unicode="&#x14e;" horiz-adv-x="850" 
d="M531 908h44q-4 -62 -44 -97t-103 -35t-103 35t-44 97h44q7 -38 35 -58t68 -20t68 20t35 58zM718 354q0 129 -80.5 219t-212.5 90t-212.5 -90t-80.5 -219t80.5 -218.5t212.5 -89.5t212.5 89.5t80.5 218.5zM794 354q0 -161 -105 -266.5t-264 -105.5t-264 105.5t-105 266.5
t105 266.5t264 105.5t264 -105.5t105 -266.5z" />
    <glyph glyph-name="obreve" unicode="&#x14f;" horiz-adv-x="611" 
d="M410 708h44q-4 -62 -44 -97t-103 -35t-103 35t-44 97h44q7 -38 35 -58t68 -20t68 20t35 58zM483 234q0 80 -49 134.5t-129 54.5q-79 0 -128 -54.5t-49 -134.5t49 -134t128 -54q80 0 129 53.5t49 134.5zM555 234q0 -106 -70 -176t-180 -70q-108 0 -178.5 70t-70.5 176
t70.5 176t178.5 70q110 0 180 -70t70 -176z" />
    <glyph glyph-name="Ohungarumlaut" unicode="&#x150;" horiz-adv-x="850" 
d="M671 908l-132 -144h-59l100 144h91zM501 908l-133 -144h-59l101 144h91zM718 354q0 129 -80.5 219t-212.5 90t-212.5 -90t-80.5 -219t80.5 -218.5t212.5 -89.5t212.5 89.5t80.5 218.5zM794 354q0 -161 -105 -266.5t-264 -105.5t-264 105.5t-105 266.5t105 266.5
t264 105.5t264 -105.5t105 -266.5z" />
    <glyph glyph-name="ohungarumlaut" unicode="&#x151;" horiz-adv-x="611" 
d="M558 708l-132 -144h-59l100 144h91zM388 708l-133 -144h-59l101 144h91zM483 234q0 80 -49 134.5t-129 54.5q-79 0 -128 -54.5t-49 -134.5t49 -134t128 -54q80 0 129 53.5t49 134.5zM555 234q0 -106 -70 -176t-180 -70q-108 0 -178.5 70t-70.5 176t70.5 176t178.5 70
q110 0 180 -70t70 -176z" />
    <glyph glyph-name="OE" unicode="&#x152;" horiz-adv-x="992" 
d="M528 644h-65q-77 0 -138.5 -24.5t-99.5 -66t-58 -92.5t-20 -107t20 -107t58 -92.5t99.5 -66t138.5 -24.5h65v580zM443 708h490v-64h-333v-244h309v-63h-309v-273h345v-64h-502q-68 0 -133 22.5t-119 65t-87 112t-33 154.5t33 154.5t87 112t119 65t133 22.5z" />
    <glyph glyph-name="oe" unicode="&#x153;" horiz-adv-x="994" 
d="M550 270h319q-3 68 -43.5 110.5t-111.5 42.5q-67 0 -113.5 -45.5t-50.5 -107.5zM483 234q0 80 -49.5 134.5t-129.5 54.5q-79 0 -128.5 -54.5t-49.5 -134.5t49 -134t129 -54t129.5 54t49.5 134zM713 480q107 0 166 -66t59 -166q0 -20 -1 -32h-390q2 -71 51.5 -120.5
t121.5 -49.5q50 0 89 23t61 58l51 -40q-78 -99 -202 -99q-138 0 -204 114q-69 -114 -211 -114q-108 0 -178 70t-70 176t70 176t178 70q141 0 210 -114q66 114 199 114z" />
    <glyph glyph-name="Racute" unicode="&#x154;" horiz-adv-x="599" 
d="M422 908l-132 -144h-59l100 144h91zM166 646v-253h125q181 0 181 126q0 127 -178 127h-128zM166 331v-331h-72v708h208q242 0 242 -189q0 -77 -50.5 -125t-130.5 -57l207 -337h-88l-196 331h-120z" />
    <glyph glyph-name="racute" unicode="&#x155;" horiz-adv-x="360" 
d="M307 708l-132 -144h-59l100 144h91zM90 0v365q0 60 -4 103h65q4 -33 4 -80h2q21 42 61 67t89 25q26 0 45 -5l-9 -64q-16 6 -48 6q-59 0 -98 -44.5t-39 -132.5v-240h-68z" />
    <glyph glyph-name="Rcommaaccent" unicode="&#x156;" horiz-adv-x="599" 
d="M366 -45l-76 -185h-57l62 185h71zM166 646v-253h125q181 0 181 126q0 127 -178 127h-128zM166 331v-331h-72v708h208q242 0 242 -189q0 -77 -50.5 -125t-130.5 -57l207 -337h-88l-196 331h-120z" />
    <glyph glyph-name="rcommaaccent" unicode="&#x157;" horiz-adv-x="360" 
d="M176 -45l-76 -185h-57l62 185h71zM90 0v365q0 60 -4 103h65q4 -33 4 -80h2q21 42 61 67t89 25q26 0 45 -5l-9 -64q-16 6 -48 6q-59 0 -98 -44.5t-39 -132.5v-240h-68z" />
    <glyph glyph-name="Rcaron" unicode="&#x158;" horiz-adv-x="599" 
d="M437 908l-109 -144h-80l-109 144h66l83 -108l83 108h66zM166 646v-253h125q181 0 181 126q0 127 -178 127h-128zM166 331v-331h-72v708h208q242 0 242 -189q0 -77 -50.5 -125t-130.5 -57l207 -337h-88l-196 331h-120z" />
    <glyph glyph-name="rcaron" unicode="&#x159;" horiz-adv-x="360" 
d="M364 708l-109 -144h-80l-109 144h66l83 -108l83 108h66zM90 0v365q0 60 -4 103h65q4 -33 4 -80h2q21 42 61 67t89 25q26 0 45 -5l-9 -64q-16 6 -48 6q-59 0 -98 -44.5t-39 -132.5v-240h-68z" />
    <glyph glyph-name="Sacute" unicode="&#x15a;" horiz-adv-x="564" 
d="M434 908l-132 -144h-59l100 144h91zM494 640l-57 -46q-51 71 -146 71q-59 0 -105 -35t-46 -98q0 -26 9.5 -47t20.5 -33t36.5 -25t40 -18l47.5 -16l43.5 -14.5t40.5 -15.5t40.5 -20.5t33 -26t29 -34t16.5 -42.5t7 -54q0 -99 -69 -151.5t-162 -52.5q-67 0 -126.5 27
t-96.5 78l62 46q54 -89 162 -89q60 0 108.5 36.5t48.5 100.5q0 21 -5.5 38.5t-12 29.5t-23 24.5t-26 18.5t-34 15.5l-34 13t-38.5 12.5q-42 13 -70 25.5t-58.5 35t-46 57t-15.5 80.5q0 65 35.5 110.5t85 65t105.5 19.5q68 0 120 -24t80 -62z" />
    <glyph glyph-name="sacute" unicode="&#x15b;" horiz-adv-x="444" 
d="M380 708l-132 -144h-59l100 144h91zM391 396l-52 -39q-15 30 -46 48t-69 18q-41 0 -70 -18.5t-29 -54.5q0 -32 26 -50t86 -30q84 -17 123 -50t39 -87q0 -74 -51.5 -109.5t-124.5 -35.5q-123 0 -185 91l54 40q19 -32 54 -52.5t76 -20.5q49 0 79.5 19.5t30.5 62.5
q0 35 -32.5 54t-105.5 36q-26 6 -45 13t-42 21t-35 37t-12 55q0 67 48.5 101.5t118.5 34.5q50 0 95.5 -22.5t68.5 -61.5z" />
    <glyph glyph-name="Scircumflex" unicode="&#x15c;" horiz-adv-x="564" 
d="M333 908l109 -144h-66l-83 108l-83 -108h-66l109 144h80zM494 640l-57 -46q-51 71 -146 71q-59 0 -105 -35t-46 -98q0 -26 9.5 -47t20.5 -33t36.5 -25t40 -18l47.5 -16l43.5 -14.5t40.5 -15.5t40.5 -20.5t33 -26t29 -34t16.5 -42.5t7 -54q0 -99 -69 -151.5t-162 -52.5
q-67 0 -126.5 27t-96.5 78l62 46q54 -89 162 -89q60 0 108.5 36.5t48.5 100.5q0 21 -5.5 38.5t-12 29.5t-23 24.5t-26 18.5t-34 15.5l-34 13t-38.5 12.5q-42 13 -70 25.5t-58.5 35t-46 57t-15.5 80.5q0 65 35.5 110.5t85 65t105.5 19.5q68 0 120 -24t80 -62z" />
    <glyph glyph-name="scircumflex" unicode="&#x15d;" horiz-adv-x="444" 
d="M270 708l109 -144h-66l-83 108l-83 -108h-66l109 144h80zM391 396l-52 -39q-15 30 -46 48t-69 18q-41 0 -70 -18.5t-29 -54.5q0 -32 26 -50t86 -30q84 -17 123 -50t39 -87q0 -74 -51.5 -109.5t-124.5 -35.5q-123 0 -185 91l54 40q19 -32 54 -52.5t76 -20.5
q49 0 79.5 19.5t30.5 62.5q0 35 -32.5 54t-105.5 36q-26 6 -45 13t-42 21t-35 37t-12 55q0 67 48.5 101.5t118.5 34.5q50 0 95.5 -22.5t68.5 -61.5z" />
    <glyph glyph-name="Scedilla" unicode="&#x15e;" horiz-adv-x="564" 
d="M494 640l-57 -46q-51 71 -146 71q-59 0 -105 -35t-46 -98q0 -26 9.5 -47t20.5 -33t36.5 -25t40 -18l47.5 -16l43.5 -14.5t40.5 -15.5t40.5 -20.5t33 -26t29 -34t16.5 -42.5t7 -54q0 -92 -60 -144t-145 -59l-36 -58q12 4 35 4q33 0 57.5 -19t24.5 -53q0 -46 -35 -66.5
t-83 -20.5q-51 0 -94 20l16 36q29 -14 72 -14q21 0 42.5 11t21.5 33q0 39 -54 39q-21 0 -43 -8l-18 15l51 81q-138 7 -206 104l62 46q54 -89 162 -89q60 0 108.5 36.5t48.5 100.5q0 21 -5.5 38.5t-12 29.5t-23 24.5t-26 18.5t-34 15.5l-34 13t-38.5 12.5q-42 13 -70 25.5
t-58.5 35t-46 57t-15.5 80.5q0 65 35.5 110.5t85 65t105.5 19.5q68 0 120 -24t80 -62z" />
    <glyph glyph-name="scedilla" unicode="&#x15f;" horiz-adv-x="444" 
d="M391 396l-52 -39q-15 30 -46 48t-69 18q-41 0 -70 -18.5t-29 -54.5q0 -32 26 -50t86 -30q84 -17 123 -50t39 -87q0 -66 -42 -101t-106 -42l-40 -65q12 4 35 4q33 0 57.5 -19t24.5 -53q0 -46 -35 -66.5t-83 -20.5q-51 0 -94 20l16 36q29 -14 72 -14q21 0 42.5 11t21.5 33
q0 39 -54 39q-21 0 -43 -8l-18 15l54 87q-114 7 -169 90l54 40q19 -32 54 -52.5t76 -20.5q49 0 79.5 19.5t30.5 62.5q0 35 -32.5 54t-105.5 36q-26 6 -45 13t-42 21t-35 37t-12 55q0 67 48.5 101.5t118.5 34.5q50 0 95.5 -22.5t68.5 -61.5z" />
    <glyph glyph-name="Scaron" unicode="&#x160;" horiz-adv-x="564" 
d="M435 908l-109 -144h-80l-109 144h66l83 -108l83 108h66zM494 640l-57 -46q-51 71 -146 71q-59 0 -105 -35t-46 -98q0 -26 9.5 -47t20.5 -33t36.5 -25t40 -18l47.5 -16l43.5 -14.5t40.5 -15.5t40.5 -20.5t33 -26t29 -34t16.5 -42.5t7 -54q0 -99 -69 -151.5t-162 -52.5
q-67 0 -126.5 27t-96.5 78l62 46q54 -89 162 -89q60 0 108.5 36.5t48.5 100.5q0 21 -5.5 38.5t-12 29.5t-23 24.5t-26 18.5t-34 15.5l-34 13t-38.5 12.5q-42 13 -70 25.5t-58.5 35t-46 57t-15.5 80.5q0 65 35.5 110.5t85 65t105.5 19.5q68 0 120 -24t80 -62z" />
    <glyph glyph-name="scaron" unicode="&#x161;" horiz-adv-x="444" 
d="M379 708l-109 -144h-80l-109 144h66l83 -108l83 108h66zM391 396l-52 -39q-15 30 -46 48t-69 18q-41 0 -70 -18.5t-29 -54.5q0 -32 26 -50t86 -30q84 -17 123 -50t39 -87q0 -74 -51.5 -109.5t-124.5 -35.5q-123 0 -185 91l54 40q19 -32 54 -52.5t76 -20.5q49 0 79.5 19.5
t30.5 62.5q0 35 -32.5 54t-105.5 36q-26 6 -45 13t-42 21t-35 37t-12 55q0 67 48.5 101.5t118.5 34.5q50 0 95.5 -22.5t68.5 -61.5z" />
    <glyph glyph-name="Tcommaaccent" unicode="&#x162;" horiz-adv-x="570" 
d="M321 644v-644h-10l-47 -75q12 4 35 4q33 0 57.5 -19t24.5 -53q0 -46 -35 -66.5t-83 -20.5q-51 0 -94 20l16 36q29 -14 72 -14q21 0 42.5 11t21.5 33q0 39 -54 39q-21 0 -43 -8l-18 15l62 98h-19v644h-237v64h546v-64h-237z" />
    <glyph glyph-name="tcommaaccent" unicode="&#x163;" horiz-adv-x="317" 
d="M301 468v-57h-132v-273q0 -49 18 -67.5t52 -18.5q27 0 59 15l3 -59q-24 -10 -58 -13l-43 -70q12 4 35 4q33 0 57.5 -19t24.5 -53q0 -46 -35 -66.5t-83 -20.5q-51 0 -94 20l16 36q29 -14 72 -14q21 0 42.5 11t21.5 33q0 39 -54 39q-21 0 -43 -8l-18 15l59 93
q-42 4 -71 33.5t-29 90.5v292h-97v57h97v132h68v-132h132z" />
    <glyph glyph-name="Tcaron" unicode="&#x164;" horiz-adv-x="570" 
d="M434 908l-109 -144h-80l-109 144h66l83 -108l83 108h66zM321 644v-644h-72v644h-237v64h546v-64h-237z" />
    <glyph glyph-name="tcaron" unicode="&#x165;" horiz-adv-x="317" 
d="M358 731l-76 -185h-57l62 185h71zM301 468v-57h-132v-273q0 -49 18 -67.5t52 -18.5q27 0 59 15l3 -59q-37 -14 -80 -14q-48 0 -84 28t-36 97v292h-97v57h97v132h68v-132h132z" />
    <glyph glyph-name="Tbar" unicode="&#x166;" horiz-adv-x="570" 
d="M73 543h176v101h-237v64h546v-64h-237v-101h166v-50h-166v-493h-72v493h-176v50z" />
    <glyph glyph-name="tbar" unicode="&#x167;" horiz-adv-x="317" 
d="M12 314h89v97h-97v57h97v132h68v-132h132v-57h-132v-97h123v-50h-123v-126q0 -49 18 -67.5t52 -18.5q27 0 59 15l3 -59q-37 -14 -80 -14q-48 0 -84 28t-36 97v145h-89v50z" />
    <glyph glyph-name="Utilde" unicode="&#x168;" horiz-adv-x="710" 
d="M236 776h-43q16 104 92 104q27 0 73 -23q50 -23 67 -23q35 0 49 50h43q-16 -104 -92 -104q-29 0 -73 23t-67 23q-35 0 -49 -50zM355 -18q-75 0 -130 27t-82.5 71t-40 89.5t-12.5 94.5v444h72v-436q0 -96 46.5 -161t146.5 -65t146.5 65t46.5 161v436h72v-444
q0 -49 -12.5 -94.5t-40 -89.5t-82.5 -71t-130 -27z" />
    <glyph glyph-name="utilde" unicode="&#x169;" horiz-adv-x="581" 
d="M172 576h-43q16 104 92 104q27 0 73 -23q50 -23 67 -23q35 0 49 50h43q-16 -104 -92 -104q-29 0 -73 23t-67 23q-35 0 -49 -50zM495 0h-65q-4 33 -4 80h-2q-20 -41 -64.5 -66.5t-95.5 -25.5q-87 0 -132.5 52t-45.5 141v287h68v-259q0 -80 28.5 -122t98.5 -42
q59 0 100.5 47.5t41.5 135.5v240h68v-365q0 -60 4 -103z" />
    <glyph glyph-name="Umacron" unicode="&#x16a;" horiz-adv-x="710" 
d="M491 854v-54h-270v54h270zM355 -18q-75 0 -130 27t-82.5 71t-40 89.5t-12.5 94.5v444h72v-436q0 -96 46.5 -161t146.5 -65t146.5 65t46.5 161v436h72v-444q0 -49 -12.5 -94.5t-40 -89.5t-82.5 -71t-130 -27z" />
    <glyph glyph-name="umacron" unicode="&#x16b;" horiz-adv-x="581" 
d="M425 654v-54h-270v54h270zM495 0h-65q-4 33 -4 80h-2q-20 -41 -64.5 -66.5t-95.5 -25.5q-87 0 -132.5 52t-45.5 141v287h68v-259q0 -80 28.5 -122t98.5 -42q59 0 100.5 47.5t41.5 135.5v240h68v-365q0 -60 4 -103z" />
    <glyph glyph-name="Ubreve" unicode="&#x16c;" horiz-adv-x="710" 
d="M458 908h44q-4 -62 -44 -97t-103 -35t-103 35t-44 97h44q7 -38 35 -58t68 -20t68 20t35 58zM355 -18q-75 0 -130 27t-82.5 71t-40 89.5t-12.5 94.5v444h72v-436q0 -96 46.5 -161t146.5 -65t146.5 65t46.5 161v436h72v-444q0 -49 -12.5 -94.5t-40 -89.5t-82.5 -71
t-130 -27z" />
    <glyph glyph-name="ubreve" unicode="&#x16d;" horiz-adv-x="581" 
d="M395 708h44q-4 -62 -44 -97t-103 -35t-103 35t-44 97h44q7 -38 35 -58t68 -20t68 20t35 58zM495 0h-65q-4 33 -4 80h-2q-20 -41 -64.5 -66.5t-95.5 -25.5q-87 0 -132.5 52t-45.5 141v287h68v-259q0 -80 28.5 -122t98.5 -42q59 0 100.5 47.5t41.5 135.5v240h68v-365
q0 -60 4 -103z" />
    <glyph glyph-name="Uring" unicode="&#x16e;" horiz-adv-x="710" 
d="M417 850q0 25 -17.5 42t-42.5 17t-42.5 -17t-17.5 -42t17.5 -42t42.5 -17t42.5 17t17.5 42zM453 850q0 -40 -28.5 -67.5t-67.5 -27.5t-67.5 27.5t-28.5 67.5q0 39 28.5 67t67.5 28t67.5 -28t28.5 -67zM355 -18q-75 0 -130 27t-82.5 71t-40 89.5t-12.5 94.5v444h72v-436
q0 -96 46.5 -161t146.5 -65t146.5 65t46.5 161v436h72v-444q0 -49 -12.5 -94.5t-40 -89.5t-82.5 -71t-130 -27z" />
    <glyph glyph-name="uring" unicode="&#x16f;" horiz-adv-x="581" 
d="M350 650q0 25 -17.5 42t-42.5 17t-42.5 -17t-17.5 -42t17.5 -42t42.5 -17t42.5 17t17.5 42zM386 650q0 -40 -28.5 -67.5t-67.5 -27.5t-67.5 27.5t-28.5 67.5q0 39 28.5 67t67.5 28t67.5 -28t28.5 -67zM495 0h-65q-4 33 -4 80h-2q-20 -41 -64.5 -66.5t-95.5 -25.5
q-87 0 -132.5 52t-45.5 141v287h68v-259q0 -80 28.5 -122t98.5 -42q59 0 100.5 47.5t41.5 135.5v240h68v-365q0 -60 4 -103z" />
    <glyph glyph-name="Uhungarumlaut" unicode="&#x170;" horiz-adv-x="710" 
d="M595 908l-132 -144h-59l100 144h91zM425 908l-133 -144h-59l101 144h91zM355 -18q-75 0 -130 27t-82.5 71t-40 89.5t-12.5 94.5v444h72v-436q0 -96 46.5 -161t146.5 -65t146.5 65t46.5 161v436h72v-444q0 -49 -12.5 -94.5t-40 -89.5t-82.5 -71t-130 -27z" />
    <glyph glyph-name="uhungarumlaut" unicode="&#x171;" horiz-adv-x="581" 
d="M532 708l-132 -144h-59l100 144h91zM362 708l-133 -144h-59l101 144h91zM495 0h-65q-4 33 -4 80h-2q-20 -41 -64.5 -66.5t-95.5 -25.5q-87 0 -132.5 52t-45.5 141v287h68v-259q0 -80 28.5 -122t98.5 -42q59 0 100.5 47.5t41.5 135.5v240h68v-365q0 -60 4 -103z" />
    <glyph glyph-name="Uogonek" unicode="&#x172;" horiz-adv-x="710" 
d="M360 -18h-5q-75 0 -130 27t-82.5 71t-40 89.5t-12.5 94.5v444h72v-436q0 -96 46.5 -161t146.5 -65t146.5 65t46.5 161v436h72v-444q0 -43 -9.5 -84.5t-31.5 -82.5t-64 -70.5t-99 -39.5q-34 -36 -49 -59.5t-15 -48.5q0 -21 14.5 -34.5t35.5 -13.5q32 0 51 22l19 -40
q-36 -36 -90 -36q-36 0 -63 24t-27 61q0 60 68 120z" />
    <glyph glyph-name="uogonek" unicode="&#x173;" horiz-adv-x="581" 
d="M503 -147l19 -40q-36 -36 -90 -36q-36 0 -63 24t-27 61q0 66 89 138h-1q-4 33 -4 80h-2q-20 -41 -64.5 -66.5t-95.5 -25.5q-87 0 -132.5 52t-45.5 141v287h68v-259q0 -80 28.5 -122t98.5 -42q59 0 100.5 47.5t41.5 135.5v240h68v-365q0 -60 4 -103h-16q-41 -41 -59 -67.5
t-18 -53.5q0 -21 14.5 -34.5t35.5 -13.5q32 0 51 22z" />
    <glyph glyph-name="Wcircumflex" unicode="&#x174;" horiz-adv-x="972" 
d="M526 908l109 -144h-66l-83 108l-83 -108h-66l109 144h80zM90 708l175 -609h2l177 609h86l177 -609h2l173 609h76l-209 -708h-84l-178 608h-2l-178 -608h-84l-209 708h76z" />
    <glyph glyph-name="wcircumflex" unicode="&#x175;" horiz-adv-x="746" 
d="M412 708l109 -144h-66l-83 108l-83 -108h-66l109 144h80zM26 468h73l113 -380h2l126 380h66l128 -380h2l112 380h72l-148 -468h-74l-125 379h-2l-123 -379h-74z" />
    <glyph glyph-name="Ycircumflex" unicode="&#x176;" horiz-adv-x="602" 
d="M343 908l109 -144h-66l-83 108l-83 -108h-66l109 144h80zM337 305v-305h-72v305l-265 403h90l213 -343l215 343h84z" />
    <glyph glyph-name="ycircumflex" unicode="&#x177;" horiz-adv-x="488" 
d="M292 708l109 -144h-66l-83 108l-83 -108h-66l109 144h80zM92 468l159 -395h2l145 395h74l-233 -589q-23 -59 -56.5 -89t-90.5 -30q-31 0 -61 6l7 62q26 -8 50 -8q34 0 54 20t36 63l38 98l-200 467h76z" />
    <glyph glyph-name="Ydieresis" unicode="&#x178;" horiz-adv-x="602" 
d="M348 847q0 21 14 36t37 15t37 -15t14 -36t-14 -36t-37 -15t-37 15t-14 36zM156 847q0 21 14 36t37 15t37 -15t14 -36t-14 -36t-37 -15t-37 15t-14 36zM337 305v-305h-72v305l-265 403h90l213 -343l215 343h84z" />
    <glyph glyph-name="Zacute" unicode="&#x179;" 
d="M431 908l-132 -144h-59l100 144h91zM535 708v-60l-413 -584h419v-64h-510v60l414 584h-403v64h493z" />
    <glyph glyph-name="zacute" unicode="&#x17a;" horiz-adv-x="442" 
d="M373 708l-132 -144h-59l100 144h91zM401 468v-48l-280 -361h290v-59h-380v48l279 363h-265v57h356z" />
    <glyph glyph-name="Zdotaccent" unicode="&#x17b;" 
d="M333 848q0 -20 -14.5 -34t-33.5 -14t-33.5 14t-14.5 34t14.5 34t33.5 14t33.5 -14t14.5 -34zM535 708v-60l-413 -584h419v-64h-510v60l414 584h-403v64h493z" />
    <glyph glyph-name="zdotaccent" unicode="&#x17c;" horiz-adv-x="442" 
d="M270 648q0 -20 -14.5 -34t-33.5 -14t-33.5 14t-14.5 34t14.5 34t33.5 14t33.5 -14t14.5 -34zM401 468v-48l-280 -361h290v-59h-380v48l279 363h-265v57h356z" />
    <glyph glyph-name="Zcaron" unicode="&#x17d;" 
d="M436 908l-109 -144h-80l-109 144h66l83 -108l83 108h66zM535 708v-60l-413 -584h419v-64h-510v60l414 584h-403v64h493z" />
    <glyph glyph-name="zcaron" unicode="&#x17e;" horiz-adv-x="442" 
d="M374 708l-109 -144h-80l-109 144h66l83 -108l83 108h66zM401 468v-48l-280 -361h290v-59h-380v48l279 363h-265v57h356z" />
    <glyph glyph-name="florin" unicode="&#x192;" horiz-adv-x="580" 
d="M442 419v-54h-119l-67 -352q-30 -152 -155 -152q-49 0 -78 18l27 55q23 -13 53 -13q40 0 59 29t27 77l63 338h-108v54h119l27 144q29 157 152 157q54 0 95 -29l-34 -48q-24 17 -57 17q-24 0 -41 -11t-26.5 -32t-14 -36t-8.5 -37l-22 -125h108z" />
    <glyph glyph-name="Ohorn" unicode="&#x1a0;" horiz-adv-x="850" 
d="M718 354q0 129 -80.5 219t-212.5 90t-212.5 -90t-80.5 -219t80.5 -218.5t212.5 -89.5t212.5 89.5t80.5 218.5zM739 792l59 16q14 -31 14 -73q0 -56 -32 -86t-89 -31q103 -104 103 -264q0 -161 -105 -266.5t-264 -105.5t-264 105.5t-105 266.5t105 266.5t264 105.5
q60 0 108.5 -15t83 -30.5t62.5 -15.5q75 0 75 70q0 29 -15 57z" />
    <glyph glyph-name="ohorn" unicode="&#x1a1;" horiz-adv-x="611" 
d="M483 234q0 80 -49 134.5t-129 54.5q-79 0 -128 -54.5t-49 -134.5t49 -134t128 -54q80 0 129 53.5t49 134.5zM553 566l59 16q14 -31 14 -73q0 -56 -33 -86.5t-92 -30.5q54 -65 54 -158q0 -106 -70 -176t-180 -70q-108 0 -178.5 70t-70.5 176t70.5 176t178.5 70
q50 0 107 -20.5t81 -20.5q75 0 75 70q0 29 -15 57z" />
    <glyph glyph-name="Uhorn" unicode="&#x1af;" horiz-adv-x="710" 
d="M355 -18q-75 0 -130 27t-82.5 71t-40 89.5t-12.5 94.5v444h72v-436q0 -96 46.5 -161t146.5 -65t146.5 65t46.5 161v436h63q75 0 75 70q0 29 -15 57l59 16q14 -31 14 -73q0 -56 -33 -86.5t-91 -30.5v-397q0 -49 -12.5 -94.5t-40 -89.5t-82.5 -71t-130 -27z" />
    <glyph glyph-name="uhorn" unicode="&#x1b0;" horiz-adv-x="591" 
d="M495 0h-65q-4 33 -4 80h-2q-20 -41 -64.5 -66.5t-95.5 -25.5q-87 0 -132.5 52t-45.5 141v287h68v-259q0 -80 28.5 -122t98.5 -42q59 0 100.5 47.5t41.5 135.5v240h59q75 0 75 70q0 29 -15 57l59 16q14 -31 14 -73q0 -56 -33 -86.5t-91 -30.5v-318q0 -60 4 -103z" />
    <glyph glyph-name="clickdental" unicode="&#x1c0;" horiz-adv-x="222" 
d="M81 750h60v-1000h-60v1000z" />
    <glyph glyph-name="clicklateral" unicode="&#x1c1;" horiz-adv-x="444" 
d="M303 750h60v-1000h-60v1000zM81 750h60v-1000h-60v1000z" />
    <glyph glyph-name="clickretroflex" unicode="&#x1c3;" horiz-adv-x="328" 
d="M218 48q0 -22 -15.5 -38t-38.5 -16t-38.5 16t-15.5 38t15.5 38t38.5 16t38.5 -16t15.5 -38zM200 708v-516h-72v516h72z" />
    <glyph glyph-name="DZcaron" unicode="&#x1c4;" horiz-adv-x="1569" 
d="M1202 927l-109 -144h-80l-109 144h66l83 -108l83 108h66zM1292 708v-60l-413 -584h419v-64h-510v60l414 584h-403v64h493zM166 644v-580h143q77 0 138.5 24.5t99.5 66t58 92.5t20 107t-20 107t-58 92.5t-99.5 66t-138.5 24.5h-143zM94 0v708h235q68 0 133 -22.5t119 -65
t87 -112t33 -154.5t-33 -154.5t-87 -112t-119 -65t-133 -22.5h-235z" />
    <glyph glyph-name="Dzcaron" unicode="&#x1c5;" horiz-adv-x="1439" 
d="M1137 687l-109 -144h-80l-109 144h66l83 -108l83 108h66zM1158 468v-48l-280 -361h290v-59h-380v48l279 363h-265v57h356zM166 644v-580h143q77 0 138.5 24.5t99.5 66t58 92.5t20 107t-20 107t-58 92.5t-99.5 66t-138.5 24.5h-143zM94 0v708h235q68 0 133 -22.5t119 -65
t87 -112t33 -154.5t-33 -154.5t-87 -112t-119 -65t-133 -22.5h-235z" />
    <glyph glyph-name="dzcaron" unicode="&#x1c6;" horiz-adv-x="1319" 
d="M1017 687l-109 -144h-80l-109 144h66l83 -108l83 108h66zM1038 468v-48l-280 -361h290v-59h-380v48l279 363h-265v57h356zM128 234q0 -81 47.5 -134.5t129.5 -53.5q78 0 129 53.5t51 134.5t-51 135t-129 54q-81 0 -129 -54t-48 -135zM477 79h-2q-29 -44 -76.5 -67.5
t-100.5 -23.5q-108 0 -175 70t-67 176t67 176t175 70q53 0 100.5 -24t76.5 -69h2v369h68v-756h-68v79z" />
    <glyph glyph-name="LJ" unicode="&#x1c7;" horiz-adv-x="1002" 
d="M535 126l67 18q9 -44 39 -71.5t76 -27.5q125 0 125 164v499h72v-504q0 -39 -8 -74.5t-27.5 -70.5t-59 -56t-94.5 -21q-76 0 -126.5 39.5t-63.5 104.5zM166 708v-644h330v-64h-402v708h72z" />
    <glyph glyph-name="Lj" unicode="&#x1c8;" horiz-adv-x="761" 
d="M684 648q0 -20 -14.5 -34t-33.5 -14t-33.5 14t-14.5 34t14.5 34t33.5 14t33.5 -14t14.5 -34zM483 -233l10 57q19 -6 43 -6q39 0 52.5 25t13.5 75v550h68v-561q0 -147 -133 -147q-30 0 -54 7zM166 708v-644h330v-64h-402v708h72z" />
    <glyph glyph-name="lj" unicode="&#x1c9;" horiz-adv-x="503" 
d="M426 648q0 -20 -14.5 -34t-33.5 -14t-33.5 14t-14.5 34t14.5 34t33.5 14t33.5 -14t14.5 -34zM225 -233l10 57q19 -6 43 -6q39 0 52.5 25t13.5 75v550h68v-561q0 -147 -133 -147q-30 0 -54 7zM160 756v-756h-68v756h68z" />
    <glyph glyph-name="NJ" unicode="&#x1ca;" horiz-adv-x="1256" 
d="M789 126l67 18q9 -44 39 -71.5t76 -27.5q125 0 125 164v499h72v-504q0 -39 -8 -74.5t-27.5 -70.5t-59 -56t-94.5 -21q-76 0 -126.5 39.5t-63.5 104.5zM184 708l412 -603h2v603h72v-708h-90l-412 609h-2v-609h-72v708h90z" />
    <glyph glyph-name="Nj" unicode="&#x1cb;" horiz-adv-x="1015" 
d="M938 648q0 -20 -14.5 -34t-33.5 -14t-33.5 14t-14.5 34t14.5 34t33.5 14t33.5 -14t14.5 -34zM737 -233l10 57q19 -6 43 -6q39 0 52.5 25t13.5 75v550h68v-561q0 -147 -133 -147q-30 0 -54 7zM184 708l412 -603h2v603h72v-708h-90l-412 609h-2v-609h-72v708h90z" />
    <glyph glyph-name="nj" unicode="&#x1cc;" horiz-adv-x="832" 
d="M755 648q0 -20 -14.5 -34t-33.5 -14t-33.5 14t-14.5 34t14.5 34t33.5 14t33.5 -14t14.5 -34zM554 -233l10 57q20 -6 43 -6q39 0 52.5 25t13.5 75v550h68v-561q0 -147 -133 -147q-30 0 -54 7zM86 468h65q4 -33 4 -80h2q20 41 64.5 66.5t95.5 25.5q87 0 132.5 -52
t45.5 -141v-287h-68v259q0 80 -28.5 122t-98.5 42q-59 0 -100.5 -47.5t-41.5 -135.5v-240h-68v365q0 60 -4 103z" />
    <glyph glyph-name="Acaron" unicode="&#x1cd;" horiz-adv-x="700" 
d="M499 927l-109 -144h-80l-109 144h66l83 -108l83 108h66zM349 628l-156 -376h312zM166 186l-77 -186h-79l306 708h70l304 -708h-80l-78 186h-366z" />
    <glyph glyph-name="acaron" unicode="&#x1ce;" horiz-adv-x="534" 
d="M405 699l-109 -144h-80l-109 144h66l83 -108l83 108h66zM385 234h-20q-240 0 -240 -101q0 -46 32 -67.5t78 -21.5q69 0 109.5 45t40.5 110v35zM385 287v15q0 121 -125 121q-84 0 -139 -55l-38 45q67 67 184 67q80 0 131 -43.5t51 -126.5v-205q0 -62 8 -105h-61
q-7 40 -7 76h-2q-32 -47 -72 -67.5t-98 -20.5q-63 0 -112.5 35.5t-49.5 106.5q0 35 12 61.5t36 43.5t52 27.5t69 16t76.5 7t84.5 1.5z" />
    <glyph glyph-name="Icaron" unicode="&#x1cf;" horiz-adv-x="260" 
d="M279 927l-109 -144h-80l-109 144h66l83 -108l83 108h66zM166 708v-708h-72v708h72z" />
    <glyph glyph-name="icaron" unicode="&#x1d0;" horiz-adv-x="250" 
d="M274 687l-109 -144h-80l-109 144h66l83 -108l83 108h66zM159 468v-468h-68v468h68z" />
    <glyph glyph-name="Ocaron" unicode="&#x1d1;" horiz-adv-x="850" 
d="M574 945l-109 -144h-80l-109 144h66l83 -108l83 108h66zM718 354q0 129 -80.5 219t-212.5 90t-212.5 -90t-80.5 -219t80.5 -218.5t212.5 -89.5t212.5 89.5t80.5 218.5zM794 354q0 -161 -105 -266.5t-264 -105.5t-264 105.5t-105 266.5t105 266.5t264 105.5t264 -105.5
t105 -266.5z" />
    <glyph glyph-name="ocaron" unicode="&#x1d2;" horiz-adv-x="611" 
d="M454 699l-109 -144h-80l-109 144h66l83 -108l83 108h66zM483 234q0 80 -49 134.5t-129 54.5q-79 0 -128 -54.5t-49 -134.5t49 -134t128 -54q80 0 129 53.5t49 134.5zM555 234q0 -106 -70 -176t-180 -70q-108 0 -178.5 70t-70.5 176t70.5 176t178.5 70q110 0 180 -70
t70 -176z" />
    <glyph glyph-name="Ucaron" unicode="&#x1d3;" horiz-adv-x="710" 
d="M504 927l-109 -144h-80l-109 144h66l83 -108l83 108h66zM355 -18q-75 0 -130 27t-82.5 71t-40 89.5t-12.5 94.5v444h72v-436q0 -96 46.5 -161t146.5 -65t146.5 65t46.5 161v436h72v-444q0 -49 -12.5 -94.5t-40 -89.5t-82.5 -71t-130 -27z" />
    <glyph glyph-name="ucaron" unicode="&#x1d4;" horiz-adv-x="581" 
d="M439 687l-109 -144h-80l-109 144h66l83 -108l83 108h66zM495 0h-65q-4 33 -4 80h-2q-20 -41 -64.5 -66.5t-95.5 -25.5q-87 0 -132.5 52t-45.5 141v287h68v-259q0 -80 28.5 -122t98.5 -42q59 0 100.5 47.5t41.5 135.5v240h68v-365q0 -60 4 -103z" />
    <glyph glyph-name="Udieresismacron" unicode="&#x1d5;" horiz-adv-x="710" 
d="M490 1014v-54h-270v54h270zM400 834q0 21 14 36t37 15t37 -15t14 -36t-14 -36t-37 -15t-37 15t-14 36zM208 834q0 21 14 36t37 15t37 -15t14 -36t-14 -36t-37 -15t-37 15t-14 36zM355 -18q-75 0 -130 27t-82.5 71t-40 89.5t-12.5 94.5v444h72v-436q0 -96 46.5 -161
t146.5 -65t146.5 65t46.5 161v436h72v-444q0 -49 -12.5 -94.5t-40 -89.5t-82.5 -71t-130 -27z" />
    <glyph glyph-name="udieresismacron" unicode="&#x1d6;" horiz-adv-x="581" 
d="M425 774v-54h-270v54h270zM335 594q0 21 14 36t37 15t37 -15t14 -36t-14 -36t-37 -15t-37 15t-14 36zM143 594q0 21 14 36t37 15t37 -15t14 -36t-14 -36t-37 -15t-37 15t-14 36zM495 0h-65q-4 33 -4 80h-2q-20 -41 -64.5 -66.5t-95.5 -25.5q-87 0 -132.5 52t-45.5 141
v287h68v-259q0 -80 28.5 -122t98.5 -42q59 0 100.5 47.5t41.5 135.5v240h68v-365q0 -60 4 -103z" />
    <glyph glyph-name="Udieresisacute" unicode="&#x1d7;" horiz-adv-x="710" 
d="M511 1104l-132 -144h-59l100 144h91zM400 834q0 21 14 36t37 15t37 -15t14 -36t-14 -36t-37 -15t-37 15t-14 36zM208 834q0 21 14 36t37 15t37 -15t14 -36t-14 -36t-37 -15t-37 15t-14 36zM355 -18q-75 0 -130 27t-82.5 71t-40 89.5t-12.5 94.5v444h72v-436
q0 -96 46.5 -161t146.5 -65t146.5 65t46.5 161v436h72v-444q0 -49 -12.5 -94.5t-40 -89.5t-82.5 -71t-130 -27z" />
    <glyph glyph-name="udieresisacute" unicode="&#x1d8;" horiz-adv-x="581" 
d="M446 864l-132 -144h-59l100 144h91zM335 594q0 21 14 36t37 15t37 -15t14 -36t-14 -36t-37 -15t-37 15t-14 36zM143 594q0 21 14 36t37 15t37 -15t14 -36t-14 -36t-37 -15t-37 15t-14 36zM495 0h-65q-4 33 -4 80h-2q-20 -41 -64.5 -66.5t-95.5 -25.5q-87 0 -132.5 52
t-45.5 141v287h68v-259q0 -80 28.5 -122t98.5 -42q59 0 100.5 47.5t41.5 135.5v240h68v-365q0 -60 4 -103z" />
    <glyph glyph-name="Udieresiscaron" unicode="&#x1d9;" horiz-adv-x="710" 
d="M504 1104l-109 -144h-80l-109 144h66l83 -108l83 108h66zM400 834q0 21 14 36t37 15t37 -15t14 -36t-14 -36t-37 -15t-37 15t-14 36zM208 834q0 21 14 36t37 15t37 -15t14 -36t-14 -36t-37 -15t-37 15t-14 36zM355 -18q-75 0 -130 27t-82.5 71t-40 89.5t-12.5 94.5v444
h72v-436q0 -96 46.5 -161t146.5 -65t146.5 65t46.5 161v436h72v-444q0 -49 -12.5 -94.5t-40 -89.5t-82.5 -71t-130 -27z" />
    <glyph glyph-name="udieresiscaron" unicode="&#x1da;" horiz-adv-x="581" 
d="M439 864l-109 -144h-80l-109 144h66l83 -108l83 108h66zM335 594q0 21 14 36t37 15t37 -15t14 -36t-14 -36t-37 -15t-37 15t-14 36zM143 594q0 21 14 36t37 15t37 -15t14 -36t-14 -36t-37 -15t-37 15t-14 36zM495 0h-65q-4 33 -4 80h-2q-20 -41 -64.5 -66.5t-95.5 -25.5
q-87 0 -132.5 52t-45.5 141v287h68v-259q0 -80 28.5 -122t98.5 -42q59 0 100.5 47.5t41.5 135.5v240h68v-365q0 -60 4 -103z" />
    <glyph glyph-name="Udieresisgrave" unicode="&#x1db;" horiz-adv-x="710" 
d="M324 960l-132 144h91l100 -144h-59zM400 834q0 21 14 36t37 15t37 -15t14 -36t-14 -36t-37 -15t-37 15t-14 36zM208 834q0 21 14 36t37 15t37 -15t14 -36t-14 -36t-37 -15t-37 15t-14 36zM355 -18q-75 0 -130 27t-82.5 71t-40 89.5t-12.5 94.5v444h72v-436
q0 -96 46.5 -161t146.5 -65t146.5 65t46.5 161v436h72v-444q0 -49 -12.5 -94.5t-40 -89.5t-82.5 -71t-130 -27z" />
    <glyph glyph-name="udieresisgrave" unicode="&#x1dc;" horiz-adv-x="581" 
d="M277 720l-132 144h91l100 -144h-59zM335 594q0 21 14 36t37 15t37 -15t14 -36t-14 -36t-37 -15t-37 15t-14 36zM143 594q0 21 14 36t37 15t37 -15t14 -36t-14 -36t-37 -15t-37 15t-14 36zM495 0h-65q-4 33 -4 80h-2q-20 -41 -64.5 -66.5t-95.5 -25.5q-87 0 -132.5 52
t-45.5 141v287h68v-259q0 -80 28.5 -122t98.5 -42q59 0 100.5 47.5t41.5 135.5v240h68v-365q0 -60 4 -103z" />
    <glyph glyph-name="Adieresismacron" unicode="&#x1de;" horiz-adv-x="700" 
d="M485 1014v-54h-270v54h270zM395 834q0 21 14 36t37 15t37 -15t14 -36t-14 -36t-37 -15t-37 15t-14 36zM203 834q0 21 14 36t37 15t37 -15t14 -36t-14 -36t-37 -15t-37 15t-14 36zM349 628l-156 -376h312zM166 186l-77 -186h-79l306 708h70l304 -708h-80l-78 186h-366z
" />
    <glyph glyph-name="adieresismacron" unicode="&#x1df;" horiz-adv-x="534" 
d="M391 786v-54h-270v54h270zM301 606q0 21 14 36t37 15t37 -15t14 -36t-14 -36t-37 -15t-37 15t-14 36zM109 606q0 21 14 36t37 15t37 -15t14 -36t-14 -36t-37 -15t-37 15t-14 36zM385 234h-20q-240 0 -240 -101q0 -46 32 -67.5t78 -21.5q69 0 109.5 45t40.5 110v35z
M385 287v15q0 121 -125 121q-84 0 -139 -55l-38 45q67 67 184 67q80 0 131 -43.5t51 -126.5v-205q0 -62 8 -105h-61q-7 40 -7 76h-2q-32 -47 -72 -67.5t-98 -20.5q-63 0 -112.5 35.5t-49.5 106.5q0 35 12 61.5t36 43.5t52 27.5t69 16t76.5 7t84.5 1.5z" />
    <glyph glyph-name="Adotmacron" unicode="&#x1e0;" horiz-adv-x="700" 
d="M485 1008v-54h-270v54h270zM398 831q0 -20 -14.5 -34t-33.5 -14t-33.5 14t-14.5 34t14.5 34t33.5 14t33.5 -14t14.5 -34zM349 628l-156 -376h312zM166 186l-77 -186h-79l306 708h70l304 -708h-80l-78 186h-366z" />
    <glyph glyph-name="adotmacron" unicode="&#x1e1;" horiz-adv-x="534" 
d="M391 780v-54h-270v54h270zM304 603q0 -20 -14.5 -34t-33.5 -14t-33.5 14t-14.5 34t14.5 34t33.5 14t33.5 -14t14.5 -34zM385 234h-20q-240 0 -240 -101q0 -46 32 -67.5t78 -21.5q69 0 109.5 45t40.5 110v35zM385 287v15q0 121 -125 121q-84 0 -139 -55l-38 45
q67 67 184 67q80 0 131 -43.5t51 -126.5v-205q0 -62 8 -105h-61q-7 40 -7 76h-2q-32 -47 -72 -67.5t-98 -20.5q-63 0 -112.5 35.5t-49.5 106.5q0 35 12 61.5t36 43.5t52 27.5t69 16t76.5 7t84.5 1.5z" />
    <glyph glyph-name="AEmacron" unicode="&#x1e2;" horiz-adv-x="990" 
d="M868 837v-54h-270v54h270zM258 261h261v383h-14zM591 337v-273h345v-64h-417v198h-298l-128 -198h-82l461 708h452v-64h-333v-244h309v-63h-309z" />
    <glyph glyph-name="aemacron" unicode="&#x1e3;" horiz-adv-x="870" 
d="M570 609v-54h-270v54h270zM380 216h-20q-42 0 -71.5 -1.5t-62.5 -6.5t-53 -14.5t-33.5 -26.5t-13.5 -41q0 -83 111 -83q70 0 106.5 37t36.5 102v34zM446 270h299q0 68 -38.5 110.5t-105.5 42.5q-61 0 -107 -46t-48 -107zM814 248q0 -23 -1 -32h-370q2 -72 48.5 -121.5
t114.5 -49.5q48 0 85.5 23t57.5 58l49 -39q-74 -99 -192 -99q-65 0 -114 29t-72 80q-47 -109 -195 -109q-69 0 -119 34t-50 103q0 38 19 66t47.5 43t74.5 23.5t86.5 10.5t96.5 2v15q0 63 -30.5 100.5t-89.5 37.5q-84 0 -144 -55l-39 44q31 30 83 49t110 19q56 0 96.5 -25.5
t57.5 -72.5q28 46 74.5 72t102.5 26q101 0 157 -66t56 -166z" />
    <glyph glyph-name="Gcaron" unicode="&#x1e6;" horiz-adv-x="779" 
d="M581 945l-109 -144h-80l-109 144h66l83 -108l83 108h66zM681 631l-50 -50q-77 82 -205 82q-132 0 -213 -90.5t-81 -218.5t81 -218t213 -90q121 0 191 46v215h-165v63h237v-319q-113 -69 -264 -69q-160 0 -264.5 105.5t-104.5 266.5t105 266.5t264 105.5q161 0 256 -95z
" />
    <glyph glyph-name="gcaron" unicode="&#x1e7;" horiz-adv-x="632" 
d="M449 699l-109 -144h-80l-109 144h66l83 -108l83 108h66zM128 240q0 -77 48 -129.5t129 -52.5q79 0 129.5 50.5t50.5 131.5q0 75 -51.5 129t-128.5 54q-81 0 -129 -53t-48 -130zM66 -146l49 52q29 -37 78 -61.5t101 -24.5q94 0 138.5 51t44.5 133v88h-2q-26 -43 -75 -67.5
t-102 -24.5q-108 0 -175 67t-67 171q0 102 67.5 172t174.5 70q53 0 101.5 -24.5t75.5 -68.5h2v81h68v-464q0 -33 -6.5 -64.5t-24 -65t-44.5 -58t-73.5 -40.5t-105.5 -16q-136 0 -225 94z" />
    <glyph glyph-name="Kcaron" unicode="&#x1e8;" horiz-adv-x="628" 
d="M469 927l-109 -144h-80l-109 144h66l83 -108l83 108h66zM166 708v-318h1l337 318h103l-357 -321l377 -387h-106l-354 377h-1v-377h-72v708h72z" />
    <glyph glyph-name="kcaron" unicode="&#x1e9;" horiz-adv-x="510" 
d="M280 975l-109 -144h-80l-109 144h66l83 -108l83 108h66zM160 756v-499h3l216 211h98l-236 -214l260 -254h-100l-238 246h-3v-246h-68v756h68z" />
    <glyph glyph-name="Oogonek" unicode="&#x1ea;" horiz-adv-x="850" 
d="M718 354q0 129 -80.5 219t-212.5 90t-212.5 -90t-80.5 -219t80.5 -218.5t212.5 -89.5t212.5 89.5t80.5 218.5zM794 354q0 -148 -92 -252t-234 -118q-73 -73 -73 -123q0 -21 14.5 -34.5t35.5 -13.5q32 0 51 22l19 -40q-36 -36 -90 -36q-37 0 -63.5 24t-26.5 61
q0 69 82 139q-155 2 -258 107.5t-103 263.5q0 161 105 266.5t264 105.5t264 -105.5t105 -266.5z" />
    <glyph glyph-name="oogonek" unicode="&#x1eb;" horiz-adv-x="611" 
d="M483 234q0 80 -49 134.5t-129 54.5q-79 0 -128 -54.5t-49 -134.5t49 -134t128 -54q80 0 129 53.5t49 134.5zM555 234q0 -94 -57 -161t-149 -81q-74 -76 -74 -125q0 -21 14.5 -34.5t35.5 -13.5q32 0 51 22l19 -40q-36 -36 -90 -36q-37 0 -63.5 24t-26.5 61q0 36 24 73.5
t58 64.5q-105 2 -173 72t-68 174q0 106 70.5 176t178.5 70q110 0 180 -70t70 -176z" />
    <glyph glyph-name="Oogonekmacron" unicode="&#x1ec;" horiz-adv-x="850" 
d="M560 855v-54h-270v54h270zM718 354q0 129 -80.5 219t-212.5 90t-212.5 -90t-80.5 -219t80.5 -218.5t212.5 -89.5t212.5 89.5t80.5 218.5zM794 354q0 -148 -92 -252t-234 -118q-73 -73 -73 -123q0 -21 14.5 -34.5t35.5 -13.5q32 0 51 22l19 -40q-36 -36 -90 -36
q-37 0 -63.5 24t-26.5 61q0 69 82 139q-155 2 -258 107.5t-103 263.5q0 161 105 266.5t264 105.5t264 -105.5t105 -266.5z" />
    <glyph glyph-name="oogonekmacron" unicode="&#x1ed;" horiz-adv-x="611" 
d="M440 609v-54h-270v54h270zM483 234q0 80 -49 134.5t-129 54.5q-79 0 -128 -54.5t-49 -134.5t49 -134t128 -54q80 0 129 53.5t49 134.5zM555 234q0 -94 -57 -161t-149 -81q-74 -76 -74 -125q0 -21 14.5 -34.5t35.5 -13.5q32 0 51 22l19 -40q-36 -36 -90 -36
q-37 0 -63.5 24t-26.5 61q0 36 24 73.5t58 64.5q-105 2 -173 72t-68 174q0 106 70.5 176t178.5 70q110 0 180 -70t70 -176z" />
    <glyph glyph-name="DZ" unicode="&#x1f1;" horiz-adv-x="1329" 
d="M1292 708v-60l-413 -584h419v-64h-510v60l414 584h-403v64h493zM166 644v-580h143q77 0 138.5 24.5t99.5 66t58 92.5t20 107t-20 107t-58 92.5t-99.5 66t-138.5 24.5h-143zM94 0v708h235q68 0 133 -22.5t119 -65t87 -112t33 -154.5t-33 -154.5t-87 -112t-119 -65
t-133 -22.5h-235z" />
    <glyph glyph-name="Dz" unicode="&#x1f2;" horiz-adv-x="1199" 
d="M1158 468v-48l-280 -361h290v-59h-380v48l279 363h-265v57h356zM166 644v-580h143q77 0 138.5 24.5t99.5 66t58 92.5t20 107t-20 107t-58 92.5t-99.5 66t-138.5 24.5h-143zM94 0v708h235q68 0 133 -22.5t119 -65t87 -112t33 -154.5t-33 -154.5t-87 -112t-119 -65
t-133 -22.5h-235z" />
    <glyph glyph-name="dz" unicode="&#x1f3;" horiz-adv-x="1079" 
d="M1038 468v-48l-280 -361h290v-59h-380v48l279 363h-265v57h356zM128 234q0 -81 47.5 -134.5t129.5 -53.5q78 0 129 53.5t51 134.5t-51 135t-129 54q-81 0 -129 -54t-48 -135zM477 79h-2q-29 -44 -76.5 -67.5t-100.5 -23.5q-108 0 -175 70t-67 176t67 176t175 70
q53 0 100.5 -24t76.5 -69h2v369h68v-756h-68v79z" />
    <glyph glyph-name="Gacute" unicode="&#x1f4;" horiz-adv-x="779" 
d="M568 945l-132 -144h-59l100 144h91zM681 631l-50 -50q-77 82 -205 82q-132 0 -213 -90.5t-81 -218.5t81 -218t213 -90q121 0 191 46v215h-165v63h237v-319q-113 -69 -264 -69q-160 0 -264.5 105.5t-104.5 266.5t105 266.5t264 105.5q161 0 256 -95z" />
    <glyph glyph-name="gacute" unicode="&#x1f5;" horiz-adv-x="632" 
d="M426 699l-132 -144h-59l100 144h91zM128 240q0 -77 48 -129.5t129 -52.5q79 0 129.5 50.5t50.5 131.5q0 75 -51.5 129t-128.5 54q-81 0 -129 -53t-48 -130zM66 -146l49 52q29 -37 78 -61.5t101 -24.5q94 0 138.5 51t44.5 133v88h-2q-26 -43 -75 -67.5t-102 -24.5
q-108 0 -175 67t-67 171q0 102 67.5 172t174.5 70q53 0 101.5 -24.5t75.5 -68.5h2v81h68v-464q0 -33 -6.5 -64.5t-24 -65t-44.5 -58t-73.5 -40.5t-105.5 -16q-136 0 -225 94z" />
    <glyph glyph-name="Ngrave" unicode="&#x1f8;" horiz-adv-x="764" 
d="M389 783l-132 144h91l100 -144h-59zM184 708l412 -603h2v603h72v-708h-90l-412 609h-2v-609h-72v708h90z" />
    <glyph glyph-name="ngrave" unicode="&#x1f9;" horiz-adv-x="581" 
d="M317 555l-132 144h91l100 -144h-59zM86 468h65q4 -33 4 -80h2q20 41 64.5 66.5t95.5 25.5q87 0 132.5 -52t45.5 -141v-287h-68v259q0 80 -28.5 122t-98.5 42q-59 0 -100.5 -47.5t-41.5 -135.5v-240h-68v365q0 60 -4 103z" />
    <glyph glyph-name="Aringacute" unicode="&#x1fa;" horiz-adv-x="700" 
d="M446 1192l-132 -144h-59l100 144h91zM410 878q0 25 -17.5 42t-42.5 17t-42.5 -17t-17.5 -42t17.5 -42t42.5 -17t42.5 17t17.5 42zM446 878q0 -40 -28.5 -67.5t-67.5 -27.5t-67.5 27.5t-28.5 67.5q0 39 28.5 67t67.5 28t67.5 -28t28.5 -67zM349 628l-156 -376h312z
M166 186l-77 -186h-79l306 708h70l304 -708h-80l-78 186h-366z" />
    <glyph glyph-name="aringacute" unicode="&#x1fb;" horiz-adv-x="534" 
d="M352 964l-132 -144h-59l100 144h91zM316 650q0 25 -17.5 42t-42.5 17t-42.5 -17t-17.5 -42t17.5 -42t42.5 -17t42.5 17t17.5 42zM352 650q0 -40 -28.5 -67.5t-67.5 -27.5t-67.5 27.5t-28.5 67.5q0 39 28.5 67t67.5 28t67.5 -28t28.5 -67zM385 234h-20q-240 0 -240 -101
q0 -46 32 -67.5t78 -21.5q69 0 109.5 45t40.5 110v35zM385 287v15q0 121 -125 121q-84 0 -139 -55l-38 45q67 67 184 67q80 0 131 -43.5t51 -126.5v-205q0 -62 8 -105h-61q-7 40 -7 76h-2q-32 -47 -72 -67.5t-98 -20.5q-63 0 -112.5 35.5t-49.5 106.5q0 35 12 61.5t36 43.5
t52 27.5t69 16t76.5 7t84.5 1.5z" />
    <glyph glyph-name="AEacute" unicode="&#x1fc;" horiz-adv-x="990" 
d="M859 927l-132 -144h-59l100 144h91zM258 261h261v383h-14zM591 337v-273h345v-64h-417v198h-298l-128 -198h-82l461 708h452v-64h-333v-244h309v-63h-309z" />
    <glyph glyph-name="aeacute" unicode="&#x1fd;" horiz-adv-x="870" 
d="M611 699l-132 -144h-59l100 144h91zM380 216h-20q-42 0 -71.5 -1.5t-62.5 -6.5t-53 -14.5t-33.5 -26.5t-13.5 -41q0 -83 111 -83q70 0 106.5 37t36.5 102v34zM446 270h299q0 68 -38.5 110.5t-105.5 42.5q-61 0 -107 -46t-48 -107zM814 248q0 -23 -1 -32h-370
q2 -72 48.5 -121.5t114.5 -49.5q48 0 85.5 23t57.5 58l49 -39q-74 -99 -192 -99q-65 0 -114 29t-72 80q-47 -109 -195 -109q-69 0 -119 34t-50 103q0 38 19 66t47.5 43t74.5 23.5t86.5 10.5t96.5 2v15q0 63 -30.5 100.5t-89.5 37.5q-84 0 -144 -55l-39 44q31 30 83 49
t110 19q56 0 96.5 -25.5t57.5 -72.5q28 46 74.5 72t102.5 26q101 0 157 -66t56 -166z" />
    <glyph glyph-name="Oslashacute" unicode="&#x1fe;" horiz-adv-x="850" 
d="M551 945l-132 -144h-59l100 144h91zM201 150l415 445q-74 68 -191 68q-133 0 -213 -90t-80 -219q0 -123 69 -204zM651 558l-415 -445q76 -67 189 -67q133 0 213 89.5t80 218.5q0 120 -67 204zM774 692l-76 -82q96 -102 96 -256q0 -161 -105 -266.5t-264 -105.5
q-136 0 -236 81l-76 -81l-37 34l76 82q-96 102 -96 256q0 161 105 266.5t264 105.5q136 0 236 -81l76 81z" />
    <glyph glyph-name="oslashacute" unicode="&#x1ff;" horiz-adv-x="611" 
d="M440 715l-132 -144h-59l100 144h91zM561 465l-66 -68q60 -68 60 -163q0 -106 -70.5 -176t-180.5 -70q-92 0 -157 52l-67 -68l-32 31l66 68q-58 67 -58 163q0 106 70 176t178 70q91 0 159 -52l66 68zM159 116l262 269q-40 40 -116 40q-81 0 -130.5 -54.5t-49.5 -136.5
q0 -75 34 -118zM450 351l-262 -269q50 -39 115 -39q82 0 132.5 54.5t50.5 136.5q0 74 -36 117z" />
    <glyph glyph-name="Adblgrave" unicode="&#x200;" horiz-adv-x="700" 
d="M240 783l-132 144h91l100 -144h-59zM394 783l-132 144h91l100 -144h-59zM349 628l-156 -376h312zM166 186l-77 -186h-79l306 708h70l304 -708h-80l-78 186h-366z" />
    <glyph glyph-name="adblgrave" unicode="&#x201;" horiz-adv-x="534" 
d="M156 555l-132 144h91l100 -144h-59zM310 555l-132 144h91l100 -144h-59zM385 234h-20q-240 0 -240 -101q0 -46 32 -67.5t78 -21.5q69 0 109.5 45t40.5 110v35zM385 287v15q0 121 -125 121q-84 0 -139 -55l-38 45q67 67 184 67q80 0 131 -43.5t51 -126.5v-205
q0 -62 8 -105h-61q-7 40 -7 76h-2q-32 -47 -72 -67.5t-98 -20.5q-63 0 -112.5 35.5t-49.5 106.5q0 35 12 61.5t36 43.5t52 27.5t69 16t76.5 7t84.5 1.5z" />
    <glyph glyph-name="Ainvertedbreve" unicode="&#x202;" horiz-adv-x="700" 
d="M497 783h-44q-7 38 -35 58t-68 20t-68 -20t-35 -58h-44q4 62 44 97t103 35t103 -35t44 -97zM349 628l-156 -376h312zM166 186l-77 -186h-79l306 708h70l304 -708h-80l-78 186h-366z" />
    <glyph glyph-name="ainvertedbreve" unicode="&#x203;" horiz-adv-x="534" 
d="M403 555h-44q-7 38 -35 58t-68 20t-68 -20t-35 -58h-44q4 62 44 97t103 35t103 -35t44 -97zM385 234h-20q-240 0 -240 -101q0 -46 32 -67.5t78 -21.5q69 0 109.5 45t40.5 110v35zM385 287v15q0 121 -125 121q-84 0 -139 -55l-38 45q67 67 184 67q80 0 131 -43.5
t51 -126.5v-205q0 -62 8 -105h-61q-7 40 -7 76h-2q-32 -47 -72 -67.5t-98 -20.5q-63 0 -112.5 35.5t-49.5 106.5q0 35 12 61.5t36 43.5t52 27.5t69 16t76.5 7t84.5 1.5z" />
    <glyph glyph-name="Edblgrave" unicode="&#x204;" horiz-adv-x="592" 
d="M219 783l-132 144h91l100 -144h-59zM373 783l-132 144h91l100 -144h-59zM166 337v-273h379v-64h-451v708h439v-64h-367v-244h343v-63h-343z" />
    <glyph glyph-name="edblgrave" unicode="&#x205;" 
d="M206 555l-132 144h91l100 -144h-59zM360 555l-132 144h91l100 -144h-59zM516 248q0 -20 -1 -32h-388q2 -71 50.5 -120.5t120.5 -49.5q50 0 89 23t61 58l51 -40q-78 -99 -201 -99q-104 0 -173 70t-69 176q0 105 68 175.5t168 70.5q106 0 165 -66t59 -166zM128 270h319
q-3 68 -43.5 110.5t-111.5 42.5q-67 0 -113.5 -45.5t-50.5 -107.5z" />
    <glyph glyph-name="Einvertedbreve" unicode="&#x206;" horiz-adv-x="592" 
d="M466 783h-44q-7 38 -35 58t-68 20t-68 -20t-35 -58h-44q4 62 44 97t103 35t103 -35t44 -97zM166 337v-273h379v-64h-451v708h439v-64h-367v-244h343v-63h-343z" />
    <glyph glyph-name="einvertedbreve" unicode="&#x207;" 
d="M433 555h-44q-7 38 -35 58t-68 20t-68 -20t-35 -58h-44q4 62 44 97t103 35t103 -35t44 -97zM516 248q0 -20 -1 -32h-388q2 -71 50.5 -120.5t120.5 -49.5q50 0 89 23t61 58l51 -40q-78 -99 -201 -99q-104 0 -173 70t-69 176q0 105 68 175.5t168 70.5q106 0 165 -66
t59 -166zM128 270h319q-3 68 -43.5 110.5t-111.5 42.5q-67 0 -113.5 -45.5t-50.5 -107.5z" />
    <glyph glyph-name="Idblgrave" unicode="&#x208;" horiz-adv-x="260" 
d="M40 783l-132 144h91l100 -144h-59zM194 783l-132 144h91l100 -144h-59zM166 708v-708h-72v708h72z" />
    <glyph glyph-name="idblgrave" unicode="&#x209;" horiz-adv-x="250" 
d="M45 543l-132 144h91l100 -144h-59zM199 543l-132 144h91l100 -144h-59zM159 468v-468h-68v468h68z" />
    <glyph glyph-name="Iinvertedbreve" unicode="&#x20a;" horiz-adv-x="260" 
d="M277 783h-44q-7 38 -35 58t-68 20t-68 -20t-35 -58h-44q4 62 44 97t103 35t103 -35t44 -97zM166 708v-708h-72v708h72z" />
    <glyph glyph-name="iinvertedbreve" unicode="&#x20b;" horiz-adv-x="250" 
d="M272 543h-44q-7 38 -35 58t-68 20t-68 -20t-35 -58h-44q4 62 44 97t103 35t103 -35t44 -97zM159 468v-468h-68v468h68z" />
    <glyph glyph-name="Odblgrave" unicode="&#x20c;" horiz-adv-x="850" 
d="M355 801l-132 144h91l100 -144h-59zM509 801l-132 144h91l100 -144h-59zM718 354q0 129 -80.5 219t-212.5 90t-212.5 -90t-80.5 -219t80.5 -218.5t212.5 -89.5t212.5 89.5t80.5 218.5zM794 354q0 -161 -105 -266.5t-264 -105.5t-264 105.5t-105 266.5t105 266.5
t264 105.5t264 -105.5t105 -266.5z" />
    <glyph glyph-name="odblgrave" unicode="&#x20d;" horiz-adv-x="611" 
d="M235 555l-132 144h91l100 -144h-59zM389 555l-132 144h91l100 -144h-59zM483 234q0 80 -49 134.5t-129 54.5q-79 0 -128 -54.5t-49 -134.5t49 -134t128 -54q80 0 129 53.5t49 134.5zM555 234q0 -106 -70 -176t-180 -70q-108 0 -178.5 70t-70.5 176t70.5 176t178.5 70
q110 0 180 -70t70 -176z" />
    <glyph glyph-name="Oinvertedbreve" unicode="&#x20e;" horiz-adv-x="850" 
d="M572 801h-44q-7 38 -35 58t-68 20t-68 -20t-35 -58h-44q4 62 44 97t103 35t103 -35t44 -97zM718 354q0 129 -80.5 219t-212.5 90t-212.5 -90t-80.5 -219t80.5 -218.5t212.5 -89.5t212.5 89.5t80.5 218.5zM794 354q0 -161 -105 -266.5t-264 -105.5t-264 105.5t-105 266.5
t105 266.5t264 105.5t264 -105.5t105 -266.5z" />
    <glyph glyph-name="oinvertedbreve" unicode="&#x20f;" horiz-adv-x="611" 
d="M452 555h-44q-7 38 -35 58t-68 20t-68 -20t-35 -58h-44q4 62 44 97t103 35t103 -35t44 -97zM483 234q0 80 -49 134.5t-129 54.5q-79 0 -128 -54.5t-49 -134.5t49 -134t128 -54q80 0 129 53.5t49 134.5zM555 234q0 -106 -70 -176t-180 -70q-108 0 -178.5 70t-70.5 176
t70.5 176t178.5 70q110 0 180 -70t70 -176z" />
    <glyph glyph-name="Rdblgrave" unicode="&#x210;" horiz-adv-x="599" 
d="M192 783l-132 144h91l100 -144h-59zM346 783l-132 144h91l100 -144h-59zM166 646v-253h125q181 0 181 126q0 127 -178 127h-128zM166 331v-331h-72v708h208q242 0 242 -189q0 -77 -50.5 -125t-130.5 -57l207 -337h-88l-196 331h-120z" />
    <glyph glyph-name="rdblgrave" unicode="&#x211;" horiz-adv-x="360" 
d="M129 555l-132 144h91l100 -144h-59zM283 555l-132 144h91l100 -144h-59zM90 0v365q0 60 -4 103h65q4 -33 4 -80h2q21 42 61 67t89 25q26 0 45 -5l-9 -64q-16 6 -48 6q-59 0 -98 -44.5t-39 -132.5v-240h-68z" />
    <glyph glyph-name="Rinvertedbreve" unicode="&#x212;" horiz-adv-x="599" 
d="M439 783h-44q-7 38 -35 58t-68 20t-68 -20t-35 -58h-44q4 62 44 97t103 35t103 -35t44 -97zM166 646v-253h125q181 0 181 126q0 127 -178 127h-128zM166 331v-331h-72v708h208q242 0 242 -189q0 -77 -50.5 -125t-130.5 -57l207 -337h-88l-196 331h-120z" />
    <glyph glyph-name="rinvertedbreve" unicode="&#x213;" horiz-adv-x="360" 
d="M366 555h-44q-7 38 -35 58t-68 20t-68 -20t-35 -58h-44q4 62 44 97t103 35t103 -35t44 -97zM90 0v365q0 60 -4 103h65q4 -33 4 -80h2q21 42 61 67t89 25q26 0 45 -5l-9 -64q-16 6 -48 6q-59 0 -98 -44.5t-39 -132.5v-240h-68z" />
    <glyph glyph-name="Udblgrave" unicode="&#x214;" horiz-adv-x="710" 
d="M255 783l-132 144h91l100 -144h-59zM409 783l-132 144h91l100 -144h-59zM355 -18q-75 0 -130 27t-82.5 71t-40 89.5t-12.5 94.5v444h72v-436q0 -96 46.5 -161t146.5 -65t146.5 65t46.5 161v436h72v-444q0 -49 -12.5 -94.5t-40 -89.5t-82.5 -71t-130 -27z" />
    <glyph glyph-name="udblgrave" unicode="&#x215;" horiz-adv-x="581" 
d="M190 543l-132 144h91l100 -144h-59zM344 543l-132 144h91l100 -144h-59zM495 0h-65q-4 33 -4 80h-2q-20 -41 -64.5 -66.5t-95.5 -25.5q-87 0 -132.5 52t-45.5 141v287h68v-259q0 -80 28.5 -122t98.5 -42q59 0 100.5 47.5t41.5 135.5v240h68v-365q0 -60 4 -103z" />
    <glyph glyph-name="Uinvertedbreve" unicode="&#x216;" horiz-adv-x="710" 
d="M502 783h-44q-7 38 -35 58t-68 20t-68 -20t-35 -58h-44q4 62 44 97t103 35t103 -35t44 -97zM355 -18q-75 0 -130 27t-82.5 71t-40 89.5t-12.5 94.5v444h72v-436q0 -96 46.5 -161t146.5 -65t146.5 65t46.5 161v436h72v-444q0 -49 -12.5 -94.5t-40 -89.5t-82.5 -71
t-130 -27z" />
    <glyph glyph-name="uinvertedbreve" unicode="&#x217;" horiz-adv-x="581" 
d="M437 543h-44q-7 38 -35 58t-68 20t-68 -20t-35 -58h-44q4 62 44 97t103 35t103 -35t44 -97zM495 0h-65q-4 33 -4 80h-2q-20 -41 -64.5 -66.5t-95.5 -25.5q-87 0 -132.5 52t-45.5 141v287h68v-259q0 -80 28.5 -122t98.5 -42q59 0 100.5 47.5t41.5 135.5v240h68v-365
q0 -60 4 -103z" />
    <glyph glyph-name="Scommaaccent" unicode="&#x218;" horiz-adv-x="564" 
d="M338 -45l-76 -185h-57l62 185h71zM494 640l-57 -46q-51 71 -146 71q-59 0 -105 -35t-46 -98q0 -26 9.5 -47t20.5 -33t36.5 -25t40 -18l47.5 -16l43.5 -14.5t40.5 -15.5t40.5 -20.5t33 -26t29 -34t16.5 -42.5t7 -54q0 -99 -69 -151.5t-162 -52.5q-67 0 -126.5 27t-96.5 78
l62 46q54 -89 162 -89q60 0 108.5 36.5t48.5 100.5q0 21 -5.5 38.5t-12 29.5t-23 24.5t-26 18.5t-34 15.5l-34 13t-38.5 12.5q-42 13 -70 25.5t-58.5 35t-46 57t-15.5 80.5q0 65 35.5 110.5t85 65t105.5 19.5q68 0 120 -24t80 -62z" />
    <glyph glyph-name="scommaaccent" unicode="&#x219;" horiz-adv-x="444" 
d="M273 -45l-76 -185h-57l62 185h71zM391 396l-52 -39q-15 30 -46 48t-69 18q-41 0 -70 -18.5t-29 -54.5q0 -32 26 -50t86 -30q84 -17 123 -50t39 -87q0 -74 -51.5 -109.5t-124.5 -35.5q-123 0 -185 91l54 40q19 -32 54 -52.5t76 -20.5q49 0 79.5 19.5t30.5 62.5
q0 35 -32.5 54t-105.5 36q-26 6 -45 13t-42 21t-35 37t-12 55q0 67 48.5 101.5t118.5 34.5q50 0 95.5 -22.5t68.5 -61.5z" />
    <glyph glyph-name="uni021A" unicode="&#x21a;" horiz-adv-x="570" 
d="M338 -45l-76 -185h-57l62 185h71zM321 644v-644h-72v644h-237v64h546v-64h-237z" />
    <glyph glyph-name="uni021B" unicode="&#x21b;" horiz-adv-x="317" 
d="M250 -45l-76 -185h-57l62 185h71zM301 468v-57h-132v-273q0 -49 18 -67.5t52 -18.5q27 0 59 15l3 -59q-37 -14 -80 -14q-48 0 -84 28t-36 97v292h-97v57h97v132h68v-132h132z" />
    <glyph glyph-name="Hcaron" unicode="&#x21e;" horiz-adv-x="718" 
d="M508 927l-109 -144h-80l-109 144h66l83 -108l83 108h66zM94 0v708h72v-307h386v307h72v-708h-72v335h-386v-335h-72z" />
    <glyph glyph-name="hcaron" unicode="&#x21f;" horiz-adv-x="583" 
d="M276 975l-109 -144h-80l-109 144h66l83 -108l83 108h66zM160 391h2q18 41 62 65t95 24q87 0 132.5 -52t45.5 -141v-287h-68v259q0 80 -28.5 122t-98.5 42q-59 0 -100.5 -47.5t-41.5 -135.5v-240h-68v756h68v-365z" />
    <glyph glyph-name="Adotaccent" unicode="&#x226;" horiz-adv-x="700" 
d="M403 831q0 -20 -14.5 -34t-33.5 -14t-33.5 14t-14.5 34t14.5 34t33.5 14t33.5 -14t14.5 -34zM349 628l-156 -376h312zM166 186l-77 -186h-79l306 708h70l304 -708h-80l-78 186h-366z" />
    <glyph glyph-name="adotaccent" unicode="&#x227;" horiz-adv-x="534" 
d="M304 603q0 -20 -14.5 -34t-33.5 -14t-33.5 14t-14.5 34t14.5 34t33.5 14t33.5 -14t14.5 -34zM385 234h-20q-240 0 -240 -101q0 -46 32 -67.5t78 -21.5q69 0 109.5 45t40.5 110v35zM385 287v15q0 121 -125 121q-84 0 -139 -55l-38 45q67 67 184 67q80 0 131 -43.5
t51 -126.5v-205q0 -62 8 -105h-61q-7 40 -7 76h-2q-32 -47 -72 -67.5t-98 -20.5q-63 0 -112.5 35.5t-49.5 106.5q0 35 12 61.5t36 43.5t52 27.5t69 16t76.5 7t84.5 1.5z" />
    <glyph glyph-name="Ecedilla" unicode="&#x228;" horiz-adv-x="592" 
d="M166 337v-273h379v-64h-190l-47 -75q12 4 35 4q33 0 57.5 -19t24.5 -53q0 -46 -35 -66.5t-83 -20.5q-51 0 -94 20l16 36q29 -14 72 -14q21 0 42.5 11t21.5 33q0 39 -54 39q-21 0 -43 -8l-18 15l62 98h-218v708h439v-64h-367v-244h343v-63h-343z" />
    <glyph glyph-name="ecedilla" unicode="&#x229;" 
d="M128 270h319q-3 68 -43.5 110.5t-111.5 42.5q-67 0 -113.5 -45.5t-50.5 -107.5zM516 248q0 -20 -1 -32h-388q2 -71 50.5 -120.5t120.5 -49.5q50 0 89 23t61 58l51 -40q-72 -90 -179 -98l-45 -76q12 4 35 4q33 0 57.5 -19t24.5 -53q0 -46 -35 -66.5t-83 -20.5
q-51 0 -94 20l16 36q29 -14 72 -14q21 0 42.5 11t21.5 33q0 39 -54 39q-21 0 -43 -8l-18 15l60 99q-97 8 -159 76.5t-62 168.5q0 105 68 175.5t168 70.5q106 0 165 -66t59 -166z" />
    <glyph glyph-name="Odieresismacron" unicode="&#x22a;" horiz-adv-x="850" 
d="M560 1032v-54h-270v54h270zM470 852q0 21 14 36t37 15t37 -15t14 -36t-14 -36t-37 -15t-37 15t-14 36zM278 852q0 21 14 36t37 15t37 -15t14 -36t-14 -36t-37 -15t-37 15t-14 36zM718 354q0 129 -80.5 219t-212.5 90t-212.5 -90t-80.5 -219t80.5 -218.5t212.5 -89.5
t212.5 89.5t80.5 218.5zM794 354q0 -161 -105 -266.5t-264 -105.5t-264 105.5t-105 266.5t105 266.5t264 105.5t264 -105.5t105 -266.5z" />
    <glyph glyph-name="odieresismacron" unicode="&#x22b;" horiz-adv-x="611" 
d="M440 786v-54h-270v54h270zM350 606q0 21 14 36t37 15t37 -15t14 -36t-14 -36t-37 -15t-37 15t-14 36zM158 606q0 21 14 36t37 15t37 -15t14 -36t-14 -36t-37 -15t-37 15t-14 36zM483 234q0 80 -49 134.5t-129 54.5q-79 0 -128 -54.5t-49 -134.5t49 -134t128 -54
q80 0 129 53.5t49 134.5zM555 234q0 -106 -70 -176t-180 -70q-108 0 -178.5 70t-70.5 176t70.5 176t178.5 70q110 0 180 -70t70 -176z" />
    <glyph glyph-name="Otildemacron" unicode="&#x22c;" horiz-adv-x="850" 
d="M560 1038v-54h-270v54h270zM306 801h-43q16 104 92 104q27 0 73 -23q50 -23 67 -23q35 0 49 50h43q-16 -104 -92 -104q-29 0 -73 23t-67 23q-35 0 -49 -50zM718 354q0 129 -80.5 219t-212.5 90t-212.5 -90t-80.5 -219t80.5 -218.5t212.5 -89.5t212.5 89.5t80.5 218.5z
M794 354q0 -161 -105 -266.5t-264 -105.5t-264 105.5t-105 266.5t105 266.5t264 105.5t264 -105.5t105 -266.5z" />
    <glyph glyph-name="otildemacron" unicode="&#x22d;" horiz-adv-x="611" 
d="M440 792v-54h-270v54h270zM186 555h-43q16 104 92 104q27 0 73 -23q50 -23 67 -23q35 0 49 50h43q-16 -104 -92 -104q-29 0 -73 23t-67 23q-35 0 -49 -50zM483 234q0 80 -49 134.5t-129 54.5q-79 0 -128 -54.5t-49 -134.5t49 -134t128 -54q80 0 129 53.5t49 134.5z
M555 234q0 -106 -70 -176t-180 -70q-108 0 -178.5 70t-70.5 176t70.5 176t178.5 70q110 0 180 -70t70 -176z" />
    <glyph glyph-name="Odotaccent" unicode="&#x22e;" horiz-adv-x="850" 
d="M473 849q0 -20 -14.5 -34t-33.5 -14t-33.5 14t-14.5 34t14.5 34t33.5 14t33.5 -14t14.5 -34zM718 354q0 129 -80.5 219t-212.5 90t-212.5 -90t-80.5 -219t80.5 -218.5t212.5 -89.5t212.5 89.5t80.5 218.5zM794 354q0 -161 -105 -266.5t-264 -105.5t-264 105.5t-105 266.5
t105 266.5t264 105.5t264 -105.5t105 -266.5z" />
    <glyph glyph-name="odotaccent" unicode="&#x22f;" horiz-adv-x="611" 
d="M353 603q0 -20 -14.5 -34t-33.5 -14t-33.5 14t-14.5 34t14.5 34t33.5 14t33.5 -14t14.5 -34zM483 234q0 80 -49 134.5t-129 54.5q-79 0 -128 -54.5t-49 -134.5t49 -134t128 -54q80 0 129 53.5t49 134.5zM555 234q0 -106 -70 -176t-180 -70q-108 0 -178.5 70t-70.5 176
t70.5 176t178.5 70q110 0 180 -70t70 -176z" />
    <glyph glyph-name="Odotaccentmacron" unicode="&#x230;" horiz-adv-x="850" 
d="M560 1026v-54h-270v54h270zM473 849q0 -20 -14.5 -34t-33.5 -14t-33.5 14t-14.5 34t14.5 34t33.5 14t33.5 -14t14.5 -34zM718 354q0 129 -80.5 219t-212.5 90t-212.5 -90t-80.5 -219t80.5 -218.5t212.5 -89.5t212.5 89.5t80.5 218.5zM794 354q0 -161 -105 -266.5
t-264 -105.5t-264 105.5t-105 266.5t105 266.5t264 105.5t264 -105.5t105 -266.5z" />
    <glyph glyph-name="odotaccentmacron" unicode="&#x231;" horiz-adv-x="611" 
d="M440 780v-54h-270v54h270zM353 603q0 -20 -14.5 -34t-33.5 -14t-33.5 14t-14.5 34t14.5 34t33.5 14t33.5 -14t14.5 -34zM483 234q0 80 -49 134.5t-129 54.5q-79 0 -128 -54.5t-49 -134.5t49 -134t128 -54q80 0 129 53.5t49 134.5zM555 234q0 -106 -70 -176t-180 -70
q-108 0 -178.5 70t-70.5 176t70.5 176t178.5 70q110 0 180 -70t70 -176z" />
    <glyph glyph-name="Ymacron" unicode="&#x232;" horiz-adv-x="602" 
d="M436 837v-54h-270v54h270zM337 305v-305h-72v305l-265 403h90l213 -343l215 343h84z" />
    <glyph glyph-name="ymacron" unicode="&#x233;" horiz-adv-x="488" 
d="M376 597v-54h-270v54h270zM92 468l159 -395h2l145 395h74l-233 -589q-23 -59 -56.5 -89t-90.5 -30q-31 0 -61 6l7 62q26 -8 50 -8q34 0 54 20t36 63l38 98l-200 467h76z" />
    <glyph glyph-name="dotlessj" unicode="&#x237;" horiz-adv-x="251" 
d="M-27 -233l10 57q19 -6 43 -6q39 0 52.5 25t13.5 75v550h68v-561q0 -147 -133 -147q-30 0 -54 7z" />
    <glyph glyph-name="commaturnedmod" unicode="&#x2bb;" horiz-adv-x="222" 
d="M42 473l81 235h57l-67 -235h-71z" />
    <glyph glyph-name="afii57929" unicode="&#x2bc;" horiz-adv-x="222" 
d="M180 708l-81 -235h-57l67 235h71z" />
    <glyph glyph-name="circumflex" unicode="&#x2c6;" horiz-adv-x="240" 
d="M160 708l109 -144h-66l-83 108l-83 -108h-66l109 144h80z" />
    <glyph glyph-name="caron" unicode="&#x2c7;" horiz-adv-x="240" 
d="M269 708l-109 -144h-80l-109 144h66l83 -108l83 108h66z" />
    <glyph glyph-name="uni02C9" unicode="&#x2c9;" horiz-adv-x="240" 
d="M255 854v-54h-270v54h270z" />
    <glyph glyph-name="breve" unicode="&#x2d8;" horiz-adv-x="240" 
d="M223 708h44q-4 -62 -44 -97t-103 -35t-103 35t-44 97h44q7 -38 35 -58t68 -20t68 20t35 58z" />
    <glyph glyph-name="dotaccent" unicode="&#x2d9;" horiz-adv-x="240" 
d="M168 648q0 -20 -14.5 -34t-33.5 -14t-33.5 14t-14.5 34t14.5 34t33.5 14t33.5 -14t14.5 -34z" />
    <glyph glyph-name="ring" unicode="&#x2da;" horiz-adv-x="240" 
d="M180 650q0 25 -17.5 42t-42.5 17t-42.5 -17t-17.5 -42t17.5 -42t42.5 -17t42.5 17t17.5 42zM216 650q0 -40 -28.5 -67.5t-67.5 -27.5t-67.5 27.5t-28.5 67.5q0 39 28.5 67t67.5 28t67.5 -28t28.5 -67z" />
    <glyph glyph-name="ogonek" unicode="&#x2db;" horiz-adv-x="240" 
d="M191 -147l19 -40q-36 -36 -90 -36q-36 0 -63 24t-27 61q0 66 89 138h48q-41 -41 -59 -67.5t-18 -53.5q0 -21 14.5 -34.5t35.5 -13.5q32 0 51 22z" />
    <glyph glyph-name="tilde" unicode="&#x2dc;" horiz-adv-x="240" 
d="M1 576h-43q16 104 92 104q27 0 73 -23q50 -23 67 -23q35 0 49 50h43q-16 -104 -92 -104q-29 0 -73 23t-67 23q-35 0 -49 -50z" />
    <glyph glyph-name="hungarumlaut" unicode="&#x2dd;" horiz-adv-x="240" 
d="M301 708l-132 -144h-59l100 144h91zM131 708l-133 -144h-59l101 144h91z" />
    <glyph glyph-name="uni02EE" unicode="&#x2ee;" horiz-adv-x="387" 
d="M180 708l-81 -235h-57l67 235h71zM345 708l-81 -235h-57l67 235h71z" />
    <glyph glyph-name="gravecmb" unicode="&#x300;" horiz-adv-x="0" 
d="M-108 564l-132 144h91l100 -144h-59z" />
    <glyph glyph-name="acutecmb" unicode="&#x301;" horiz-adv-x="0" 
d="M-49 708l-132 -144h-59l100 144h91z" />
    <glyph glyph-name="circumflexcmb" unicode="&#x302;" horiz-adv-x="0" 
d="M-51 708l109 -144h-66l-83 108l-83 -108h-66l109 144h80z" />
    <glyph glyph-name="tildecmb" unicode="&#x303;" horiz-adv-x="0" 
d="M-197 576h-43q16 104 92 104q27 0 73 -23q50 -23 67 -23q35 0 49 50h43q-16 -104 -92 -104q-29 0 -73 23t-67 23q-35 0 -49 -50z" />
    <glyph glyph-name="macroncmb" unicode="&#x304;" horiz-adv-x="0" 
d="M30 654v-54h-270v54h270z" />
    <glyph glyph-name="brevecmb" unicode="&#x306;" horiz-adv-x="0" 
d="M10 708h44q-4 -62 -44 -97t-103 -35t-103 35t-44 97h44q7 -38 35 -58t68 -20t68 20t35 58z" />
    <glyph glyph-name="dotaccentcmb" unicode="&#x307;" horiz-adv-x="0" 
d="M-144 648q0 -20 -14.5 -34t-33.5 -14t-33.5 14t-14.5 34t14.5 34t33.5 14t33.5 -14t14.5 -34z" />
    <glyph glyph-name="dieresiscmb" unicode="&#x308;" horiz-adv-x="0" 
d="M-48 647q0 21 14 36t37 15t37 -15t14 -36t-14 -36t-37 -15t-37 15t-14 36zM-240 647q0 21 14 36t37 15t37 -15t14 -36t-14 -36t-37 -15t-37 15t-14 36z" />
    <glyph glyph-name="hookabovecomb" unicode="&#x309;" horiz-adv-x="240" 
d="M141 555h-49q0 44 44 65q33 16 33 44q0 18 -12 29t-33 11q-45 0 -52 -52l-53 7q16 86 107 86q44 0 69.5 -22t25.5 -57q0 -52 -49 -74q-31 -14 -31 -37z" />
    <glyph glyph-name="ringcmb" unicode="&#x30a;" horiz-adv-x="0" 
d="M-84 650q0 25 -17.5 42t-42.5 17t-42.5 -17t-17.5 -42t17.5 -42t42.5 -17t42.5 17t17.5 42zM-48 650q0 -40 -28.5 -67.5t-67.5 -27.5t-67.5 27.5t-28.5 67.5q0 39 28.5 67t67.5 28t67.5 -28t28.5 -67z" />
    <glyph glyph-name="hungarumlautcmb" unicode="&#x30b;" horiz-adv-x="0" 
d="M122 708l-132 -144h-59l100 144h91zM-48 708l-133 -144h-59l101 144h91z" />
    <glyph glyph-name="caroncmb" unicode="&#x30c;" horiz-adv-x="0" 
d="M58 708l-109 -144h-80l-109 144h66l83 -108l83 108h66z" />
    <glyph glyph-name="doublegravecmb" unicode="&#x30f;" horiz-adv-x="0" 
d="M-262 564l-132 144h91l100 -144h-59zM-108 564l-132 144h91l100 -144h-59z" />
    <glyph glyph-name="invertedbrevecmb" unicode="&#x311;" horiz-adv-x="0" 
d="M0 576h-44q-7 38 -35 58t-68 20t-68 -20t-35 -58h-44q4 62 44 97t103 35t103 -35t44 -97z" />
    <glyph glyph-name="horncmb" unicode="&#x31b;" horiz-adv-x="0" 
d="M-248 468h79q75 0 75 70q0 29 -15 57l59 16q14 -31 14 -73q0 -56 -33 -86.5t-91 -30.5q-36 0 -63 12q-12 4 -27 13z" />
    <glyph glyph-name="dotbelowcmb" unicode="&#x323;" horiz-adv-x="0" 
d="M-152 -124q0 -22 -15.5 -38t-38.5 -16t-38.5 16t-15.5 38t15.5 38t38.5 16t38.5 -16t15.5 -38z" />
    <glyph glyph-name="dieresisbelowcmb" unicode="&#x324;" horiz-adv-x="0" 
d="M-48 -121q0 21 14 36t37 15t37 -15t14 -36t-14 -36t-37 -15t-37 15t-14 36zM-240 -121q0 21 14 36t37 15t37 -15t14 -36t-14 -36t-37 -15t-37 15t-14 36z" />
    <glyph glyph-name="ringbelowcmb" unicode="&#x325;" horiz-adv-x="0" 
d="M-84 -165q0 25 -17.5 42t-42.5 17t-42.5 -17t-17.5 -42t17.5 -42t42.5 -17t42.5 17t17.5 42zM-48 -165q0 -40 -28.5 -67.5t-67.5 -27.5t-67.5 27.5t-28.5 67.5q0 39 28.5 67t67.5 28t67.5 -28t28.5 -67z" />
    <glyph glyph-name="commabelowcmb" unicode="&#x326;" horiz-adv-x="0" 
d="M-122 -70l-81 -235h-57l67 235h71z" />
    <glyph glyph-name="cedillacmb" unicode="&#x327;" horiz-adv-x="0" 
d="M-98 0l-47 -75q12 4 35 4q33 0 57.5 -19t24.5 -53q0 -46 -35 -66.5t-83 -20.5q-51 0 -94 20l16 36q29 -14 72 -14q21 0 42.5 11t21.5 33q0 39 -54 39q-21 0 -43 -8l-18 15l62 98h43z" />
    <glyph glyph-name="ogonekcmb" unicode="&#x328;" horiz-adv-x="0" 
d="M-79 -147l19 -40q-36 -36 -90 -36q-36 0 -63 24t-27 61q0 66 89 138h48q-41 -41 -59 -67.5t-18 -53.5q0 -21 14.5 -34.5t35.5 -13.5q32 0 51 22z" />
    <glyph glyph-name="circumflexbelowcmb" unicode="&#x32d;" horiz-adv-x="0" 
d="M-51 -70l109 -144h-66l-83 108l-83 -108h-66l109 144h80z" />
    <glyph glyph-name="brevebelowcmb" unicode="&#x32e;" horiz-adv-x="0" 
d="M10 -70h44q-4 -62 -44 -97t-103 -35t-103 35t-44 97h44q7 -38 35 -58t68 -20t68 20t35 58z" />
    <glyph glyph-name="tildebelowcmb" unicode="&#x330;" horiz-adv-x="0" 
d="M-197 -178h-43q16 104 92 104q27 0 73 -23q50 -23 67 -23q35 0 49 50h43q-16 -104 -92 -104q-29 0 -73 23t-67 23q-35 0 -49 -50z" />
    <glyph glyph-name="macronbelowcmb" unicode="&#x331;" horiz-adv-x="0" 
d="M30 -70v-54h-270v54h270z" />
    <glyph glyph-name="gravetonecmb" unicode="&#x340;" horiz-adv-x="0" 
d="M-108 564l-132 144h91l100 -144h-59z" />
    <glyph glyph-name="acutetonecmb" unicode="&#x341;" horiz-adv-x="0" 
d="M-49 708l-132 -144h-59l100 144h91z" />
    <glyph glyph-name="dialytikatonoscmb" unicode="&#x344;" horiz-adv-x="0" 
d="M3 917l-132 -144h-59l100 144h91zM-48 647q0 21 14 36t37 15t37 -15t14 -36t-14 -36t-37 -15t-37 15t-14 36zM-240 647q0 21 14 36t37 15t37 -15t14 -36t-14 -36t-37 -15t-37 15t-14 36z" />
    <glyph glyph-name="combininggraphemejoiner" unicode="&#x34f;" horiz-adv-x="500" 
 />
    <glyph glyph-name="uni037E" unicode="&#x37e;" horiz-adv-x="300" 
d="M199 95l-81 -235h-60l67 235h74zM204 420q0 -22 -15.5 -38t-38.5 -16t-38.5 16t-15.5 38t15.5 38t38.5 16t38.5 -16t15.5 -38z" />
    <glyph glyph-name="u0384" unicode="&#x384;" horiz-adv-x="260" 
d="M107 535l-11 173h67l-10 -173h-46z" />
    <glyph glyph-name="u0385" unicode="&#x385;" horiz-adv-x="240" 
d="M104 532l-11 203h67l-10 -203h-46zM213 571q0 18 12.5 31.5t32.5 13.5t32.5 -13.5t12.5 -31.5t-12.5 -31.5t-32.5 -13.5t-32.5 13.5t-12.5 31.5zM-48 571q0 18 12.5 31.5t32.5 13.5t32.5 -13.5t12.5 -31.5t-12.5 -31.5t-32.5 -13.5t-32.5 13.5t-12.5 31.5z" />
    <glyph glyph-name="u0386" unicode="&#x386;" horiz-adv-x="700" 
d="M349 628l-156 -376h312zM166 186l-77 -186h-79l306 708h70l304 -708h-80l-78 186h-366zM87 575l-11 173h67l-10 -173h-46z" />
    <glyph glyph-name="anoteleia" unicode="&#x387;" horiz-adv-x="260" 
d="M184 314q0 -22 -15.5 -38t-38.5 -16t-38.5 16t-15.5 38t15.5 38t38.5 16t38.5 -16t15.5 -38z" />
    <glyph glyph-name="u0388" unicode="&#x388;" horiz-adv-x="648" 
d="M222 337v-273h379v-64h-451v708h439v-64h-367v-244h343v-63h-343zM11 575l-11 173h67l-10 -173h-46z" />
    <glyph glyph-name="u0389" unicode="&#x389;" horiz-adv-x="752" 
d="M128 0v708h72v-307h386v307h72v-708h-72v335h-386v-335h-72zM11 575l-11 173h67l-10 -173h-46z" />
    <glyph glyph-name="u038A" unicode="&#x38a;" horiz-adv-x="304" 
d="M209 708v-708h-72v708h72zM11 575l-11 173h67l-10 -173h-46z" />
    <glyph glyph-name="u038C" unicode="&#x38c;" horiz-adv-x="870" 
d="M738 354q0 129 -80.5 219t-212.5 90t-212.5 -90t-80.5 -219t80.5 -218.5t212.5 -89.5t212.5 89.5t80.5 218.5zM814 354q0 -161 -105 -266.5t-264 -105.5t-264 105.5t-105 266.5t105 266.5t264 105.5t264 -105.5t105 -266.5zM11 575l-11 173h67l-10 -173h-46z" />
    <glyph glyph-name="u038E" unicode="&#x38e;" horiz-adv-x="717" 
d="M452 305v-305h-72v305l-265 403h90l213 -343l215 343h84zM11 575l-11 173h67l-10 -173h-46z" />
    <glyph glyph-name="u038F" unicode="&#x38f;" horiz-adv-x="809" 
d="M750 0h-265v190q96 16 150 76t54 149q0 115 -72 178t-187 63t-186 -63t-71 -178q0 -93 54 -152t151 -73v-190h-266v66h201v76q-101 22 -158.5 96.5t-57.5 177.5q0 139 97 221t238 82t237 -81.5t96 -220.5q0 -98 -59 -176t-157 -99v-76h201v-66zM11 575l-11 173h67
l-10 -173h-46z" />
    <glyph glyph-name="u0390" unicode="&#x390;" horiz-adv-x="250" 
d="M159 468v-468h-68v468h68zM104 532l-11 203h67l-10 -203h-46zM213 571q0 18 12.5 31.5t32.5 13.5t32.5 -13.5t12.5 -31.5t-12.5 -31.5t-32.5 -13.5t-32.5 13.5t-12.5 31.5zM-48 571q0 18 12.5 31.5t32.5 13.5t32.5 -13.5t12.5 -31.5t-12.5 -31.5t-32.5 -13.5t-32.5 13.5
t-12.5 31.5z" />
    <glyph glyph-name="u0391" unicode="&#x391;" horiz-adv-x="700" 
d="M349 628l-156 -376h312zM166 186l-77 -186h-79l306 708h70l304 -708h-80l-78 186h-366z" />
    <glyph glyph-name="u0392" unicode="&#x392;" horiz-adv-x="636" 
d="M166 339v-277h134q85 0 140 34t55 104q0 69 -47 104t-135 35h-147zM166 646v-248h145q61 0 105.5 30t44.5 94t-47 94t-123 30h-125zM94 0v708h211q44 0 82 -9t72 -28.5t54 -56t20 -87.5q0 -56 -34 -97.5t-91 -54.5v-2q71 -9 115.5 -55t44.5 -122q0 -89 -71 -142.5
t-193 -53.5h-210z" />
    <glyph glyph-name="u0393" unicode="&#x393;" horiz-adv-x="508" 
d="M166 644v-644h-72v708h402v-64h-330z" />
    <glyph glyph-name="u0394" unicode="&#x394;" horiz-adv-x="682" 
d="M566 62l-229 569l-226 -569h455zM651 0h-620v52l270 656h74l276 -656v-52z" />
    <glyph glyph-name="u0395" unicode="&#x395;" horiz-adv-x="592" 
d="M166 337v-273h379v-64h-451v708h439v-64h-367v-244h343v-63h-343z" />
    <glyph glyph-name="u0396" unicode="&#x396;" 
d="M535 708v-60l-413 -584h419v-64h-510v60l414 584h-403v64h493z" />
    <glyph glyph-name="u0397" unicode="&#x397;" horiz-adv-x="718" 
d="M94 0v708h72v-307h386v307h72v-708h-72v335h-386v-335h-72z" />
    <glyph glyph-name="u0398" unicode="&#x398;" horiz-adv-x="850" 
d="M718 354q0 129 -80.5 219t-212.5 90t-212.5 -90t-80.5 -219t80.5 -218.5t212.5 -89.5t212.5 89.5t80.5 218.5zM794 354q0 -161 -105 -266.5t-264 -105.5t-264 105.5t-105 266.5t105 266.5t264 105.5t264 -105.5t105 -266.5zM217 392h417v-66h-417v66z" />
    <glyph glyph-name="u0399" unicode="&#x399;" horiz-adv-x="260" 
d="M166 708v-708h-72v708h72z" />
    <glyph glyph-name="u039A" unicode="&#x39a;" horiz-adv-x="628" 
d="M166 708v-318h1l337 318h103l-357 -321l377 -387h-106l-354 377h-1v-377h-72v708h72z" />
    <glyph glyph-name="u039B" unicode="&#x39b;" horiz-adv-x="700" 
d="M349 618l-260 -618h-79l306 708h70l304 -708h-80z" />
    <glyph glyph-name="u039C" unicode="&#x39c;" horiz-adv-x="886" 
d="M204 708l240 -586h1l237 586h110v-708h-72v615h-2l-256 -615h-38l-256 615h-2v-615h-72v708h110z" />
    <glyph glyph-name="u039D" unicode="&#x39d;" horiz-adv-x="764" 
d="M184 708l412 -603h2v603h72v-708h-90l-412 609h-2v-609h-72v708h90z" />
    <glyph glyph-name="u039E" unicode="&#x39e;" horiz-adv-x="588" 
d="M47 66h494v-66h-494v66zM68 402h437v-66h-437v66zM47 708h482v-66h-482v66z" />
    <glyph glyph-name="u039F" unicode="&#x39f;" horiz-adv-x="850" 
d="M718 354q0 129 -80.5 219t-212.5 90t-212.5 -90t-80.5 -219t80.5 -218.5t212.5 -89.5t212.5 89.5t80.5 218.5zM794 354q0 -161 -105 -266.5t-264 -105.5t-264 105.5t-105 266.5t105 266.5t264 105.5t264 -105.5t105 -266.5z" />
    <glyph glyph-name="u03A0" unicode="&#x3a0;" horiz-adv-x="698" 
d="M94 708h510v-708h-72v642h-366v-642h-72v708z" />
    <glyph glyph-name="u03A1" unicode="&#x3a1;" horiz-adv-x="580" 
d="M166 646v-256h122q85 0 129 33t44 96q0 127 -173 127h-122zM94 0v708h200q111 0 175 -48t64 -141t-65 -141.5t-176 -48.5h-126v-329h-72z" />
    <glyph glyph-name="u03A3" unicode="&#x3a3;" horiz-adv-x="605" 
d="M558 0h-504v45l324 309v6l-324 302v46h492v-64h-377l311 -286v-5l-304 -289h382v-64z" />
    <glyph glyph-name="u03A4" unicode="&#x3a4;" horiz-adv-x="570" 
d="M321 644v-644h-72v644h-237v64h546v-64h-237z" />
    <glyph glyph-name="u03A5" unicode="&#x3a5;" horiz-adv-x="602" 
d="M337 305v-305h-72v305l-265 403h90l213 -343l215 343h84z" />
    <glyph glyph-name="u03A6" unicode="&#x3a6;" horiz-adv-x="838" 
d="M712 354q0 104 -68.5 174.5t-187.5 82.5v-513q118 10 187 81t69 175zM126 354q0 -105 69.5 -176t188.5 -81v514q-119 -10 -188.5 -81.5t-69.5 -175.5zM456 752v-78q146 -10 239 -97.5t93 -222.5q0 -136 -93 -223.5t-239 -97.5v-84h-72v84q-147 10 -240.5 97.5
t-93.5 223.5t93.5 223t240.5 97v78h72z" />
    <glyph glyph-name="u03A7" unicode="&#x3a7;" horiz-adv-x="649" 
d="M132 708l194 -286l193 286h86l-235 -337l260 -371h-90l-216 319l-215 -319h-90l260 372l-237 336h90z" />
    <glyph glyph-name="u03A8" unicode="&#x3a8;" horiz-adv-x="847" 
d="M459 708v-490h25q89 0 148 49.5t59 148.5v292h72v-296q0 -123 -80.5 -189.5t-203.5 -66.5h-20v-156h-72v156h-30q-121 0 -197 66t-76 190v296h72v-292q0 -100 58.5 -149t146.5 -49h26v490h72z" />
    <glyph glyph-name="u03A9" unicode="&#x3a9;" horiz-adv-x="756" 
d="M697 0h-265v190q96 16 150 76t54 149q0 115 -72 178t-187 63t-186 -63t-71 -178q0 -93 54 -152t151 -73v-190h-266v66h201v76q-101 22 -158.5 96.5t-57.5 177.5q0 139 97 221t238 82t237 -81.5t96 -220.5q0 -98 -59 -176t-157 -99v-76h201v-66z" />
    <glyph glyph-name="u03AA" unicode="&#x3aa;" horiz-adv-x="260" 
d="M175 847q0 21 14 36t37 15t37 -15t14 -36t-14 -36t-37 -15t-37 15t-14 36zM-17 847q0 21 14 36t37 15t37 -15t14 -36t-14 -36t-37 -15t-37 15t-14 36zM166 708v-708h-72v708h72z" />
    <glyph glyph-name="u03AB" unicode="&#x3ab;" horiz-adv-x="602" 
d="M348 847q0 21 14 36t37 15t37 -15t14 -36t-14 -36t-37 -15t-37 15t-14 36zM156 847q0 21 14 36t37 15t37 -15t14 -36t-14 -36t-37 -15t-37 15t-14 36zM337 305v-305h-72v305l-265 403h90l213 -343l215 343h84z" />
    <glyph glyph-name="u03AC" unicode="&#x3ac;" horiz-adv-x="630" 
d="M127 234q0 -81 47.5 -134.5t129.5 -53.5q78 0 129 53.5t51 134.5t-51 135t-129 54q-81 0 -129 -54t-48 -135zM476 79h-2q-29 -44 -76.5 -67.5t-100.5 -23.5q-108 0 -175 70t-67 176t67 176t175 70q53 0 100.5 -24t76.5 -69h2v81h68v-468h-68v79zM307 562l-11 173h67
l-10 -173h-46z" />
    <glyph glyph-name="u03AD" unicode="&#x3ad;" horiz-adv-x="474" 
d="M209 735h67l-10 -173h-46zM446 392l-53 -32q-11 19 -28 33q-42 34 -106 34q-54 0 -95 -21.5t-41 -61.5q0 -39 40 -59.5t103 -20.5h103v-56h-127q-68 0 -101.5 -22.5t-33.5 -59.5q0 -38 43 -59t103 -21q76 0 130 34q25 15 39 34l42 -38q-19 -25 -50 -44q-67 -44 -167 -44
q-91 0 -152 37.5t-61 96.5q0 56 39.5 83.5t87.5 32.5v2q-43 4 -76.5 32.5t-33.5 74.5q0 60 60.5 98.5t145.5 38.5q92 0 150 -46q25 -19 39 -46z" />
    <glyph glyph-name="u03AE" unicode="&#x3ae;" horiz-adv-x="597" 
d="M86 468h65q4 -33 4 -80h2q20 40 67.5 66t98.5 26q88 0 136 -52t48 -141v-527h-68v499q0 80 -29.5 122t-103.5 42q-66 0 -107 -46.5t-41 -136.5v-240h-68v365q0 60 -4 103zM279 562l-11 173h67l-10 -173h-46z" />
    <glyph glyph-name="u03AF" unicode="&#x3af;" horiz-adv-x="239" 
d="M93 562l-11 173h67l-10 -173h-46zM149 468v-468h-68v468h68z" />
    <glyph glyph-name="u03B0" unicode="&#x3b0;" horiz-adv-x="580" 
d="M266 532l-11 203h67l-10 -203h-46zM375 571q0 18 12.5 31.5t32.5 13.5t32.5 -13.5t12.5 -31.5t-12.5 -31.5t-32.5 -13.5t-32.5 13.5t-12.5 31.5zM114 571q0 18 12.5 31.5t32.5 13.5t32.5 -13.5t12.5 -31.5t-12.5 -31.5t-32.5 -13.5t-32.5 13.5t-12.5 31.5zM289 -11
q-101 0 -152 61t-51 149v269h68v-264q0 -65 33 -110.5t103 -45.5q69 0 102.5 45.5t33.5 110.5v264h68v-269q0 -87 -52 -148.5t-153 -61.5z" />
    <glyph glyph-name="u03B1" unicode="&#x3b1;" horiz-adv-x="630" 
d="M127 234q0 -81 47.5 -134.5t129.5 -53.5q78 0 129 53.5t51 134.5t-51 135t-129 54q-81 0 -129 -54t-48 -135zM476 79h-2q-29 -44 -76.5 -67.5t-100.5 -23.5q-108 0 -175 70t-67 176t67 176t175 70q53 0 100.5 -24t76.5 -69h2v81h68v-468h-68v79z" />
    <glyph glyph-name="u03B2" unicode="&#x3b2;" horiz-adv-x="629" 
d="M162 529v-318q0 -78 50 -121.5t121 -43.5q72 0 119.5 43.5t47.5 118.5q0 77 -51.5 120t-137.5 43h-69v54h59q56 0 91.5 35.5t35.5 97.5q0 63 -38.5 103.5t-96.5 40.5q-59 0 -95 -44t-36 -129zM162 85v-325h-68v776q0 105 56 164t142 59q83 0 143 -52t60 -137
q0 -67 -36.5 -112.5t-82.5 -52.5v-3q25 0 56 -11.5t63 -33.5t53 -62t21 -89q0 -94 -68 -156t-164 -62q-80 0 -136 48q-26 21 -39 49z" />
    <glyph glyph-name="u03B3" unicode="&#x3b3;" horiz-adv-x="528" 
d="M303 47v-287h-68v287l-222 421h82l175 -357l168 357h77z" />
    <glyph glyph-name="u03B4" unicode="&#x3b4;" horiz-adv-x="609" 
d="M481 231q0 80 -48 131.5t-130 51.5t-128.5 -51.5t-46.5 -131.5q0 -82 46.5 -133t128.5 -51t130 51.5t48 132.5zM88 625q0 60 65.5 95.5t173.5 35.5q80 0 146 -19q24 -6 52 -19l-22 -62q-21 10 -52 18q-70 19 -137 19q-65 0 -109.5 -16t-44.5 -51q0 -26 29.5 -45.5
t112.5 -51.5q251 -94 251 -298q0 -107 -70 -175t-180 -68q-107 0 -177 68.5t-70 174.5t70 174t173 61l16 -1l2 3l-16 6q-4 2 -30.5 11t-51.5 19q-1 1 -16.5 6.5t-21.5 8t-21 10t-22.5 12.5t-18.5 15t-16.5 19.5t-10 22.5t-4.5 27z" />
    <glyph glyph-name="u03B5" unicode="&#x3b5;" horiz-adv-x="484" 
d="M446 392l-53 -32q-11 19 -28 33q-42 34 -106 34q-54 0 -95 -21.5t-41 -61.5q0 -39 40 -59.5t103 -20.5h103v-56h-127q-68 0 -101.5 -22.5t-33.5 -59.5q0 -38 43 -59t103 -21q76 0 130 34q25 15 39 34l42 -38q-19 -25 -50 -44q-67 -44 -167 -44q-91 0 -152 37.5t-61 96.5
q0 56 39.5 83.5t87.5 32.5v2q-43 4 -76.5 32.5t-33.5 74.5q0 60 60.5 98.5t145.5 38.5q92 0 150 -46q25 -19 39 -46z" />
    <glyph glyph-name="u03B6" unicode="&#x3b6;" horiz-adv-x="508" 
d="M297 2q-46 7 -86 22.5t-76.5 44t-58 77t-21.5 111.5q0 62 20.5 120.5t51 102.5t76.5 87.5t84.5 72t87.5 59.5h-287v55h387v-54q-174 -116 -261 -218t-87 -225q0 -87 57 -135.5t169 -67.5q134 -23 134 -134q0 -45 -35 -83.5t-73 -57t-67 -23.5l-39 52q53 10 97.5 37
t44.5 67q0 44 -32 63.5t-86 26.5z" />
    <glyph glyph-name="u03B7" unicode="&#x3b7;" horiz-adv-x="593" 
d="M86 468h65q4 -33 4 -80h2q20 40 67.5 66t98.5 26q88 0 136 -52t48 -141v-527h-68v499q0 80 -29.5 122t-103.5 42q-66 0 -107 -46.5t-41 -136.5v-240h-68v365q0 60 -4 103z" />
    <glyph glyph-name="u03B8" unicode="&#x3b8;" horiz-adv-x="604" 
d="M480 337l-345 1q2 -137 44.5 -218.5t127.5 -81.5q164 0 173 299zM307 707q-85 0 -127.5 -83t-44.5 -221h345q-2 87 -18.5 152.5t-56 108.5t-98.5 43zM307 762q126 0 184.5 -105.5t58.5 -285.5q0 -179 -58.5 -284t-184.5 -105q-125 0 -183 105t-58 284q0 178 58 284.5
t183 106.5z" />
    <glyph glyph-name="u03B9" unicode="&#x3b9;" horiz-adv-x="222" 
d="M145 468v-468h-68v468h68z" />
    <glyph glyph-name="u03BA" unicode="&#x3ba;" horiz-adv-x="530" 
d="M154 468v-211h3l216 211h98l-236 -214l260 -254h-100l-238 246h-3v-246h-68v468h68z" />
    <glyph glyph-name="u03BB" unicode="&#x3bb;" horiz-adv-x="516" 
d="M267 420l-160 -420h-73l198 492l-29 77q-15 41 -21 54.5t-19 33t-29.5 25t-42.5 5.5q-27 0 -60 -11l-15 56q50 13 84 13q38 0 63.5 -8t42.5 -27.5t27 -39.5t24 -56q5 -14 8 -21l235 -593h-73l-158 420h-2z" />
    <glyph glyph-name="u03BC" unicode="&#x3bc;" horiz-adv-x="582" 
d="M86 -240v708h68v-259q0 -88 28 -124.5t99 -36.5q62 0 102 48t40 132v240h68v-365q0 -45 5 -103h-73v76h-2q-23 -38 -61 -63t-81 -25q-96 0 -123 81h-2v-309h-68z" />
    <glyph glyph-name="u03BD" unicode="&#x3bd;" horiz-adv-x="488" 
d="M472 468l-190 -468h-75l-191 468h76l152 -396h2l153 396h73z" />
    <glyph glyph-name="u03BE" unicode="&#x3be;" horiz-adv-x="504" 
d="M55 185q0 82 57.5 126t138.5 56q-182 28 -182 167q0 128 162 160v3h-163v57h377v-43q-77 -10 -127.5 -21.5t-94 -31t-64 -50t-20.5 -73.5q0 -67 56 -100t149 -33h89v-67h-121q-78 0 -131.5 -36t-53.5 -100q0 -63 50 -93.5t172 -51.5q135 -22 135 -134q0 -34 -20.5 -65
t-50.5 -51t-57.5 -32.5t-46.5 -15.5l-39 52q53 10 97.5 37t44.5 67q0 43 -31.5 62.5t-86.5 27.5q-110 16 -174.5 57t-64.5 126z" />
    <glyph glyph-name="u03BF" unicode="&#x3bf;" horiz-adv-x="611" 
d="M483 234q0 80 -49 134.5t-129 54.5q-79 0 -128 -54.5t-49 -134.5t49 -134t128 -54q80 0 129 53.5t49 134.5zM555 234q0 -106 -70 -176t-180 -70q-108 0 -178.5 70t-70.5 176t70.5 176t178.5 70q110 0 180 -70t70 -176z" />
    <glyph glyph-name="u03C0" unicode="&#x3c0;" horiz-adv-x="567" 
d="M154 411v-411h-68v468h395v-468h-68v411h-259z" />
    <glyph glyph-name="u03C1" unicode="&#x3c1;" horiz-adv-x="635" 
d="M507 234q0 83 -47.5 136t-129.5 53q-78 0 -127 -54t-49 -135q0 -84 49.5 -136t126.5 -52q82 0 129.5 53.5t47.5 134.5zM158 79v-319h-68v474q0 116 72 181t172 65q108 0 176.5 -70t68.5 -176t-68.5 -176t-176.5 -70q-52 0 -98 23.5t-75 67.5h-3z" />
    <glyph glyph-name="u03C2" unicode="&#x3c2;" horiz-adv-x="508" 
d="M327 54q27 -5 47 -12.5t42 -22t34 -39.5t12 -60q0 -34 -20.5 -65t-50.5 -51t-57.5 -32.5t-46.5 -15.5l-39 52q53 10 97.5 37t44.5 67q0 23 -8 38.5t-26 24.5t-29.5 12.5t-34.5 8.5q-21 4 -31.5 6.5t-39.5 11.5t-46.5 18.5t-42.5 28.5t-39.5 42t-25.5 57t-11 75
q0 110 69 177.5t175 67.5q119 0 180 -81l-53 -38q-39 62 -125 62q-77 0 -125.5 -51t-48.5 -136q0 -48 15.5 -81.5t47.5 -53t60.5 -29t75.5 -18.5z" />
    <glyph glyph-name="u03C3" unicode="&#x3c3;" horiz-adv-x="635" 
d="M483 234q0 80 -49 134.5t-129 54.5q-79 0 -128 -54.5t-49 -134.5t49 -134t128 -54q80 0 129 53.5t49 134.5zM625 411h-138v-3q68 -70 68 -174q0 -106 -70 -176t-180 -70q-108 0 -178.5 70t-70.5 176t70.5 176t178.5 70q33 0 80 -6t89 -6h151v-57z" />
    <glyph glyph-name="u03C4" unicode="&#x3c4;" horiz-adv-x="481" 
d="M10 411v57h461v-57h-197v-411h-68v411h-196z" />
    <glyph glyph-name="u03C5" unicode="&#x3c5;" horiz-adv-x="580" 
d="M289 -11q-101 0 -152 61t-51 149v269h68v-264q0 -65 33 -110.5t103 -45.5q69 0 102.5 45.5t33.5 110.5v264h68v-269q0 -87 -52 -148.5t-153 -61.5z" />
    <glyph glyph-name="u03C6" unicode="&#x3c6;" horiz-adv-x="799" 
d="M671 248q0 50 -21 85.5t-53.5 52.5t-63 24t-59.5 7h-36v-371q101 0 167 51.5t66 150.5zM56 244q0 93 59 151.5t137 80.5l24 -53q-59 -18 -103.5 -62t-44.5 -116q0 -99 65 -148t177 -51v428h110q111 0 187 -64.5t76 -164.5q0 -81 -46 -141t-114 -88t-145 -28v-228h-68v228
q-138 2 -226 68.5t-88 187.5z" />
    <glyph glyph-name="u03C7" unicode="&#x3c7;" horiz-adv-x="543" 
d="M39 468h74l160 -285l159 285h71l-194 -336l214 -371h-74l-178 319l-177 -319h-74l214 372z" />
    <glyph glyph-name="u03C8" unicode="&#x3c8;" horiz-adv-x="784" 
d="M426 468v-422q98 2 159 56.5t61 155.5v210h68v-214q0 -124 -79.5 -195t-208.5 -71v-228h-68v228q-129 0 -208.5 71t-79.5 195v214h68v-210q0 -100 61 -155t159 -57v422h68z" />
    <glyph glyph-name="u03C9" unicode="&#x3c9;" horiz-adv-x="806" 
d="M262 474l27 -51q-88 -25 -130.5 -74t-42.5 -131q0 -73 32 -122t91 -49q58 0 94 45t36 124v85h68v-85q0 -79 36 -123t94 -44q59 0 91 48t32 121q0 83 -42 131.5t-131 73.5l27 51q42 -10 78 -28t68.5 -48t51 -77t18.5 -107q0 -97 -53 -160t-142 -63q-70 0 -113 42t-47 114
h-4q-5 -74 -47.5 -116t-112.5 -42q-89 0 -142 64.5t-53 160.5q0 60 18.5 107t51 77t68.5 48t78 28z" />
    <glyph glyph-name="u03CA" unicode="&#x3ca;" horiz-adv-x="250" 
d="M171 647q0 21 14 36t37 15t37 -15t14 -36t-14 -36t-37 -15t-37 15t-14 36zM-21 647q0 21 14 36t37 15t37 -15t14 -36t-14 -36t-37 -15t-37 15t-14 36zM159 468v-468h-68v468h68z" />
    <glyph glyph-name="u03CB" unicode="&#x3cb;" horiz-adv-x="580" 
d="M289 -11q-101 0 -152 61t-51 149v269h68v-264q0 -65 33 -110.5t103 -45.5q69 0 102.5 45.5t33.5 110.5v264h68v-269q0 -87 -52 -148.5t-153 -61.5zM331 647q0 21 14 36t37 15t37 -15t14 -36t-14 -36t-37 -15t-37 15t-14 36zM139 647q0 21 14 36t37 15t37 -15t14 -36
t-14 -36t-37 -15t-37 15t-14 36z" />
    <glyph glyph-name="u03CC" unicode="&#x3cc;" horiz-adv-x="611" 
d="M285 545l-11 173h67l-10 -173h-46zM483 234q0 80 -49 134.5t-129 54.5q-79 0 -128 -54.5t-49 -134.5t49 -134t128 -54q80 0 129 53.5t49 134.5zM555 234q0 -106 -70 -176t-180 -70q-108 0 -178.5 70t-70.5 176t70.5 176t178.5 70q110 0 180 -70t70 -176z" />
    <glyph glyph-name="u03CD" unicode="&#x3cd;" horiz-adv-x="580" 
d="M289 -11q-101 0 -152 61t-51 149v269h68v-264q0 -65 33 -110.5t103 -45.5q69 0 102.5 45.5t33.5 110.5v264h68v-269q0 -87 -52 -148.5t-153 -61.5zM269 535l-11 173h67l-10 -173h-46z" />
    <glyph glyph-name="u03CE" unicode="&#x3ce;" horiz-adv-x="806" 
d="M366 708h67l-10 -173h-46zM262 474l27 -51q-88 -25 -130.5 -74t-42.5 -131q0 -73 32 -122t91 -49q58 0 94 45t36 124v85h68v-85q0 -79 36 -123t94 -44q59 0 91 48t32 121q0 83 -42 131.5t-131 73.5l27 51q42 -10 78 -28t68.5 -48t51 -77t18.5 -107q0 -97 -53 -160
t-142 -63q-70 0 -113 42t-47 114h-4q-5 -74 -47.5 -116t-112.5 -42q-89 0 -142 64.5t-53 160.5q0 60 18.5 107t51 77t68.5 48t78 28z" />
    <glyph glyph-name="u0401" unicode="&#x401;" horiz-adv-x="592" 
d="M361 847q0 21 14 36t37 15t37 -15t14 -36t-14 -36t-37 -15t-37 15t-14 36zM169 847q0 21 14 36t37 15t37 -15t14 -36t-14 -36t-37 -15t-37 15t-14 36zM166 337v-273h379v-64h-451v708h439v-64h-367v-244h343v-63h-343z" />
    <glyph glyph-name="u0402" unicode="&#x402;" horiz-adv-x="731" 
d="M218 642h-206v66h535v-66h-257v-190h136q123 0 186.5 -63t63.5 -161q0 -101 -64.5 -166.5t-182.5 -62.5l-37 1v68h59q60 0 105.5 41t45.5 117q0 74 -43.5 116.5t-125.5 42.5h-143v-385h-72v642z" />
    <glyph glyph-name="u0403" unicode="&#x403;" horiz-adv-x="516" 
d="M351 908h91l-132 -144h-59zM166 644v-644h-72v708h402v-64h-330z" />
    <glyph glyph-name="u0404" unicode="&#x404;" horiz-adv-x="735" 
d="M634 150l56 -36q-39 -59 -106.5 -95.5t-158.5 -36.5q-160 0 -264.5 105.5t-104.5 266.5t105 266.5t264 105.5q79 0 148 -30.5t104 -81.5l-60 -44q-25 38 -76.5 65.5t-114.5 27.5q-121 0 -200.5 -76.5t-91.5 -191.5h424v-63h-425q6 -121 86.5 -204t206.5 -83
q138 0 208 105z" />
    <glyph glyph-name="u0405" unicode="&#x405;" horiz-adv-x="564" 
d="M494 640l-57 -46q-51 71 -146 71q-59 0 -105 -35t-46 -98q0 -26 9.5 -47t20.5 -33t36.5 -25t40 -18l47.5 -16l43.5 -14.5t40.5 -15.5t40.5 -20.5t33 -26t29 -34t16.5 -42.5t7 -54q0 -99 -69 -151.5t-162 -52.5q-67 0 -126.5 27t-96.5 78l62 46q54 -89 162 -89
q60 0 108.5 36.5t48.5 100.5q0 21 -5.5 38.5t-12 29.5t-23 24.5t-26 18.5t-34 15.5l-34 13t-38.5 12.5q-42 13 -70 25.5t-58.5 35t-46 57t-15.5 80.5q0 65 35.5 110.5t85 65t105.5 19.5q68 0 120 -24t80 -62z" />
    <glyph glyph-name="u0406" unicode="&#x406;" horiz-adv-x="260" 
d="M166 708v-708h-72v708h72z" />
    <glyph glyph-name="u0407" unicode="&#x407;" horiz-adv-x="260" 
d="M175 847q0 21 14 36t37 15t37 -15t14 -36t-14 -36t-37 -15t-37 15t-14 36zM-17 847q0 21 14 36t37 15t37 -15t14 -36t-14 -36t-37 -15t-37 15t-14 36zM166 708v-708h-72v708h72z" />
    <glyph glyph-name="u0408" unicode="&#x408;" horiz-adv-x="492" 
d="M25 126l67 18q9 -44 39 -71.5t76 -27.5q125 0 125 164v499h72v-504q0 -39 -8 -74.5t-27.5 -70.5t-59 -56t-94.5 -21q-76 0 -126.5 39.5t-63.5 104.5z" />
    <glyph glyph-name="u0409" unicode="&#x409;" horiz-adv-x="940" 
d="M638 336h-106l112 -274q87 0 138 32.5t51 94.5q0 77 -54.5 112t-140.5 35zM344 618l-245 -618h-74l285 708h71l126 -309h135q127 0 195.5 -54t68.5 -157q0 -80 -68 -134t-188 -54h-60z" />
    <glyph glyph-name="u040A" unicode="&#x40a;" horiz-adv-x="989" 
d="M694 338h-119v-274h119q86 0 129.5 36.5t43.5 101.5q0 66 -44 101t-129 35zM94 708h72v-307h337v307h72v-307h125q110 0 174.5 -54t64.5 -151q0 -91 -66 -143.5t-175 -52.5h-195v335h-337v-335h-72v708z" />
    <glyph glyph-name="u040B" unicode="&#x40b;" horiz-adv-x="731" 
d="M443 384h-153v-384h-72v642h-206v66h535v-66h-257v-192h163q105 0 159 -60t54 -163v-227h-72v191q0 97 -33.5 145t-117.5 48z" />
    <glyph glyph-name="u040C" unicode="&#x40c;" horiz-adv-x="691" 
d="M482 908l-132 -144h-59l100 144h91zM166 0h-72v708h72v-301q46 0 104 -7l269 308h79l-272 -325q123 -38 192 -133t93 -250h-79q-33 184 -122.5 264.5t-263.5 76.5v-341z" />
    <glyph glyph-name="u040E" unicode="&#x40e;" horiz-adv-x="649" 
d="M107 708h-80l270 -545q-28 -57 -55 -84t-61 -27q-42 0 -70 17l-33 -62q36 -19 90 -19q68 0 115 43t86 123l271 554h-83l-221 -465zM156 882l51 24q13 -38 46.5 -61.5t79.5 -23.5t79.5 23.5t46.5 61.5l51 -24q-18 -50 -63.5 -82.5t-113.5 -32.5t-113.5 32.5t-63.5 82.5z
" />
    <glyph glyph-name="u040F" unicode="&#x40f;" horiz-adv-x="698" 
d="M166 66h366v642h72v-708h-211v-139h-72v139h-227v708h72v-642z" />
    <glyph glyph-name="u0410" unicode="&#x410;" horiz-adv-x="700" 
d="M349 628l-156 -376h312zM166 186l-77 -186h-79l306 708h70l304 -708h-80l-78 186h-366z" />
    <glyph glyph-name="u0411" unicode="&#x411;" horiz-adv-x="609" 
d="M166 66h138q84 0 130 36t46 100q0 65 -46.5 99t-129.5 34h-138v-269zM308 0h-214v708h402v-66h-330v-241h144q109 0 174 -53t65 -147t-65.5 -147.5t-175.5 -53.5z" />
    <glyph glyph-name="u0412" unicode="&#x412;" horiz-adv-x="636" 
d="M166 339v-277h134q85 0 140 34t55 104q0 69 -47 104t-135 35h-147zM166 646v-248h145q61 0 105.5 30t44.5 94t-47 94t-123 30h-125zM94 0v708h211q44 0 82 -9t72 -28.5t54 -56t20 -87.5q0 -56 -34 -97.5t-91 -54.5v-2q71 -9 115.5 -55t44.5 -122q0 -89 -71 -142.5
t-193 -53.5h-210z" />
    <glyph glyph-name="u0413" unicode="&#x413;" horiz-adv-x="516" 
d="M166 644v-644h-72v708h402v-64h-330z" />
    <glyph glyph-name="u0414" unicode="&#x414;" horiz-adv-x="726" 
d="M362 628l-202 -562h404zM654 0h-582v-139h-72v205h88l241 642h70l239 -642h88v-205h-72v139z" />
    <glyph glyph-name="u0415" unicode="&#x415;" horiz-adv-x="592" 
d="M166 337v-273h379v-64h-451v708h439v-64h-367v-244h343v-63h-343z" />
    <glyph glyph-name="u0416" unicode="&#x416;" horiz-adv-x="980" 
d="M454 0v341q-137 4 -215.5 -77t-99.5 -264h-79q32 298 228 378l-226 330h79l212 -311q44 10 101 10v301h72v-301q57 0 101 -10l212 311h79l-227 -330q194 -77 229 -378h-79q-21 183 -99.5 264t-215.5 77v-341h-72z" />
    <glyph glyph-name="u0417" unicode="&#x417;" horiz-adv-x="623" 
d="M228 340v62h31q76 0 129.5 32t53.5 98q0 65 -41 99t-111 34q-101 0 -148 -93l-56 42q65 112 210 112q99 0 159 -50t60 -140q0 -58 -43 -102t-100 -60v-2q34 -5 63 -15t58 -29.5t45.5 -53.5t16.5 -78q0 -96 -74 -155t-185 -59q-92 0 -149 38t-92 110l62 37
q26 -60 68.5 -91.5t116.5 -31.5q86 0 133.5 41t47.5 111q0 144 -224 144h-31z" />
    <glyph glyph-name="u0418" unicode="&#x418;" horiz-adv-x="764" 
d="M166 105h2l412 603h90v-708h-72v609h-2l-412 -609h-90v708h72v-603z" />
    <glyph glyph-name="u0419" unicode="&#x419;" horiz-adv-x="764" 
d="M205 882l51 24q13 -38 46.5 -61.5t79.5 -23.5t79.5 23.5t46.5 61.5l51 -24q-18 -50 -63.5 -82.5t-113.5 -32.5t-113.5 32.5t-63.5 82.5zM168 105l412 603h90v-708h-72v609h-2l-412 -609h-90v708h72v-603h2z" />
    <glyph glyph-name="u041A" unicode="&#x41a;" horiz-adv-x="691" 
d="M166 0h-72v708h72v-301q46 0 104 -7l269 308h79l-272 -325q123 -38 192 -133t93 -250h-79q-33 184 -122.5 264.5t-263.5 76.5v-341z" />
    <glyph glyph-name="u041B" unicode="&#x41b;" horiz-adv-x="680" 
d="M349 618l-260 -618h-79l306 708h70l304 -708h-80z" />
    <glyph glyph-name="u041C" unicode="&#x41c;" horiz-adv-x="886" 
d="M204 708l240 -586h1l237 586h110v-708h-72v615h-2l-256 -615h-38l-256 615h-2v-615h-72v708h110z" />
    <glyph glyph-name="u041D" unicode="&#x41d;" horiz-adv-x="718" 
d="M94 0v708h72v-307h386v307h72v-708h-72v335h-386v-335h-72z" />
    <glyph glyph-name="u041E" unicode="&#x41e;" horiz-adv-x="850" 
d="M718 354q0 129 -80.5 219t-212.5 90t-212.5 -90t-80.5 -219t80.5 -218.5t212.5 -89.5t212.5 89.5t80.5 218.5zM794 354q0 -161 -105 -266.5t-264 -105.5t-264 105.5t-105 266.5t105 266.5t264 105.5t264 -105.5t105 -266.5z" />
    <glyph glyph-name="u041F" unicode="&#x41f;" horiz-adv-x="698" 
d="M94 708h510v-708h-72v642h-366v-642h-72v708z" />
    <glyph glyph-name="u0420" unicode="&#x420;" horiz-adv-x="580" 
d="M166 646v-256h122q85 0 129 33t44 96q0 127 -173 127h-122zM94 0v708h200q111 0 175 -48t64 -141t-65 -141.5t-176 -48.5h-126v-329h-72z" />
    <glyph glyph-name="u0421" unicode="&#x421;" horiz-adv-x="720" 
d="M634 150l56 -36q-39 -59 -106.5 -95.5t-158.5 -36.5q-160 0 -264.5 105.5t-104.5 266.5t105 266.5t264 105.5q79 0 148 -30.5t104 -81.5l-60 -44q-25 38 -76.5 65.5t-114.5 27.5q-133 0 -213.5 -90t-80.5 -219q0 -128 81 -218.5t213 -90.5q138 0 208 105z" />
    <glyph glyph-name="u0422" unicode="&#x422;" horiz-adv-x="570" 
d="M321 644v-644h-72v644h-237v64h546v-64h-237z" />
    <glyph glyph-name="u0423" unicode="&#x423;" horiz-adv-x="649" 
d="M27 708h80l229 -465l221 465h83l-271 -554q-39 -80 -86 -123t-115 -43q-54 0 -90 19l33 62q28 -17 70 -17q34 0 61 27t55 84z" />
    <glyph glyph-name="u0424" unicode="&#x424;" horiz-adv-x="838" 
d="M712 354q0 104 -68.5 174.5t-187.5 82.5v-513q118 10 187 81t69 175zM126 354q0 -105 69.5 -176t188.5 -81v514q-119 -10 -188.5 -81.5t-69.5 -175.5zM456 752v-78q146 -10 239 -97.5t93 -222.5q0 -136 -93 -223.5t-239 -97.5v-84h-72v84q-147 10 -240.5 97.5
t-93.5 223.5t93.5 223t240.5 97v78h72z" />
    <glyph glyph-name="u0425" unicode="&#x425;" horiz-adv-x="649" 
d="M132 708l194 -286l193 286h86l-235 -337l260 -371h-90l-216 319l-215 -319h-90l260 372l-237 336h90z" />
    <glyph glyph-name="u0426" unicode="&#x426;" horiz-adv-x="721" 
d="M619 0h-525v708h72v-642h366v642h72v-642h87v-205h-72v139z" />
    <glyph glyph-name="u0427" unicode="&#x427;" horiz-adv-x="623" 
d="M457 386v322h72v-708h-71v320h-175q-105 0 -159 60t-54 163v165h72v-129q0 -97 33.5 -145t117.5 -48h164z" />
    <glyph glyph-name="u0428" unicode="&#x428;" horiz-adv-x="989" 
d="M166 66h296v642h72v-642h289v642h72v-708h-801v708h72v-642z" />
    <glyph glyph-name="u0429" unicode="&#x429;" horiz-adv-x="1008" 
d="M906 0h-812v708h72v-642h296v642h72v-642h285v642h72v-642h87v-205h-72v139z" />
    <glyph glyph-name="u042A" unicode="&#x42a;" horiz-adv-x="691" 
d="M277 356v-292h119q82 0 127.5 41t45.5 106q0 67 -46 106t-127 39h-119zM12 708h265v-289h125q108 0 173.5 -57t65.5 -152q0 -94 -79 -152t-204 -58h-153v642h-193v66z" />
    <glyph glyph-name="u042B" unicode="&#x42b;" horiz-adv-x="768" 
d="M602 708h72v-708h-72v708zM166 356v-292h118q87 0 130 35t43 112q0 67 -46 106t-127 39h-118zM94 708h72v-289h124q107 0 173 -60.5t66 -157.5q0 -94 -65.5 -147.5t-175.5 -53.5h-194v708z" />
    <glyph glyph-name="u042C" unicode="&#x42c;" horiz-adv-x="580" 
d="M94 0v708h72v-289h125q108 0 173.5 -57t65.5 -152t-66.5 -152.5t-174.5 -57.5h-195zM285 356h-119v-292h119q82 0 127.5 41t45.5 106q0 67 -46 106t-127 39z" />
    <glyph glyph-name="u042D" unicode="&#x42d;" horiz-adv-x="735" 
d="M45 114l56 36q35 -52 95 -78.5t125 -26.5q125 0 200 82t81 205h-425v63h424q-12 120 -87.5 194t-200.5 74q-79 0 -134 -33t-78 -74l-50 43q38 55 109.5 91t159.5 36q166 0 262.5 -103.5t96.5 -268.5q0 -163 -99 -267.5t-258 -104.5q-92 0 -165.5 37.5t-111.5 94.5z" />
    <glyph glyph-name="u042E" unicode="&#x42e;" horiz-adv-x="1087" 
d="M369 354q0 -129 80.5 -218.5t212.5 -89.5t212.5 89.5t80.5 218.5t-80.5 219t-212.5 90t-212.5 -90t-80.5 -219zM94 708h72v-320h128q10 147 113 242.5t255 95.5q159 0 264 -105.5t105 -266.5t-105 -266.5t-264 -105.5q-151 0 -255.5 96.5t-112.5 243.5h-128v-322h-72v708
z" />
    <glyph glyph-name="u042F" unicode="&#x42f;" horiz-adv-x="640" 
d="M474 396v246h-131q-96 0 -144.5 -29t-48.5 -93q0 -60 50.5 -92t141.5 -32h132zM232 354v2q-74 12 -116 53.5t-42 110.5q-1 92 69 140t193 48h210v-708h-72v330h-81q-124 0 -191.5 -75.5t-81.5 -254.5h-79q8 127 60 223.5t131 130.5z" />
    <glyph glyph-name="u0430" unicode="&#x430;" horiz-adv-x="534" 
d="M385 234h-20q-240 0 -240 -101q0 -46 32 -67.5t78 -21.5q69 0 109.5 45t40.5 110v35zM385 287v15q0 121 -125 121q-84 0 -139 -55l-38 45q67 67 184 67q80 0 131 -43.5t51 -126.5v-205q0 -62 8 -105h-61q-7 40 -7 76h-2q-32 -47 -72 -67.5t-98 -20.5q-63 0 -112.5 35.5
t-49.5 106.5q0 35 12 61.5t36 43.5t52 27.5t69 16t76.5 7t84.5 1.5z" />
    <glyph glyph-name="u0431" unicode="&#x431;" horiz-adv-x="599" 
d="M311 460q103 0 167.5 -65.5t64.5 -170.5q0 -106 -68.5 -171t-167.5 -65q-111 0 -176 69.5t-65 187.5q0 51 5 109q16 179 94.5 266t233.5 87h135v-58h-137q-71 0 -120.5 -19.5t-78.5 -58.5t-44 -86.5t-24 -116.5q27 43 74.5 67.5t106.5 24.5zM471 224q0 78 -45.5 128
t-118.5 50t-122.5 -44t-49.5 -124q0 -84 47.5 -136t125.5 -52q76 0 119.5 51t43.5 127z" />
    <glyph glyph-name="u0432" unicode="&#x432;" horiz-adv-x="541" 
d="M154 261h130q54 0 80.5 17t26.5 60q0 47 -36 61t-116 14h-85v-152zM154 212v-157h87q36 0 56 1t45.5 5t38.5 12t22 23.5t9 37.5q0 45 -32.5 61.5t-98.5 16.5h-127zM300 0h-214v468h202q87 0 131 -33.5t44 -92.5q0 -48 -26 -68.5t-78 -35.5q57 -4 92 -31.5t35 -81.5
q0 -58 -48 -91.5t-138 -33.5z" />
    <glyph glyph-name="u0433" unicode="&#x433;" horiz-adv-x="388" 
d="M154 411v-411h-68v468h290v-57h-222z" />
    <glyph glyph-name="u0434" unicode="&#x434;" horiz-adv-x="544" 
d="M275 386l-131 -327h254zM67 0v-139h-67v198h75l172 409h60l159 -409h78v-198h-66v139h-411z" />
    <glyph glyph-name="u0435" unicode="&#x435;" 
d="M516 248q0 -20 -1 -32h-388q2 -71 50.5 -120.5t120.5 -49.5q50 0 89 23t61 58l51 -40q-78 -99 -201 -99q-104 0 -173 70t-69 176q0 105 68 175.5t168 70.5q106 0 165 -66t59 -166zM128 270h319q-3 68 -43.5 110.5t-111.5 42.5q-67 0 -113.5 -45.5t-50.5 -107.5z" />
    <glyph glyph-name="u0436" unicode="&#x436;" horiz-adv-x="816" 
d="M374 0v218q-104 -2 -163.5 -50.5t-84.5 -167.5h-76q26 109 72 170t124 87l-171 211h76l157 -197q33 5 66 5v192h68v-192q31 0 66 -5l157 197h76l-172 -211q77 -26 123.5 -87t73.5 -170h-76q-27 119 -86 167.5t-162 50.5v-218h-68z" />
    <glyph glyph-name="u0437" unicode="&#x437;" horiz-adv-x="463" 
d="M104 360l-53 32q12 26 35 46q54 46 137 46t125.5 -40t42.5 -92q0 -46 -34 -78t-85 -34v-3q59 0 97.5 -26.5t38.5 -79.5q0 -64 -51.5 -103.5t-138.5 -39.5q-89 0 -143 46q-24 20 -35 47l55 34q7 -20 26 -37q36 -36 104 -36q54 0 85 24t31 64q0 36 -27.5 58t-84.5 22h-60
v52h50q47 0 77 21.5t30 61.5q0 37 -26.5 62.5t-77.5 25.5q-62 0 -95 -37q-15 -15 -23 -36z" />
    <glyph glyph-name="u0438" unicode="&#x438;" horiz-adv-x="599" 
d="M443 0v381l-287 -381h-70v468h70v-367l287 367h70v-468h-70z" />
    <glyph glyph-name="u0439" unicode="&#x439;" horiz-adv-x="599" 
d="M151 681l49 22q30 -88 104 -88q41 0 64.5 22.5t39.5 65.5l49 -22q-42 -120 -153 -120q-110 0 -153 120zM443 381v-381h70v468h-70l-287 -367v367h-70v-468h70z" />
    <glyph glyph-name="u043A" unicode="&#x43a;" horiz-adv-x="543" 
d="M154 468v-192q40 0 75 -6l168 198h76l-182 -212q81 -26 127.5 -87t74.5 -169h-76q-27 121 -87.5 168.5t-175.5 49.5v-218h-68v468h68z" />
    <glyph glyph-name="u043B" unicode="&#x43b;" horiz-adv-x="497" 
d="M477 0h-69l-155 386l-162 -386h-71l205 468h60z" />
    <glyph glyph-name="u043C" unicode="&#x43c;" horiz-adv-x="695" 
d="M86 468h58l205 -241l202 241h58v-468h-68v369l-179 -224h-28l-180 219v-364h-68v468z" />
    <glyph glyph-name="u043D" unicode="&#x43d;" horiz-adv-x="575" 
d="M154 222v-222h-68v468h68v-189h267v189h68v-468h-68v222h-267z" />
    <glyph glyph-name="u043E" unicode="&#x43e;" horiz-adv-x="611" 
d="M483 234q0 80 -49 134.5t-129 54.5q-79 0 -128 -54.5t-49 -134.5t49 -134t128 -54q80 0 129 53.5t49 134.5zM555 234q0 -106 -70 -176t-180 -70q-108 0 -178.5 70t-70.5 176t70.5 176t178.5 70q110 0 180 -70t70 -176z" />
    <glyph glyph-name="u043F" unicode="&#x43f;" horiz-adv-x="567" 
d="M154 411v-411h-68v468h395v-468h-68v411h-259z" />
    <glyph glyph-name="u0440" unicode="&#x440;" horiz-adv-x="635" 
d="M507 234q0 81 -48 135t-129 54q-78 0 -129 -54t-51 -135t51 -134.5t129 -53.5q82 0 129.5 53.5t47.5 134.5zM158 79v-319h-68v708h68v-81h3q28 44 76 68.5t100 24.5q108 0 175 -70t67 -176t-67 -176t-175 -70q-52 0 -99.5 24t-76.5 67h-3z" />
    <glyph glyph-name="u0441" unicode="&#x441;" horiz-adv-x="500" 
d="M480 399l-53 -38q-18 28 -50.5 45t-69.5 17q-80 0 -129.5 -53.5t-49.5 -135.5q0 -81 49 -134.5t129 -53.5q81 0 127 61l51 -38q-66 -81 -178 -81t-181 69.5t-69 176.5t69 176.5t181 69.5q49 0 97 -21.5t77 -59.5z" />
    <glyph glyph-name="u0442" unicode="&#x442;" horiz-adv-x="431" 
d="M10 411v57h411v-57h-177v-411h-68v411h-166z" />
    <glyph glyph-name="u0443" unicode="&#x443;" horiz-adv-x="488" 
d="M92 468l159 -395h2l145 395h74l-233 -589q-23 -59 -56.5 -89t-90.5 -30q-31 0 -61 6l7 62q26 -8 50 -8q34 0 54 20t36 63l38 98l-200 467h76z" />
    <glyph glyph-name="u0444" unicode="&#x444;" horiz-adv-x="667" 
d="M128 234q0 -80 48.5 -134t125.5 -54v377q-79 -2 -126.5 -55.5t-47.5 -133.5zM539 234q0 80 -48 133.5t-127 55.5v-377q79 0 127 54t48 134zM364 756v-276q107 0 177 -70.5t70 -175.5q0 -106 -69.5 -176t-177.5 -70v-233h-62v233q-105 0 -175.5 70.5t-70.5 175.5
q0 106 69 175t177 71v276h62z" />
    <glyph glyph-name="u0445" unicode="&#x445;" horiz-adv-x="484" 
d="M16 0l184 242l-173 226h87l128 -178l128 178h82l-170 -223l186 -245h-88l-139 195l-143 -195h-82z" />
    <glyph glyph-name="u0446" unicode="&#x446;" horiz-adv-x="571" 
d="M483 0h-397v468h68v-407h251v407h68v-407h78v-200h-68v139z" />
    <glyph glyph-name="u0447" unicode="&#x447;" horiz-adv-x="516" 
d="M50 363v105h68v-68q0 -54 3 -79.5t16.5 -49.5t42.5 -32t80 -8h102v237h68v-468h-68v174h-103q-124 0 -166.5 44.5t-42.5 144.5z" />
    <glyph glyph-name="u0448" unicode="&#x448;" horiz-adv-x="797" 
d="M711 0h-625v468h68v-411h210v411h68v-411h211v411h68v-468z" />
    <glyph glyph-name="u0449" unicode="&#x449;" horiz-adv-x="809" 
d="M721 0h-635v468h68v-411h210v411h68v-411h211v411h68v-411h78v-196h-68v139z" />
    <glyph glyph-name="u044A" unicode="&#x44a;" horiz-adv-x="552" 
d="M218 252v-197h84q62 0 95 22t33 77q0 98 -131 98h-81zM10 468h208v-162h96q99 0 143.5 -41t44.5 -111q0 -67 -47.5 -110.5t-136.5 -43.5h-168v411h-140v57z" />
    <glyph glyph-name="u044B" unicode="&#x44b;" horiz-adv-x="653" 
d="M499 468h68v-468h-68v468zM154 252v-197h84q62 0 95 22t33 77q0 98 -131 98h-81zM86 468h68v-162h96q99 0 143.5 -41t44.5 -111q0 -67 -47.5 -110.5t-136.5 -43.5h-168v468z" />
    <glyph glyph-name="u044C" unicode="&#x44c;" horiz-adv-x="510" 
d="M154 252v-197h104q130 0 130 99q0 98 -133 98h-101zM86 468h68v-162h116q99 0 144.5 -41t45.5 -111q0 -67 -49 -110.5t-137 -43.5h-188v468z" />
    <glyph glyph-name="u044D" unicode="&#x44d;" horiz-adv-x="541" 
d="M96 341l-49 42q68 97 202 97q109 0 172.5 -69t63.5 -177q0 -106 -69 -176t-173 -70q-123 0 -201 99l51 40q22 -35 61 -58t89 -23q71 0 122 50t53 120h-265v54h264q-4 63 -50.5 108t-118.5 45q-105 0 -152 -82z" />
    <glyph glyph-name="u044E" unicode="&#x44e;" horiz-adv-x="807" 
d="M679 234q0 80 -49 134.5t-129 54.5q-79 0 -128 -54.5t-49 -134.5t49 -134t128 -54q80 0 129 53.5t49 134.5zM751 234q0 -106 -70 -176t-180 -70q-106 0 -175.5 66t-73.5 168h-98v-222h-68v468h68v-189h102q14 89 81.5 145t163.5 56q110 0 180 -70t70 -176z" />
    <glyph glyph-name="u044F" unicode="&#x44f;" horiz-adv-x="539" 
d="M154 334q0 -44 35 -59t97 -15h99v149h-100q-65 0 -98 -14t-33 -61zM385 201h-81q-150 0 -168 -201h-76q6 82 41.5 142.5t97.5 81.5v3q-117 12 -117 107q0 64 49.5 99t144.5 35h177v-468h-68v201z" />
    <glyph glyph-name="u0451" unicode="&#x451;" 
d="M344 647q0 21 14 36t37 15t37 -15t14 -36t-14 -36t-37 -15t-37 15t-14 36zM152 647q0 21 14 36t37 15t37 -15t14 -36t-14 -36t-37 -15t-37 15t-14 36zM516 248q0 -20 -1 -32h-388q2 -71 50.5 -120.5t120.5 -49.5q50 0 89 23t61 58l51 -40q-78 -99 -201 -99
q-104 0 -173 70t-69 176q0 105 68 175.5t168 70.5q106 0 165 -66t59 -166zM128 270h319q-3 68 -43.5 110.5t-111.5 42.5q-67 0 -113.5 -45.5t-50.5 -107.5z" />
    <glyph glyph-name="u0452" unicode="&#x452;" horiz-adv-x="586" 
d="M229 -186l36 53q20 -15 51 -15q62 0 89 41.5t27 128.5v237q0 80 -28.5 122t-98.5 42q-59 0 -100.5 -47.5t-41.5 -135.5v-240h-68v575h-105v51h105v130h68v-130h188v-51h-188v-184h2q18 41 62 65t95 24q87 0 132.5 -52t45.5 -141v-293q0 -90 -48 -147t-133 -57
q-53 0 -90 24z" />
    <glyph glyph-name="u0453" unicode="&#x453;" horiz-adv-x="388" 
d="M374 678l-132 -144h-59l100 144h91zM154 411v-411h-68v468h290v-57h-222z" />
    <glyph glyph-name="u0454" unicode="&#x454;" horiz-adv-x="564" 
d="M502 383l-49 -42q-47 82 -152 82q-72 0 -118.5 -45t-50.5 -108h264v-54h-265q2 -70 53 -120t122 -50q99 0 150 81l51 -40q-78 -99 -208 -99q-99 0 -167 70.5t-68 175.5q0 108 63.5 177t172.5 69q134 0 202 -97z" />
    <glyph glyph-name="u0455" unicode="&#x455;" horiz-adv-x="444" 
d="M391 396l-52 -39q-15 30 -46 48t-69 18q-41 0 -70 -18.5t-29 -54.5q0 -32 26 -50t86 -30q84 -17 123 -50t39 -87q0 -74 -51.5 -109.5t-124.5 -35.5q-123 0 -185 91l54 40q19 -32 54 -52.5t76 -20.5q49 0 79.5 19.5t30.5 62.5q0 35 -32.5 54t-105.5 36q-26 6 -45 13
t-42 21t-35 37t-12 55q0 67 48.5 101.5t118.5 34.5q50 0 95.5 -22.5t68.5 -61.5z" />
    <glyph glyph-name="u0456" unicode="&#x456;" horiz-adv-x="250" 
d="M173 648q0 -20 -14.5 -34t-33.5 -14t-33.5 14t-14.5 34t14.5 34t33.5 14t33.5 -14t14.5 -34zM159 468v-468h-68v468h68z" />
    <glyph glyph-name="u0457" unicode="&#x457;" horiz-adv-x="250" 
d="M171 647q0 21 14 36t37 15t37 -15t14 -36t-14 -36t-37 -15t-37 15t-14 36zM-21 647q0 21 14 36t37 15t37 -15t14 -36t-14 -36t-37 -15t-37 15t-14 36zM159 468v-468h-68v468h68z" />
    <glyph glyph-name="u0458" unicode="&#x458;" horiz-adv-x="251" 
d="M174 648q0 -20 -14.5 -34t-33.5 -14t-33.5 14t-14.5 34t14.5 34t33.5 14t33.5 -14t14.5 -34zM-27 -233l10 57q19 -6 43 -6q39 0 52.5 25t13.5 75v550h68v-561q0 -147 -133 -147q-30 0 -54 7z" />
    <glyph glyph-name="u0459" unicode="&#x459;" horiz-adv-x="707" 
d="M472 252h-113l76 -197h40q62 0 95 22t33 77t-32 76.5t-99 21.5zM491 0h-103l-145 386l-152 -386h-71l195 468h60l63 -162h149q99 0 144.5 -41t45.5 -111q0 -67 -49 -110.5t-137 -43.5z" />
    <glyph glyph-name="u045A" unicode="&#x45a;" horiz-adv-x="825" 
d="M489 225v-170h84q63 0 96.5 18t33.5 65q0 87 -133 87h-81zM86 468h68v-189h267v189h68v-189h96q99 0 144.5 -39t45.5 -102q0 -60 -49 -99t-137 -39h-168v222h-267v-222h-68v468z" />
    <glyph glyph-name="u045B" unicode="&#x45b;" horiz-adv-x="586" 
d="M163 391h2q18 41 62 65t95 24q87 0 132.5 -52t45.5 -141v-287h-68v259q0 80 -28.5 122t-98.5 42q-59 0 -100.5 -47.5t-41.5 -135.5v-240h-68v575h-105v51h105v130h68v-130h188v-51h-188v-184z" />
    <glyph glyph-name="u045C" unicode="&#x45c;" horiz-adv-x="543" 
d="M410 678l-132 -144h-59l100 144h91zM154 468v-192q40 0 75 -6l168 198h76l-182 -212q81 -26 127.5 -87t74.5 -169h-76q-27 121 -87.5 168.5t-175.5 49.5v-218h-68v468h68z" />
    <glyph glyph-name="u045E" unicode="&#x45e;" horiz-adv-x="488" 
d="M251 73l-159 395h-76l200 -467l-38 -98q-16 -43 -36 -63t-54 -20q-24 0 -50 8l-7 -62q30 -6 61 -6q57 0 90.5 30t56.5 89l233 589h-74l-145 -395h-2zM85 679l46 22q12 -34 41.5 -55t71.5 -21t71.5 21t41.5 55l46 -22q-17 -45 -57.5 -74t-101.5 -29t-103 29.5t-56 73.5z
" />
    <glyph glyph-name="u045F" unicode="&#x45f;" horiz-adv-x="559" 
d="M473 0h-153v-139h-66v139h-168v468h68v-409h251v409h68v-468z" />
    <glyph glyph-name="u0490" unicode="&#x490;" horiz-adv-x="528" 
d="M166 644v-644h-72v708h338v159h66v-223h-332z" />
    <glyph glyph-name="u0491" unicode="&#x491;" horiz-adv-x="406" 
d="M154 411v-411h-68v468h234v166h66v-223h-232z" />
    <glyph glyph-name="palochkacyrillic" unicode="&#x4c0;" horiz-adv-x="260" 
d="M166 708v-708h-72v708h72z" />
    <glyph glyph-name="Aiecyrillic" unicode="&#x4d4;" horiz-adv-x="990" 
d="M258 261h261v383h-14zM591 337v-273h345v-64h-417v198h-298l-128 -198h-82l461 708h452v-64h-333v-244h309v-63h-309z" />
    <glyph glyph-name="aiecyrillic" unicode="&#x4d5;" horiz-adv-x="870" 
d="M380 216h-20q-42 0 -71.5 -1.5t-62.5 -6.5t-53 -14.5t-33.5 -26.5t-13.5 -41q0 -83 111 -83q70 0 106.5 37t36.5 102v34zM446 270h299q0 68 -38.5 110.5t-105.5 42.5q-61 0 -107 -46t-48 -107zM814 248q0 -23 -1 -32h-370q2 -72 48.5 -121.5t114.5 -49.5q48 0 85.5 23
t57.5 58l49 -39q-74 -99 -192 -99q-65 0 -114 29t-72 80q-47 -109 -195 -109q-69 0 -119 34t-50 103q0 38 19 66t47.5 43t74.5 23.5t86.5 10.5t96.5 2v15q0 63 -30.5 100.5t-89.5 37.5q-84 0 -144 -55l-39 44q31 30 83 49t110 19q56 0 96.5 -25.5t57.5 -72.5q28 46 74.5 72
t102.5 26q101 0 157 -66t56 -166z" />
    <glyph glyph-name="Aringbelow" unicode="&#x1e00;" horiz-adv-x="700" 
d="M410 -170q0 25 -17.5 42t-42.5 17t-42.5 -17t-17.5 -42t17.5 -42t42.5 -17t42.5 17t17.5 42zM446 -170q0 -40 -28.5 -67.5t-67.5 -27.5t-67.5 27.5t-28.5 67.5q0 39 28.5 67t67.5 28t67.5 -28t28.5 -67zM349 628l-156 -376h312zM166 186l-77 -186h-79l306 708h70
l304 -708h-80l-78 186h-366z" />
    <glyph glyph-name="aringbelow" unicode="&#x1e01;" horiz-adv-x="534" 
d="M316 -182q0 25 -17.5 42t-42.5 17t-42.5 -17t-17.5 -42t17.5 -42t42.5 -17t42.5 17t17.5 42zM352 -182q0 -40 -28.5 -67.5t-67.5 -27.5t-67.5 27.5t-28.5 67.5q0 39 28.5 67t67.5 28t67.5 -28t28.5 -67zM385 234h-20q-240 0 -240 -101q0 -46 32 -67.5t78 -21.5
q69 0 109.5 45t40.5 110v35zM385 287v15q0 121 -125 121q-84 0 -139 -55l-38 45q67 67 184 67q80 0 131 -43.5t51 -126.5v-205q0 -62 8 -105h-61q-7 40 -7 76h-2q-32 -47 -72 -67.5t-98 -20.5q-63 0 -112.5 35.5t-49.5 106.5q0 35 12 61.5t36 43.5t52 27.5t69 16t76.5 7
t84.5 1.5z" />
    <glyph glyph-name="uni1E02" unicode="&#x1e02;" horiz-adv-x="636" 
d="M348 848q0 -20 -14.5 -34t-33.5 -14t-33.5 14t-14.5 34t14.5 34t33.5 14t33.5 -14t14.5 -34zM166 339v-277h134q85 0 140 34t55 104q0 69 -47 104t-135 35h-147zM166 646v-248h145q61 0 105.5 30t44.5 94t-47 94t-123 30h-125zM94 0v708h211q44 0 82 -9t72 -28.5t54 -56
t20 -87.5q0 -56 -34 -97.5t-91 -54.5v-2q71 -9 115.5 -55t44.5 -122q0 -89 -71 -142.5t-193 -53.5h-210z" />
    <glyph glyph-name="uni1E03" unicode="&#x1e03;" horiz-adv-x="637" 
d="M174 848q0 -20 -14.5 -34t-33.5 -14t-33.5 14t-14.5 34t14.5 34t33.5 14t33.5 -14t14.5 -34zM509 234q0 81 -48 135t-129 54q-78 0 -129 -54t-51 -135t51 -134.5t129 -53.5q82 0 129.5 53.5t47.5 134.5zM162 79h-2v-79h-68v756h68v-369h2q29 45 76.5 69t100.5 24
q108 0 175 -70t67 -176t-67 -176t-175 -70q-53 0 -100.5 23.5t-76.5 67.5z" />
    <glyph glyph-name="Bdotbelow" unicode="&#x1e04;" horiz-adv-x="636" 
d="M339 -123q0 -20 -14.5 -34t-33.5 -14t-33.5 14t-14.5 34t14.5 34t33.5 14t33.5 -14t14.5 -34zM166 339v-277h134q85 0 140 34t55 104q0 69 -47 104t-135 35h-147zM166 646v-248h145q61 0 105.5 30t44.5 94t-47 94t-123 30h-125zM94 0v708h211q44 0 82 -9t72 -28.5t54 -56
t20 -87.5q0 -56 -34 -97.5t-91 -54.5v-2q71 -9 115.5 -55t44.5 -122q0 -89 -71 -142.5t-193 -53.5h-210z" />
    <glyph glyph-name="bdotbelow" unicode="&#x1e05;" horiz-adv-x="637" 
d="M384 -135q0 -20 -14.5 -34t-33.5 -14t-33.5 14t-14.5 34t14.5 34t33.5 14t33.5 -14t14.5 -34zM509 234q0 81 -48 135t-129 54q-78 0 -129 -54t-51 -135t51 -134.5t129 -53.5q82 0 129.5 53.5t47.5 134.5zM162 79h-2v-79h-68v756h68v-369h2q29 45 76.5 69t100.5 24
q108 0 175 -70t67 -176t-67 -176t-175 -70q-53 0 -100.5 23.5t-76.5 67.5z" />
    <glyph glyph-name="Blinebelow" unicode="&#x1e06;" horiz-adv-x="636" 
d="M416 -75v-54h-270v54h270zM166 339v-277h134q85 0 140 34t55 104q0 69 -47 104t-135 35h-147zM166 646v-248h145q61 0 105.5 30t44.5 94t-47 94t-123 30h-125zM94 0v708h211q44 0 82 -9t72 -28.5t54 -56t20 -87.5q0 -56 -34 -97.5t-91 -54.5v-2q71 -9 115.5 -55
t44.5 -122q0 -89 -71 -142.5t-193 -53.5h-210z" />
    <glyph glyph-name="blinebelow" unicode="&#x1e07;" horiz-adv-x="637" 
d="M471 -87v-54h-270v54h270zM509 234q0 81 -48 135t-129 54q-78 0 -129 -54t-51 -135t51 -134.5t129 -53.5q82 0 129.5 53.5t47.5 134.5zM162 79h-2v-79h-68v756h68v-369h2q29 45 76.5 69t100.5 24q108 0 175 -70t67 -176t-67 -176t-175 -70q-53 0 -100.5 23.5t-76.5 67.5z
" />
    <glyph glyph-name="Ccedillaacute" unicode="&#x1e08;" horiz-adv-x="720" 
d="M549 945l-132 -144h-59l100 144h91zM634 150l56 -36q-39 -59 -106.5 -95.5t-158.5 -36.5l-35 -57q12 4 35 4q33 0 57.5 -19t24.5 -53q0 -46 -35 -66.5t-83 -20.5q-51 0 -94 20l16 36q29 -14 72 -14q21 0 42.5 11t21.5 33q0 39 -54 39q-21 0 -43 -8l-18 15l52 82
q-145 14 -236.5 117t-91.5 253q0 161 105 266.5t264 105.5q79 0 148 -30.5t104 -81.5l-60 -44q-25 38 -76.5 65.5t-114.5 27.5q-133 0 -213.5 -90t-80.5 -219q0 -128 81 -218.5t213 -90.5q138 0 208 105z" />
    <glyph glyph-name="ccedillaacute" unicode="&#x1e09;" horiz-adv-x="500" 
d="M426 699l-132 -144h-59l100 144h91zM480 399l-53 -38q-18 28 -50.5 45t-69.5 17q-80 0 -129.5 -53.5t-49.5 -135.5q0 -81 49 -134.5t129 -53.5q81 0 127 61l51 -38q-62 -77 -172 -81l-39 -63q12 4 35 4q33 0 57.5 -19t24.5 -53q0 -46 -35 -66.5t-83 -20.5q-51 0 -94 20
l16 36q29 -14 72 -14q21 0 42.5 11t21.5 33q0 39 -54 39q-21 0 -43 -8l-18 15l55 88q-98 12 -156 78.5t-58 165.5q0 107 69 176.5t181 69.5q49 0 97 -21.5t77 -59.5z" />
    <glyph glyph-name="uni1E0A" unicode="&#x1e0a;" horiz-adv-x="757" 
d="M395 848q0 -20 -14.5 -34t-33.5 -14t-33.5 14t-14.5 34t14.5 34t33.5 14t33.5 -14t14.5 -34zM166 644v-580h143q77 0 138.5 24.5t99.5 66t58 92.5t20 107t-20 107t-58 92.5t-99.5 66t-138.5 24.5h-143zM94 0v708h235q68 0 133 -22.5t119 -65t87 -112t33 -154.5
t-33 -154.5t-87 -112t-119 -65t-133 -22.5h-235z" />
    <glyph glyph-name="uni1E0B" unicode="&#x1e0b;" horiz-adv-x="637" 
d="M560 848q0 -20 -14.5 -34t-33.5 -14t-33.5 14t-14.5 34t14.5 34t33.5 14t33.5 -14t14.5 -34zM128 234q0 -81 47.5 -134.5t129.5 -53.5q78 0 129 53.5t51 134.5t-51 135t-129 54q-81 0 -129 -54t-48 -135zM477 79h-2q-29 -44 -76.5 -67.5t-100.5 -23.5q-108 0 -175 70
t-67 176t67 176t175 70q53 0 100.5 -24t76.5 -69h2v369h68v-756h-68v79z" />
    <glyph glyph-name="Ddotbelow" unicode="&#x1e0c;" horiz-adv-x="757" 
d="M335 -123q0 -20 -14.5 -34t-33.5 -14t-33.5 14t-14.5 34t14.5 34t33.5 14t33.5 -14t14.5 -34zM166 644v-580h143q77 0 138.5 24.5t99.5 66t58 92.5t20 107t-20 107t-58 92.5t-99.5 66t-138.5 24.5h-143zM94 0v708h235q68 0 133 -22.5t119 -65t87 -112t33 -154.5
t-33 -154.5t-87 -112t-119 -65t-133 -22.5h-235z" />
    <glyph glyph-name="ddotbelow" unicode="&#x1e0d;" horiz-adv-x="637" 
d="M368 -135q0 -20 -14.5 -34t-33.5 -14t-33.5 14t-14.5 34t14.5 34t33.5 14t33.5 -14t14.5 -34zM128 234q0 -81 47.5 -134.5t129.5 -53.5q78 0 129 53.5t51 134.5t-51 135t-129 54q-81 0 -129 -54t-48 -135zM477 79h-2q-29 -44 -76.5 -67.5t-100.5 -23.5q-108 0 -175 70
t-67 176t67 176t175 70q53 0 100.5 -24t76.5 -69h2v369h68v-756h-68v79z" />
    <glyph glyph-name="Dlinebelow" unicode="&#x1e0e;" horiz-adv-x="757" 
d="M382 -75v-54h-270v54h270zM166 644v-580h143q77 0 138.5 24.5t99.5 66t58 92.5t20 107t-20 107t-58 92.5t-99.5 66t-138.5 24.5h-143zM94 0v708h235q68 0 133 -22.5t119 -65t87 -112t33 -154.5t-33 -154.5t-87 -112t-119 -65t-133 -22.5h-235z" />
    <glyph glyph-name="dlinebelow" unicode="&#x1e0f;" horiz-adv-x="637" 
d="M425 -87v-54h-270v54h270zM128 234q0 -81 47.5 -134.5t129.5 -53.5q78 0 129 53.5t51 134.5t-51 135t-129 54q-81 0 -129 -54t-48 -135zM477 79h-2q-29 -44 -76.5 -67.5t-100.5 -23.5q-108 0 -175 70t-67 176t67 176t175 70q53 0 100.5 -24t76.5 -69h2v369h68v-756h-68
v79z" />
    <glyph glyph-name="Dcommaaccent" unicode="&#x1e10;" horiz-adv-x="757" 
d="M326 -75l-81 -235h-57l67 235h71zM166 644v-580h143q77 0 138.5 24.5t99.5 66t58 92.5t20 107t-20 107t-58 92.5t-99.5 66t-138.5 24.5h-143zM94 0v708h235q68 0 133 -22.5t119 -65t87 -112t33 -154.5t-33 -154.5t-87 -112t-119 -65t-133 -22.5h-235z" />
    <glyph glyph-name="dcommaaccent" unicode="&#x1e11;" horiz-adv-x="637" 
d="M389 -87l-81 -235h-57l67 235h71zM128 234q0 -81 47.5 -134.5t129.5 -53.5q78 0 129 53.5t51 134.5t-51 135t-129 54q-81 0 -129 -54t-48 -135zM477 79h-2q-29 -44 -76.5 -67.5t-100.5 -23.5q-108 0 -175 70t-67 176t67 176t175 70q53 0 100.5 -24t76.5 -69h2v369h68
v-756h-68v79z" />
    <glyph glyph-name="Dcircumflexbelow" unicode="&#x1e12;" horiz-adv-x="757" 
d="M337 -75l109 -144h-66l-83 108l-83 -108h-66l109 144h80zM166 644v-580h143q77 0 138.5 24.5t99.5 66t58 92.5t20 107t-20 107t-58 92.5t-99.5 66t-138.5 24.5h-143zM94 0v708h235q68 0 133 -22.5t119 -65t87 -112t33 -154.5t-33 -154.5t-87 -112t-119 -65t-133 -22.5
h-235z" />
    <glyph glyph-name="dcircumflexbelow" unicode="&#x1e13;" horiz-adv-x="637" 
d="M370 -87l109 -144h-66l-83 108l-83 -108h-66l109 144h80zM128 234q0 -81 47.5 -134.5t129.5 -53.5q78 0 129 53.5t51 134.5t-51 135t-129 54q-81 0 -129 -54t-48 -135zM477 79h-2q-29 -44 -76.5 -67.5t-100.5 -23.5q-108 0 -175 70t-67 176t67 176t175 70q53 0 100.5 -24
t76.5 -69h2v369h68v-756h-68v79z" />
    <glyph glyph-name="Emacrongrave" unicode="&#x1e14;" horiz-adv-x="592" 
d="M317 912l-132 144h91l100 -144h-59zM454 837v-54h-270v54h270zM166 337v-273h379v-64h-451v708h439v-64h-367v-244h343v-63h-343z" />
    <glyph glyph-name="emacrongrave" unicode="&#x1e15;" 
d="M283 684l-132 144h91l100 -144h-59zM421 609v-54h-270v54h270zM516 248q0 -20 -1 -32h-388q2 -71 50.5 -120.5t120.5 -49.5q50 0 89 23t61 58l51 -40q-78 -99 -201 -99q-104 0 -173 70t-69 176q0 105 68 175.5t168 70.5q106 0 165 -66t59 -166zM128 270h319
q-3 68 -43.5 110.5t-111.5 42.5q-67 0 -113.5 -45.5t-50.5 -107.5z" />
    <glyph glyph-name="Emacronacute" unicode="&#x1e16;" horiz-adv-x="592" 
d="M449 1056l-132 -144h-59l100 144h91zM454 837v-54h-270v54h270zM166 337v-273h379v-64h-451v708h439v-64h-367v-244h343v-63h-343z" />
    <glyph glyph-name="emacronacute" unicode="&#x1e17;" 
d="M419 828l-132 -144h-59l100 144h91zM421 609v-54h-270v54h270zM516 248q0 -20 -1 -32h-388q2 -71 50.5 -120.5t120.5 -49.5q50 0 89 23t61 58l51 -40q-78 -99 -201 -99q-104 0 -173 70t-69 176q0 105 68 175.5t168 70.5q106 0 165 -66t59 -166zM128 270h319
q-3 68 -43.5 110.5t-111.5 42.5q-67 0 -113.5 -45.5t-50.5 -107.5z" />
    <glyph glyph-name="Ecircumflexbelow" unicode="&#x1e18;" horiz-adv-x="592" 
d="M359 -75l109 -144h-66l-83 108l-83 -108h-66l109 144h80zM166 337v-273h379v-64h-451v708h439v-64h-367v-244h343v-63h-343z" />
    <glyph glyph-name="ecircumflexbelow" unicode="&#x1e19;" 
d="M326 -87l109 -144h-66l-83 108l-83 -108h-66l109 144h80zM516 248q0 -20 -1 -32h-388q2 -71 50.5 -120.5t120.5 -49.5q50 0 89 23t61 58l51 -40q-78 -99 -201 -99q-104 0 -173 70t-69 176q0 105 68 175.5t168 70.5q106 0 165 -66t59 -166zM128 270h319q-3 68 -43.5 110.5
t-111.5 42.5q-67 0 -113.5 -45.5t-50.5 -107.5z" />
    <glyph glyph-name="Etildebelow" unicode="&#x1e1a;" horiz-adv-x="592" 
d="M200 -183h-43q16 104 92 104q27 0 73 -23q50 -23 67 -23q35 0 49 50h43q-16 -104 -92 -104q-29 0 -73 23t-67 23q-35 0 -49 -50zM166 337v-273h379v-64h-451v708h439v-64h-367v-244h343v-63h-343z" />
    <glyph glyph-name="etildebelow" unicode="&#x1e1b;" 
d="M167 -195h-43q16 104 92 104q27 0 73 -23q50 -23 67 -23q35 0 49 50h43q-16 -104 -92 -104q-29 0 -73 23t-67 23q-35 0 -49 -50zM516 248q0 -20 -1 -32h-388q2 -71 50.5 -120.5t120.5 -49.5q50 0 89 23t61 58l51 -40q-78 -99 -201 -99q-104 0 -173 70t-69 176
q0 105 68 175.5t168 70.5q106 0 165 -66t59 -166zM128 270h319q-3 68 -43.5 110.5t-111.5 42.5q-67 0 -113.5 -45.5t-50.5 -107.5z" />
    <glyph glyph-name="Ecedillabreve" unicode="&#x1e1c;" horiz-adv-x="592" 
d="M422 915h44q-4 -62 -44 -97t-103 -35t-103 35t-44 97h44q7 -38 35 -58t68 -20t68 20t35 58zM166 337v-273h379v-64h-190l-47 -75q12 4 35 4q33 0 57.5 -19t24.5 -53q0 -46 -35 -66.5t-83 -20.5q-51 0 -94 20l16 36q29 -14 72 -14q21 0 42.5 11t21.5 33q0 39 -54 39
q-21 0 -43 -8l-18 15l62 98h-218v708h439v-64h-367v-244h343v-63h-343z" />
    <glyph glyph-name="ecedillabreve" unicode="&#x1e1d;" 
d="M389 687h44q-4 -62 -44 -97t-103 -35t-103 35t-44 97h44q7 -38 35 -58t68 -20t68 20t35 58zM128 270h319q-3 68 -43.5 110.5t-111.5 42.5q-67 0 -113.5 -45.5t-50.5 -107.5zM516 248q0 -20 -1 -32h-388q2 -71 50.5 -120.5t120.5 -49.5q50 0 89 23t61 58l51 -40
q-69 -87 -178 -98l-46 -76q12 4 35 4q33 0 57.5 -19t24.5 -53q0 -46 -35 -66.5t-83 -20.5q-51 0 -94 20l16 36q29 -14 72 -14q21 0 42.5 11t21.5 33q0 39 -54 39q-21 0 -43 -8l-18 15l60 99q-97 8 -159 76.5t-62 168.5q0 105 68 175.5t168 70.5q106 0 165 -66t59 -166z" />
    <glyph glyph-name="uni1E1E" unicode="&#x1e1e;" horiz-adv-x="562" 
d="M355 848q0 -20 -14.5 -34t-33.5 -14t-33.5 14t-14.5 34t14.5 34t33.5 14t33.5 -14t14.5 -34zM166 335v-335h-72v708h427v-64h-355v-246h330v-63h-330z" />
    <glyph glyph-name="uni1E1F" unicode="&#x1e1f;" horiz-adv-x="295" 
d="M236 880q0 -20 -14.5 -34t-33.5 -14t-33.5 14t-14.5 34t14.5 34t33.5 14t33.5 -14t14.5 -34zM288 468v-57h-110v-411h-68v411h-98v57h98v128q0 82 40 127t119 45q32 0 56 -7l-12 -60q-26 7 -47 7q-51 0 -69.5 -31t-18.5 -89v-120h110z" />
    <glyph glyph-name="Gmacron" unicode="&#x1e20;" horiz-adv-x="779" 
d="M557 855v-54h-270v54h270zM681 631l-50 -50q-77 82 -205 82q-132 0 -213 -90.5t-81 -218.5t81 -218t213 -90q121 0 191 46v215h-165v63h237v-319q-113 -69 -264 -69q-160 0 -264.5 105.5t-104.5 266.5t105 266.5t264 105.5q161 0 256 -95z" />
    <glyph glyph-name="gmacron" unicode="&#x1e21;" horiz-adv-x="632" 
d="M425 609v-54h-270v54h270zM128 240q0 -77 48 -129.5t129 -52.5q79 0 129.5 50.5t50.5 131.5q0 75 -51.5 129t-128.5 54q-81 0 -129 -53t-48 -130zM66 -146l49 52q29 -37 78 -61.5t101 -24.5q94 0 138.5 51t44.5 133v88h-2q-26 -43 -75 -67.5t-102 -24.5q-108 0 -175 67
t-67 171q0 102 67.5 172t174.5 70q53 0 101.5 -24.5t75.5 -68.5h2v81h68v-464q0 -33 -6.5 -64.5t-24 -65t-44.5 -58t-73.5 -40.5t-105.5 -16q-136 0 -225 94z" />
    <glyph glyph-name="uni1E22" unicode="&#x1e22;" horiz-adv-x="718" 
d="M406 848q0 -20 -14.5 -34t-33.5 -14t-33.5 14t-14.5 34t14.5 34t33.5 14t33.5 -14t14.5 -34zM94 0v708h72v-307h386v307h72v-708h-72v335h-386v-335h-72z" />
    <glyph glyph-name="uni1E23" unicode="&#x1e23;" horiz-adv-x="583" 
d="M176 848q0 -20 -14.5 -34t-33.5 -14t-33.5 14t-14.5 34t14.5 34t33.5 14t33.5 -14t14.5 -34zM160 391h2q18 41 62 65t95 24q87 0 132.5 -52t45.5 -141v-287h-68v259q0 80 -28.5 122t-98.5 42q-59 0 -100.5 -47.5t-41.5 -135.5v-240h-68v756h68v-365z" />
    <glyph glyph-name="Hdotbelow" unicode="&#x1e24;" horiz-adv-x="718" 
d="M407 -123q0 -20 -14.5 -34t-33.5 -14t-33.5 14t-14.5 34t14.5 34t33.5 14t33.5 -14t14.5 -34zM94 0v708h72v-307h386v307h72v-708h-72v335h-386v-335h-72z" />
    <glyph glyph-name="hdotbelow" unicode="&#x1e25;" horiz-adv-x="583" 
d="M342 -123q0 -20 -14.5 -34t-33.5 -14t-33.5 14t-14.5 34t14.5 34t33.5 14t33.5 -14t14.5 -34zM160 391h2q18 41 62 65t95 24q87 0 132.5 -52t45.5 -141v-287h-68v259q0 80 -28.5 122t-98.5 42q-59 0 -100.5 -47.5t-41.5 -135.5v-240h-68v756h68v-365z" />
    <glyph glyph-name="Hdieresis" unicode="&#x1e26;" horiz-adv-x="718" 
d="M404 834q0 21 14 36t37 15t37 -15t14 -36t-14 -36t-37 -15t-37 15t-14 36zM212 834q0 21 14 36t37 15t37 -15t14 -36t-14 -36t-37 -15t-37 15t-14 36zM94 0v708h72v-307h386v307h72v-708h-72v335h-386v-335h-72z" />
    <glyph glyph-name="hdieresis" unicode="&#x1e27;" horiz-adv-x="583" 
d="M168 882q0 21 14 36t37 15t37 -15t14 -36t-14 -36t-37 -15t-37 15t-14 36zM-24 882q0 21 14 36t37 15t37 -15t14 -36t-14 -36t-37 -15t-37 15t-14 36zM160 391h2q18 41 62 65t95 24q87 0 132.5 -52t45.5 -141v-287h-68v259q0 80 -28.5 122t-98.5 42q-59 0 -100.5 -47.5
t-41.5 -135.5v-240h-68v756h68v-365z" />
    <glyph glyph-name="Hcedilla" unicode="&#x1e28;" horiz-adv-x="718" 
d="M94 0v708h72v-307h386v307h72v-708h-72v335h-386v-335l-47 -75q12 4 35 4q33 0 57.5 -19t24.5 -53q0 -46 -35 -66.5t-83 -20.5q-51 0 -94 20l16 36q29 -14 72 -14q21 0 42.5 11t21.5 33q0 39 -54 39q-21 0 -43 -8l-18 15l62 98h-29z" />
    <glyph glyph-name="hcedilla" unicode="&#x1e29;" horiz-adv-x="583" 
d="M160 391h2q18 41 62 65t95 24q87 0 132.5 -52t45.5 -141v-287h-68v259q0 80 -28.5 122t-98.5 42q-59 0 -100.5 -47.5t-41.5 -135.5v-240l-47 -75q12 4 35 4q33 0 57.5 -19t24.5 -53q0 -46 -35 -66.5t-83 -20.5q-51 0 -94 20l16 36q29 -14 72 -14q21 0 42.5 11t21.5 33
q0 39 -54 39q-21 0 -43 -8l-18 15l62 98h-25v756h68v-365z" />
    <glyph glyph-name="Hbrevebelow" unicode="&#x1e2a;" horiz-adv-x="718" 
d="M462 -75h44q-4 -62 -44 -97t-103 -35t-103 35t-44 97h44q7 -38 35 -58t68 -20t68 20t35 58zM94 0v708h72v-307h386v307h72v-708h-72v335h-386v-335h-72z" />
    <glyph glyph-name="hbrevebelow" unicode="&#x1e2b;" horiz-adv-x="583" 
d="M397 -75h44q-4 -62 -44 -97t-103 -35t-103 35t-44 97h44q7 -38 35 -58t68 -20t68 20t35 58zM160 391h2q18 41 62 65t95 24q87 0 132.5 -52t45.5 -141v-287h-68v259q0 80 -28.5 122t-98.5 42q-59 0 -100.5 -47.5t-41.5 -135.5v-240h-68v756h68v-365z" />
    <glyph glyph-name="Itildebelow" unicode="&#x1e2c;" horiz-adv-x="260" 
d="M11 -183h-43q16 104 92 104q27 0 73 -23q50 -23 67 -23q35 0 49 50h43q-16 -104 -92 -104q-29 0 -73 23t-67 23q-35 0 -49 -50zM166 708v-708h-72v708h72z" />
    <glyph glyph-name="itildebelow" unicode="&#x1e2d;" horiz-adv-x="250" 
d="M6 -183h-43q16 104 92 104q27 0 73 -23q50 -23 67 -23q35 0 49 50h43q-16 -104 -92 -104q-29 0 -73 23t-67 23q-35 0 -49 -50zM173 648q0 -20 -14.5 -34t-33.5 -14t-33.5 14t-14.5 34t14.5 34t33.5 14t33.5 -14t14.5 -34zM159 468v-468h-68v468h68z" />
    <glyph glyph-name="Idieresisacute" unicode="&#x1e2e;" horiz-adv-x="260" 
d="M289 1104l-132 -144h-59l100 144h91zM175 834q0 21 14 36t37 15t37 -15t14 -36t-14 -36t-37 -15t-37 15t-14 36zM-17 834q0 21 14 36t37 15t37 -15t14 -36t-14 -36t-37 -15t-37 15t-14 36zM166 708v-708h-72v708h72z" />
    <glyph glyph-name="idieresisacute" unicode="&#x1e2f;" horiz-adv-x="250" 
d="M281 864l-132 -144h-59l100 144h91zM170 594q0 21 14 36t37 15t37 -15t14 -36t-14 -36t-37 -15t-37 15t-14 36zM-22 594q0 21 14 36t37 15t37 -15t14 -36t-14 -36t-37 -15t-37 15t-14 36zM159 468v-468h-68v468h68z" />
    <glyph glyph-name="Kacute" unicode="&#x1e30;" horiz-adv-x="628" 
d="M456 927l-132 -144h-59l100 144h91zM166 708v-318h1l337 318h103l-357 -321l377 -387h-106l-354 377h-1v-377h-72v708h72z" />
    <glyph glyph-name="kacute" unicode="&#x1e31;" horiz-adv-x="510" 
d="M392 975l-132 -144h-59l100 144h91zM160 756v-499h3l216 211h98l-236 -214l260 -254h-100l-238 246h-3v-246h-68v756h68z" />
    <glyph glyph-name="Kdotbelow" unicode="&#x1e32;" horiz-adv-x="628" 
d="M378 -123q0 -20 -14.5 -34t-33.5 -14t-33.5 14t-14.5 34t14.5 34t33.5 14t33.5 -14t14.5 -34zM166 708v-318h1l337 318h103l-357 -321l377 -387h-106l-354 377h-1v-377h-72v708h72z" />
    <glyph glyph-name="kdotbelow" unicode="&#x1e33;" horiz-adv-x="510" 
d="M324 -123q0 -20 -14.5 -34t-33.5 -14t-33.5 14t-14.5 34t14.5 34t33.5 14t33.5 -14t14.5 -34zM160 756v-499h3l216 211h98l-236 -214l260 -254h-100l-238 246h-3v-246h-68v756h68z" />
    <glyph glyph-name="Klinebelow" unicode="&#x1e34;" horiz-adv-x="628" 
d="M465 -75v-54h-270v54h270zM166 708v-318h1l337 318h103l-357 -321l377 -387h-106l-354 377h-1v-377h-72v708h72z" />
    <glyph glyph-name="klinebelow" unicode="&#x1e35;" horiz-adv-x="510" 
d="M431 -75v-54h-270v54h270zM160 756v-499h3l216 211h98l-236 -214l260 -254h-100l-238 246h-3v-246h-68v756h68z" />
    <glyph glyph-name="Ldotbelow" unicode="&#x1e36;" horiz-adv-x="510" 
d="M343 -123q0 -20 -14.5 -34t-33.5 -14t-33.5 14t-14.5 34t14.5 34t33.5 14t33.5 -14t14.5 -34zM166 708v-644h330v-64h-402v708h72z" />
    <glyph glyph-name="ldotbelow" unicode="&#x1e37;" horiz-adv-x="252" 
d="M174 -123q0 -20 -14.5 -34t-33.5 -14t-33.5 14t-14.5 34t14.5 34t33.5 14t33.5 -14t14.5 -34zM160 756v-756h-68v756h68z" />
    <glyph glyph-name="Ldotbelowmacron" unicode="&#x1e38;" horiz-adv-x="510" 
d="M265 837v-54h-270v54h270zM343 -123q0 -20 -14.5 -34t-33.5 -14t-33.5 14t-14.5 34t14.5 34t33.5 14t33.5 -14t14.5 -34zM166 708v-644h330v-64h-402v708h72z" />
    <glyph glyph-name="ldotbelowmacron" unicode="&#x1e39;" horiz-adv-x="252" 
d="M261 885v-54h-270v54h270zM174 -123q0 -20 -14.5 -34t-33.5 -14t-33.5 14t-14.5 34t14.5 34t33.5 14t33.5 -14t14.5 -34zM160 756v-756h-68v756h68z" />
    <glyph glyph-name="Llinebelow" unicode="&#x1e3a;" horiz-adv-x="510" 
d="M430 -75v-54h-270v54h270zM166 708v-644h330v-64h-402v708h72z" />
    <glyph glyph-name="llinebelow" unicode="&#x1e3b;" horiz-adv-x="252" 
d="M261 -75v-54h-270v54h270zM160 756v-756h-68v756h68z" />
    <glyph glyph-name="Lcircumflexbelow" unicode="&#x1e3c;" horiz-adv-x="510" 
d="M335 -75l109 -144h-66l-83 108l-83 -108h-66l109 144h80zM166 708v-644h330v-64h-402v708h72z" />
    <glyph glyph-name="lcircumflexbelow" unicode="&#x1e3d;" horiz-adv-x="252" 
d="M166 -75l109 -144h-66l-83 108l-83 -108h-66l109 144h80zM160 756v-756h-68v756h68z" />
    <glyph glyph-name="Macute" unicode="&#x1e3e;" horiz-adv-x="886" 
d="M579 927l-132 -144h-59l100 144h91zM204 708l240 -586h1l237 586h110v-708h-72v615h-2l-256 -615h-38l-256 615h-2v-615h-72v708h110z" />
    <glyph glyph-name="macute" unicode="&#x1e3f;" horiz-adv-x="883" 
d="M567 699l-132 -144h-59l100 144h91zM155 388h2q20 42 62 67t92 25q104 0 144 -99q49 99 164 99q87 0 132.5 -52t45.5 -141v-287h-68v259q0 164 -121 164q-69 0 -101 -50t-32 -124v-249h-68v273q0 75 -24.5 112.5t-88.5 37.5q-54 0 -95 -47.5t-41 -135.5v-240h-68v365
q0 60 -4 103h65q4 -33 4 -80z" />
    <glyph glyph-name="Mdotaccent" unicode="&#x1e40;" horiz-adv-x="886" 
d="M491 831q0 -20 -14.5 -34t-33.5 -14t-33.5 14t-14.5 34t14.5 34t33.5 14t33.5 -14t14.5 -34zM204 708l240 -586h1l237 586h110v-708h-72v615h-2l-256 -615h-38l-256 615h-2v-615h-72v708h110z" />
    <glyph glyph-name="mdotaccent" unicode="&#x1e41;" horiz-adv-x="883" 
d="M489 603q0 -20 -14.5 -34t-33.5 -14t-33.5 14t-14.5 34t14.5 34t33.5 14t33.5 -14t14.5 -34zM155 388h2q20 42 62 67t92 25q104 0 144 -99q49 99 164 99q87 0 132.5 -52t45.5 -141v-287h-68v259q0 164 -121 164q-69 0 -101 -50t-32 -124v-249h-68v273q0 75 -24.5 112.5
t-88.5 37.5q-54 0 -95 -47.5t-41 -135.5v-240h-68v365q0 60 -4 103h65q4 -33 4 -80z" />
    <glyph glyph-name="Mdotbelow" unicode="&#x1e42;" horiz-adv-x="886" 
d="M491 -123q0 -20 -14.5 -34t-33.5 -14t-33.5 14t-14.5 34t14.5 34t33.5 14t33.5 -14t14.5 -34zM204 708l240 -586h1l237 586h110v-708h-72v615h-2l-256 -615h-38l-256 615h-2v-615h-72v708h110z" />
    <glyph glyph-name="mdotbelow" unicode="&#x1e43;" horiz-adv-x="883" 
d="M489 -123q0 -20 -14.5 -34t-33.5 -14t-33.5 14t-14.5 34t14.5 34t33.5 14t33.5 -14t14.5 -34zM155 388h2q20 42 62 67t92 25q104 0 144 -99q49 99 164 99q87 0 132.5 -52t45.5 -141v-287h-68v259q0 164 -121 164q-69 0 -101 -50t-32 -124v-249h-68v273q0 75 -24.5 112.5
t-88.5 37.5q-54 0 -95 -47.5t-41 -135.5v-240h-68v365q0 60 -4 103h65q4 -33 4 -80z" />
    <glyph glyph-name="Ndotaccent" unicode="&#x1e44;" horiz-adv-x="764" 
d="M440 831q0 -20 -14.5 -34t-33.5 -14t-33.5 14t-14.5 34t14.5 34t33.5 14t33.5 -14t14.5 -34zM184 708l412 -603h2v603h72v-708h-90l-412 609h-2v-609h-72v708h90z" />
    <glyph glyph-name="ndotaccent" unicode="&#x1e45;" horiz-adv-x="581" 
d="M338 603q0 -20 -14.5 -34t-33.5 -14t-33.5 14t-14.5 34t14.5 34t33.5 14t33.5 -14t14.5 -34zM86 468h65q4 -33 4 -80h2q20 41 64.5 66.5t95.5 25.5q87 0 132.5 -52t45.5 -141v-287h-68v259q0 80 -28.5 122t-98.5 42q-59 0 -100.5 -47.5t-41.5 -135.5v-240h-68v365
q0 60 -4 103z" />
    <glyph glyph-name="Ndotbelow" unicode="&#x1e46;" horiz-adv-x="764" 
d="M430 -123q0 -20 -14.5 -34t-33.5 -14t-33.5 14t-14.5 34t14.5 34t33.5 14t33.5 -14t14.5 -34zM184 708l412 -603h2v603h72v-708h-90l-412 609h-2v-609h-72v708h90z" />
    <glyph glyph-name="ndotbelow" unicode="&#x1e47;" horiz-adv-x="581" 
d="M338 -123q0 -20 -14.5 -34t-33.5 -14t-33.5 14t-14.5 34t14.5 34t33.5 14t33.5 -14t14.5 -34zM86 468h65q4 -33 4 -80h2q20 41 64.5 66.5t95.5 25.5q87 0 132.5 -52t45.5 -141v-287h-68v259q0 80 -28.5 122t-98.5 42q-59 0 -100.5 -47.5t-41.5 -135.5v-240h-68v365
q0 60 -4 103z" />
    <glyph glyph-name="Nlinebelow" unicode="&#x1e48;" horiz-adv-x="764" 
d="M507 -75v-54h-270v54h270zM184 708l412 -603h2v603h72v-708h-90l-412 609h-2v-609h-72v708h90z" />
    <glyph glyph-name="nlinebelow" unicode="&#x1e49;" horiz-adv-x="581" 
d="M425 -75v-54h-270v54h270zM86 468h65q4 -33 4 -80h2q20 41 64.5 66.5t95.5 25.5q87 0 132.5 -52t45.5 -141v-287h-68v259q0 80 -28.5 122t-98.5 42q-59 0 -100.5 -47.5t-41.5 -135.5v-240h-68v365q0 60 -4 103z" />
    <glyph glyph-name="Ncircumflexbelow" unicode="&#x1e4a;" horiz-adv-x="764" 
d="M412 -75l109 -144h-66l-83 108l-83 -108h-66l109 144h80zM184 708l412 -603h2v603h72v-708h-90l-412 609h-2v-609h-72v708h90z" />
    <glyph glyph-name="ncircumflexbelow" unicode="&#x1e4b;" horiz-adv-x="581" 
d="M330 -75l109 -144h-66l-83 108l-83 -108h-66l109 144h80zM86 468h65q4 -33 4 -80h2q20 41 64.5 66.5t95.5 25.5q87 0 132.5 -52t45.5 -141v-287h-68v259q0 80 -28.5 122t-98.5 42q-59 0 -100.5 -47.5t-41.5 -135.5v-240h-68v365q0 60 -4 103z" />
    <glyph glyph-name="Otildeacute" unicode="&#x1e4c;" horiz-adv-x="850" 
d="M591 1128l-132 -144h-59l100 144h91zM306 801h-43q16 104 92 104q27 0 73 -23q50 -23 67 -23q35 0 49 50h43q-16 -104 -92 -104q-29 0 -73 23t-67 23q-35 0 -49 -50zM718 354q0 129 -80.5 219t-212.5 90t-212.5 -90t-80.5 -219t80.5 -218.5t212.5 -89.5t212.5 89.5
t80.5 218.5zM794 354q0 -161 -105 -266.5t-264 -105.5t-264 105.5t-105 266.5t105 266.5t264 105.5t264 -105.5t105 -266.5z" />
    <glyph glyph-name="otildeacute" unicode="&#x1e4d;" horiz-adv-x="611" 
d="M462 882l-132 -144h-59l100 144h91zM186 555h-43q16 104 92 104q27 0 73 -23q50 -23 67 -23q35 0 49 50h43q-16 -104 -92 -104q-29 0 -73 23t-67 23q-35 0 -49 -50zM483 234q0 80 -49 134.5t-129 54.5q-79 0 -128 -54.5t-49 -134.5t49 -134t128 -54q80 0 129 53.5
t49 134.5zM555 234q0 -106 -70 -176t-180 -70q-108 0 -178.5 70t-70.5 176t70.5 176t178.5 70q110 0 180 -70t70 -176z" />
    <glyph glyph-name="Otildedieresis" unicode="&#x1e4e;" horiz-adv-x="850" 
d="M470 1035q0 21 14 36t37 15t37 -15t14 -36t-14 -36t-37 -15t-37 15t-14 36zM278 1035q0 21 14 36t37 15t37 -15t14 -36t-14 -36t-37 -15t-37 15t-14 36zM306 801h-43q16 104 92 104q27 0 73 -23q50 -23 67 -23q35 0 49 50h43q-16 -104 -92 -104q-29 0 -73 23t-67 23
q-35 0 -49 -50zM718 354q0 129 -80.5 219t-212.5 90t-212.5 -90t-80.5 -219t80.5 -218.5t212.5 -89.5t212.5 89.5t80.5 218.5zM794 354q0 -161 -105 -266.5t-264 -105.5t-264 105.5t-105 266.5t105 266.5t264 105.5t264 -105.5t105 -266.5z" />
    <glyph glyph-name="otildedieresis" unicode="&#x1e4f;" horiz-adv-x="611" 
d="M350 789q0 21 14 36t37 15t37 -15t14 -36t-14 -36t-37 -15t-37 15t-14 36zM158 789q0 21 14 36t37 15t37 -15t14 -36t-14 -36t-37 -15t-37 15t-14 36zM186 555h-43q16 104 92 104q27 0 73 -23q50 -23 67 -23q35 0 49 50h43q-16 -104 -92 -104q-29 0 -73 23t-67 23
q-35 0 -49 -50zM483 234q0 80 -49 134.5t-129 54.5q-79 0 -128 -54.5t-49 -134.5t49 -134t128 -54q80 0 129 53.5t49 134.5zM555 234q0 -106 -70 -176t-180 -70q-108 0 -178.5 70t-70.5 176t70.5 176t178.5 70q110 0 180 -70t70 -176z" />
    <glyph glyph-name="Omacrongrave" unicode="&#x1e50;" horiz-adv-x="850" 
d="M427 930l-132 144h91l100 -144h-59zM560 855v-54h-270v54h270zM718 354q0 129 -80.5 219t-212.5 90t-212.5 -90t-80.5 -219t80.5 -218.5t212.5 -89.5t212.5 89.5t80.5 218.5zM794 354q0 -161 -105 -266.5t-264 -105.5t-264 105.5t-105 266.5t105 266.5t264 105.5
t264 -105.5t105 -266.5z" />
    <glyph glyph-name="omacrongrave" unicode="&#x1e51;" horiz-adv-x="611" 
d="M304 684l-132 144h91l100 -144h-59zM440 609v-54h-270v54h270zM483 234q0 80 -49 134.5t-129 54.5q-79 0 -128 -54.5t-49 -134.5t49 -134t128 -54q80 0 129 53.5t49 134.5zM555 234q0 -106 -70 -176t-180 -70q-108 0 -178.5 70t-70.5 176t70.5 176t178.5 70
q110 0 180 -70t70 -176z" />
    <glyph glyph-name="Omacronacute" unicode="&#x1e52;" horiz-adv-x="850" 
d="M589 1074l-132 -144h-59l100 144h91zM560 855v-54h-270v54h270zM718 354q0 129 -80.5 219t-212.5 90t-212.5 -90t-80.5 -219t80.5 -218.5t212.5 -89.5t212.5 89.5t80.5 218.5zM794 354q0 -161 -105 -266.5t-264 -105.5t-264 105.5t-105 266.5t105 266.5t264 105.5
t264 -105.5t105 -266.5z" />
    <glyph glyph-name="omacronacute" unicode="&#x1e53;" horiz-adv-x="611" 
d="M461 828l-132 -144h-59l100 144h91zM440 609v-54h-270v54h270zM483 234q0 80 -49 134.5t-129 54.5q-79 0 -128 -54.5t-49 -134.5t49 -134t128 -54q80 0 129 53.5t49 134.5zM555 234q0 -106 -70 -176t-180 -70q-108 0 -178.5 70t-70.5 176t70.5 176t178.5 70
q110 0 180 -70t70 -176z" />
    <glyph glyph-name="Pacute" unicode="&#x1e54;" horiz-adv-x="580" 
d="M409 927l-132 -144h-59l100 144h91zM166 646v-256h122q85 0 129 33t44 96q0 127 -173 127h-122zM94 0v708h200q111 0 175 -48t64 -141t-65 -141.5t-176 -48.5h-126v-329h-72z" />
    <glyph glyph-name="pacute" unicode="&#x1e55;" horiz-adv-x="635" 
d="M430 699l-132 -144h-59l100 144h91zM507 234q0 81 -48 135t-129 54q-78 0 -129 -54t-51 -135t51 -134.5t129 -53.5q82 0 129.5 53.5t47.5 134.5zM158 79v-319h-68v708h68v-81h3q28 44 76 68.5t100 24.5q108 0 175 -70t67 -176t-67 -176t-175 -70q-52 0 -99.5 24t-76.5 67
h-3z" />
    <glyph glyph-name="uni1E56" unicode="&#x1e56;" horiz-adv-x="580" 
d="M337 848q0 -20 -14.5 -34t-33.5 -14t-33.5 14t-14.5 34t14.5 34t33.5 14t33.5 -14t14.5 -34zM166 646v-256h122q85 0 129 33t44 96q0 127 -173 127h-122zM94 0v708h200q111 0 175 -48t64 -141t-65 -141.5t-176 -48.5h-126v-329h-72z" />
    <glyph glyph-name="uni1E57" unicode="&#x1e57;" horiz-adv-x="635" 
d="M368 648q0 -20 -14.5 -34t-33.5 -14t-33.5 14t-14.5 34t14.5 34t33.5 14t33.5 -14t14.5 -34zM507 234q0 81 -48 135t-129 54q-78 0 -129 -54t-51 -135t51 -134.5t129 -53.5q82 0 129.5 53.5t47.5 134.5zM158 79v-319h-68v708h68v-81h3q28 44 76 68.5t100 24.5
q108 0 175 -70t67 -176t-67 -176t-175 -70q-52 0 -99.5 24t-76.5 67h-3z" />
    <glyph glyph-name="Rdotaccent" unicode="&#x1e58;" horiz-adv-x="599" 
d="M330 831q0 -20 -14.5 -34t-33.5 -14t-33.5 14t-14.5 34t14.5 34t33.5 14t33.5 -14t14.5 -34zM166 646v-253h125q181 0 181 126q0 127 -178 127h-128zM166 331v-331h-72v708h208q242 0 242 -189q0 -77 -50.5 -125t-130.5 -57l207 -337h-88l-196 331h-120z" />
    <glyph glyph-name="rdotaccent" unicode="&#x1e59;" horiz-adv-x="360" 
d="M267 603q0 -20 -14.5 -34t-33.5 -14t-33.5 14t-14.5 34t14.5 34t33.5 14t33.5 -14t14.5 -34zM90 0v365q0 60 -4 103h65q4 -33 4 -80h2q21 42 61 67t89 25q26 0 45 -5l-9 -64q-16 6 -48 6q-59 0 -98 -44.5t-39 -132.5v-240h-68z" />
    <glyph glyph-name="Rdotbelow" unicode="&#x1e5a;" horiz-adv-x="599" 
d="M370 -123q0 -20 -14.5 -34t-33.5 -14t-33.5 14t-14.5 34t14.5 34t33.5 14t33.5 -14t14.5 -34zM166 646v-253h125q181 0 181 126q0 127 -178 127h-128zM166 331v-331h-72v708h208q242 0 242 -189q0 -77 -50.5 -125t-130.5 -57l207 -337h-88l-196 331h-120z" />
    <glyph glyph-name="rdotbelow" unicode="&#x1e5b;" horiz-adv-x="360" 
d="M173 -123q0 -20 -14.5 -34t-33.5 -14t-33.5 14t-14.5 34t14.5 34t33.5 14t33.5 -14t14.5 -34zM90 0v365q0 60 -4 103h65q4 -33 4 -80h2q21 42 61 67t89 25q26 0 45 -5l-9 -64q-16 6 -48 6q-59 0 -98 -44.5t-39 -132.5v-240h-68z" />
    <glyph glyph-name="Rdotbelowmacron" unicode="&#x1e5c;" horiz-adv-x="599" 
d="M360 -123q0 -20 -14.5 -34t-33.5 -14t-33.5 14t-14.5 34t14.5 34t33.5 14t33.5 -14t14.5 -34zM467 837v-54h-270v54h270zM166 646v-253h125q181 0 181 126q0 127 -178 127h-128zM166 331v-331h-72v708h208q242 0 242 -189q0 -77 -50.5 -125t-130.5 -57l207 -337h-88
l-196 331h-120z" />
    <glyph glyph-name="rdotbelowmacron" unicode="&#x1e5d;" horiz-adv-x="360" 
d="M172 -123q0 -20 -14.5 -34t-33.5 -14t-33.5 14t-14.5 34t14.5 34t33.5 14t33.5 -14t14.5 -34zM350 609v-54h-270v54h270zM90 0v365q0 60 -4 103h65q4 -33 4 -80h2q21 42 61 67t89 25q26 0 45 -5l-9 -64q-16 6 -48 6q-59 0 -98 -44.5t-39 -132.5v-240h-68z" />
    <glyph glyph-name="Rlinebelow" unicode="&#x1e5e;" horiz-adv-x="599" 
d="M457 -75v-54h-270v54h270zM166 646v-253h125q181 0 181 126q0 127 -178 127h-128zM166 331v-331h-72v708h208q242 0 242 -189q0 -77 -50.5 -125t-130.5 -57l207 -337h-88l-196 331h-120z" />
    <glyph glyph-name="rlinebelow" unicode="&#x1e5f;" horiz-adv-x="360" 
d="M260 -75v-54h-270v54h270zM90 0v365q0 60 -4 103h65q4 -33 4 -80h2q21 42 61 67t89 25q26 0 45 -5l-9 -64q-16 6 -48 6q-59 0 -98 -44.5t-39 -132.5v-240h-68z" />
    </font>
</defs>
</svg>
